osu file format v14

[General]
AudioFilename: audio.mp3
AudioLeadIn: 0
PreviewTime: 54830
Countdown: 0
SampleSet: Soft
StackLeniency: 0.7
Mode: 0
LetterboxInBreaks: 0
WidescreenStoryboard: 0

[Editor]
Bookmarks: 54145,86014
DistanceSpacing: 1.1
BeatDivisor: 4
GridSize: 4
TimelineZoom: 2.4

[Metadata]
Title:HIGHSCHOOL OF THE DEAD
TitleUnicode:HIGHSCHOOL OF THE DEAD
Artist:Kishida Kyoudan & The Akeboshi Rockets
ArtistUnicode:Kishida Kyoudan & The Akeboshi Rockets
Creator:DavidEd
Version:Extreme
Source:学園黙示録
Tags:intro theme op opening zombies hotd akitoshi kalibe infiwong deppyforce sotarks
BeatmapID:1140698
BeatmapSetID:538536

[Difficulty]
HPDrainRate:6.5
CircleSize:4
OverallDifficulty:8.5
ApproachRate:9.5
SliderMultiplier:1.8
SliderTickRate:1

[Events]
//Background and Video events
0,0,"bg.jpg",0,0
//Break Periods
//Storyboard Layer 0 (Background)
//Storyboard Layer 1 (Fail)
//Storyboard Layer 2 (Pass)
//Storyboard Layer 3 (Foreground)
//Storyboard Sound Samples

[TimingPoints]
145,315.789473684211,4,2,1,60,1,0
145,-125,4,2,10,60,0,0
1250,-125,4,2,1,60,0,0
1408,-125,4,2,3,60,0,0
1566,-125,4,2,9,60,0,0
2750,-125,4,2,9,5,0,0
2829,-125,4,2,9,60,0,0
3066,-125,4,2,9,5,0,0
3145,-125,4,2,9,60,0,0
5276,-125,4,2,9,5,0,0
5355,-125,4,2,9,60,0,0
5592,-125,4,2,9,5,0,0
5671,-125,4,2,9,60,0,0
6145,-76.9230769230769,4,2,9,60,0,0
6302,-76.9230769230769,4,2,1,60,0,0
6460,-125,4,2,9,60,0,0
7802,-125,4,2,9,5,0,0
7881,-125,4,2,9,60,0,0
8118,-125,4,2,9,5,0,0
8197,-125,4,2,9,60,0,0
8671,-76.9230769230769,4,2,9,60,0,0
8829,-76.9230769230769,4,2,1,60,0,0
8987,-125,4,2,1,60,0,0
9145,-125,4,2,9,60,0,0
10092,-90.9090909090909,4,2,1,60,0,0
10329,-90.9090909090909,4,2,1,5,0,0
10408,-90.9090909090909,4,2,1,60,0,0
10723,-90.9090909090909,4,2,11,60,0,0
11039,-90.9090909090909,4,2,1,60,0,0
11513,-90.9090909090909,4,2,10,60,0,0
12776,-111.111111111111,4,2,1,60,0,0
12855,-111.111111111111,4,3,2,60,0,0
13250,-111.111111111111,4,2,1,60,0,0
13329,-111.111111111111,4,3,2,60,0,0
13881,-90.9090909090908,4,2,1,70,0,0
14355,-90.9090909090908,4,2,2,70,0,0
16408,-90.9090909090908,4,2,11,70,0,0
16723,-90.9090909090908,4,2,2,70,0,0
17671,-83.3333333333333,4,2,2,70,0,0
17908,-83.3333333333333,4,2,2,5,0,0
17987,-83.3333333333333,4,2,2,70,0,0
18223,-83.3333333333333,4,2,2,5,0,0
18302,-83.3333333333333,4,2,2,70,0,0
18934,-90.9090909090909,4,2,1,70,0,0
19250,-90.9090909090909,4,2,2,70,0,0
21460,-83.3333333333333,4,2,11,70,0,0
21697,-83.3333333333333,4,2,2,5,0,0
21776,-83.3333333333333,4,2,2,70,0,0
22723,-90.9090909090909,4,2,1,70,0,0
24145,-142.857142857143,4,2,1,50,0,0
24460,-142.857142857143,4,2,3,50,0,0
26039,-99.9999999999999,4,2,3,50,0,0
26513,-99.9999999999999,4,2,10,50,0,0
26671,-142.857142857143,4,2,1,50,0,0
26987,-142.857142857143,4,2,3,50,0,0
27618,-125,4,2,3,50,0,0
27934,-111.111111111111,4,2,3,50,0,0
28250,-100,4,2,3,50,0,0
28723,-100,4,2,10,50,0,0
28881,-100,4,2,1,50,0,0
29039,-100,4,2,10,50,0,0
29197,-142.857142857143,4,2,1,50,0,0
29513,-142.857142857143,4,2,3,50,0,0
31092,-100,4,2,3,50,0,0
31408,-100,4,2,11,50,0,0
31723,-142.857142857143,4,2,1,50,0,0
32355,-125,4,2,1,55,0,0
32987,-111.111111111111,4,2,1,60,0,0
33618,-99.9999999999999,4,2,1,65,0,0
34250,-99.9999999999999,4,2,1,70,0,0
34723,-99.9999999999999,4,3,2,70,0,0
35039,-99.9999999999999,4,2,1,70,0,0
35355,-99.9999999999999,4,3,2,70,0,0
35671,-99.9999999999999,4,2,1,70,0,0
35987,-99.9999999999999,4,3,2,70,0,0
36302,-99.9999999999999,4,2,1,70,0,0
36618,-99.9999999999999,4,3,2,70,0,0
36934,-99.9999999999999,4,2,1,70,0,0
37250,-99.9999999999999,4,3,2,70,0,0
37566,-99.9999999999999,4,2,1,70,0,0
37881,-99.9999999999999,4,3,2,70,0,0
38197,-99.9999999999999,4,2,1,70,0,0
38513,-99.9999999999999,4,3,2,70,0,0
38829,-99.9999999999999,4,2,1,70,0,0
39145,-99.9999999999999,4,3,2,70,0,0
39460,-99.9999999999999,4,2,1,70,0,0
39776,-99.9999999999999,4,3,2,70,0,0
40092,-99.9999999999999,4,2,1,70,0,0
40408,-99.9999999999999,4,3,2,70,0,0
40723,-99.9999999999999,4,2,1,70,0,0
41039,-99.9999999999999,4,3,2,70,0,0
41355,-99.9999999999999,4,2,1,70,0,0
41671,-99.9999999999999,4,3,2,70,0,0
41987,-99.9999999999999,4,2,1,70,0,0
42302,-99.9999999999999,4,3,2,70,0,0
42618,-99.9999999999999,4,2,1,70,0,0
42934,-99.9999999999999,4,2,3,70,0,0
43408,-76.9230769230769,4,2,3,70,0,0
43723,-76.9230769230769,4,2,5,70,0,0
43802,-76.9230769230769,4,2,3,5,0,0
43881,-76.9230769230769,4,2,3,70,0,0
44197,-83.3333333333333,4,2,5,70,0,0
44276,-83.3333333333333,4,2,3,5,0,0
44355,-125,4,2,1,70,0,0
45145,-100,4,2,1,70,0,0
46092,-90.9090909090909,4,2,1,70,0,0
46250,-100,4,3,2,70,0,0
46487,-100,4,2,1,70,0,0
46645,-100,4,2,1,40,0,0
46802,-100,4,2,1,70,0,0
47039,-100,4,3,2,70,0,0
47355,-100,4,2,1,70,0,0
47513,-100,4,2,1,50,0,0
47671,-100,4,3,2,70,0,0
47829,-100,4,2,1,70,0,0
47987,-100,4,3,2,70,0,0
48302,-100,4,2,1,70,0,0
48460,-100,4,3,2,70,0,0
49408,-125,4,2,1,70,0,0
50671,-111.111111111111,4,2,1,70,0,0
51934,-99.9999999999999,4,2,11,75,0,0
52881,-99.9999999999999,4,2,1,75,0,0
53039,-90.9090909090909,4,2,1,75,0,0
53355,-90.9090909090909,4,2,1,50,0,0
53513,-90.9090909090909,4,2,1,55,0,0
53671,-90.9090909090909,4,2,1,60,0,0
53829,-90.9090909090909,4,2,1,65,0,0
53987,-90.9090909090909,4,2,1,70,0,0
54145,-90.9090909090909,4,2,1,75,0,0
55092,-166.666666666667,4,2,1,50,0,0
55408,-166.666666666667,4,2,5,50,0,0
55645,-166.666666666667,4,2,1,5,0,0
55723,-83.3333333333333,4,2,1,80,0,1
55960,-83.3333333333333,4,2,1,5,0,1
56039,-83.3333333333333,4,2,2,80,0,1
57223,-83.3333333333333,4,2,1,5,0,1
57302,-83.3333333333333,4,2,2,80,0,1
58487,-83.3333333333333,4,2,1,5,0,1
58566,-83.3333333333333,4,2,2,80,0,1
60618,-83.3333333333333,4,2,1,80,0,1
60934,-83.3333333333333,4,2,2,80,0,1
65829,-83.3333333333333,4,2,1,80,0,1
66066,-83.3333333333333,4,2,1,5,0,1
66145,-83.3333333333333,4,2,2,80,0,1
67329,-83.3333333333333,4,2,1,5,0,1
67408,-83.3333333333333,4,2,2,80,0,1
68592,-83.3333333333333,4,2,1,5,0,1
68671,-83.3333333333333,4,2,2,80,0,1
70723,-83.3333333333333,4,2,1,80,0,1
71039,-83.3333333333333,4,2,2,80,0,1
75934,-125,4,2,3,70,0,0
76092,-125,4,2,9,40,0,0
76723,-83.3333333333333,4,2,3,70,0,0
76960,-83.3333333333333,4,2,1,5,0,0
77039,-125,4,2,3,70,0,0
77197,-125,4,2,9,40,0,0
77987,-83.3333333333333,4,2,3,70,0,0
78223,-83.3333333333333,4,2,1,5,0,0
78302,-125,4,2,3,70,0,0
78460,-125,4,2,9,40,0,0
79250,-83.3333333333333,4,2,3,70,0,0
79487,-83.3333333333333,4,2,1,5,0,0
79566,-83.3333333333333,4,2,1,70,0,0
80039,-83.3333333333333,4,2,2,70,0,0
80987,-100,4,2,1,70,0,0
81145,-100,4,3,2,70,0,0
81776,-100,4,2,2,70,0,0
82408,-100,4,3,2,70,0,0
83039,-100,4,2,2,70,0,0
83671,-100,4,3,2,70,0,0
84302,-100,4,2,2,70,0,0
85566,-100,4,3,2,70,0,0
85723,-100,4,2,2,70,0,0
85881,-100,4,2,3,70,0,0
86355,-100,4,2,1,65,0,0
86671,-100,4,2,1,60,0,0
86987,-100,4,2,1,55,0,0
87302,-100,4,2,1,50,0,0
87618,-100,4,2,1,45,0,0
87934,-100,4,2,1,40,0,0
88250,-100,4,2,1,35,0,0
88566,-100,4,2,1,30,0,0
88881,-100,4,2,1,25,0,0
89197,-100,4,2,1,20,0,0

[Colours]
Combo1 : 85,71,163
Combo2 : 192,49,41

[HitObjects]
180,200,145,5,0,0:0:0:0:
186,172,460,1,0,0:0:0:0:
192,144,776,1,0,0:0:0:0:
198,116,1091,1,0,0:0:0:0:
64,272,1250,1,8,0:0:0:0:
64,272,1329,1,8,0:0:0:0:
64,272,1408,6,0,B|64:299|64:299|72:316|72:316|72:344,1,72,6|2,0:0|0:0,0:0:0:0:
165,276,1723,1,0,0:0:0:0:
48,128,1881,2,0,P|104:84|176:84,1,144,2|0,0:0|0:0,0:0:0:0:
142,196,2355,1,0,0:0:0:0:
304,310,2513,6,0,B|315:277|308:243|308:243|295:221|302:174,1,108,2|0,0:0|0:0,0:0:0:0:
308,131,2829,2,0,P|354:155|372:205,1,108,2|0,0:0|0:0,0:0:0:0:
236,273,3145,2,0,P|200:280|164:272,1,72,2|0,0:0|0:0,0:0:0:0:
64,230,3460,2,0,P|76:263|80:299,1,72,2|0,0:0|0:0,0:0:0:0:
224,157,3776,1,0,0:0:0:0:
224,157,3855,1,0,0:0:0:0:
224,157,3934,6,0,B|224:130|224:130|216:113|216:113|216:86,1,72,10|2,0:0|0:0,0:0:0:0:
110,158,4250,1,0,0:0:0:0:
236,273,4408,2,0,P|300:247|339:178,1,144,2|2,0:0|0:0,0:0:0:0:
224,157,4881,1,0,0:0:0:0:
116,339,5039,6,0,B|104:306|111:272|111:272|124:250|117:203,1,108,2|0,0:0|0:0,0:0:0:0:
110,158,5355,2,0,P|63:182|45:231,1,108,2|0,0:0|0:0,0:0:0:0:
183,300,5671,2,0,P|217:305|265:299,1,72,2|0,0:0|0:0,0:0:0:0:
384,271,5987,2,0,L|389:324,1,36,2|0,0:0|0:0,0:0:0:0:
310,241,6145,6,0,P|356:197|420:198,1,116.999994644165,2|8,0:0|0:0,0:0:0:0:
490,206,6381,1,8,0:0:0:0:
490,206,6460,6,0,L|486:134,1,72,8|2,0:0|0:0,0:0:0:0:
414,50,6776,1,0,0:0:0:0:
269,150,6934,2,0,P|239:101|258:12,1,144,2|2,0:0|0:0,0:0:0:0:
340,76,7408,1,0,0:0:0:0:
310,241,7566,6,0,B|286:269|247:264|247:264|220:260|189:273,1,108,10|0,0:0|0:0,0:0:0:0:
138,307,7881,2,0,P|177:340|237:340,1,108,2|0,0:0|0:0,0:0:0:0:
258,188,8197,2,0,P|250:150|229:113,1,72,10|0,0:0|0:0,0:0:0:0:
81,92,8513,2,0,L|28:96,1,36,0|0,0:0|0:0,0:0:0:0:
146,44,8671,6,0,P|159:108|122:161,1,116.999994644165,2|8,0:0|0:0,0:0:0:0:
64,197,8908,1,8,0:0:0:0:
64,197,8987,6,0,L|68:269,1,72,8|2,0:0|0:0,0:0:0:0:
159,340,9302,1,0,0:0:0:0:
230,216,9460,2,0,P|283:258|303:333,1,144,2|2,0:0|0:0,0:0:0:0:
159,340,9934,1,0,0:0:0:0:
313,237,10092,6,0,P|352:184|356:100,1,148.50000453186,6|0,0:0|0:0,0:0:0:0:
344,32,10408,1,2,0:0:0:0:
411,254,10566,1,8,0:0:0:0:
218,129,10723,6,0,P|130:113|77:206,1,198.000006042481,6|2,0:0|0:0,0:0:0:0:
211,315,11197,1,8,0:0:0:0:
160,192,11355,1,2,0:0:0:0:
345,71,11513,5,0,0:0:0:0:
351,99,11828,1,0,0:0:0:0:
357,127,12144,1,0,0:0:0:0:
363,155,12459,1,0,0:0:0:0:
164,296,12776,6,0,L|171:256,1,40.4999987640381,8|8,0:0|0:0,0:0:0:0:
208,172,12934,1,0,0:0:0:0:
208,172,13013,1,0,0:0:0:0:
208,172,13092,2,0,L|198:116,1,40.4999987640381,0|0,0:0|0:0,0:0:0:0:
68,40,13250,5,8,0:0:0:0:
38,66,13328,1,8,0:0:0:0:
27,104,13407,1,0,0:0:0:0:
40,142,13486,1,0,0:0:0:0:
72,166,13566,2,0,L|127:156,1,40.4999987640381,0|0,0:0|0:0,0:0:0:0:
248,248,13723,2,0,L|208:255,1,40.4999987640381,0|0,0:0|0:0,0:0:0:0:
82,334,13881,6,0,P|33:248|73:164,1,198.000006042481,6|2,0:0|0:0,0:0:0:0:
148,48,14355,1,12,0:0:0:0:
283,146,14513,1,0,0:0:0:0:
283,146,14592,1,0,0:0:0:0:
283,146,14671,2,0,B|244:132|244:132|188:148,1,99.0000030212403,6|2,0:0|0:0,0:0:0:0:
76,248,14987,1,12,0:0:0:0:
291,341,15145,6,0,P|303:243|283:146,1,198.000006042481,2|2,0:0|0:0,0:0:0:0:
111,295,15618,2,0,B|161:308|161:308|211:294,1,99.0000030212403,12|0,0:0|0:0,0:0:0:0:
390,248,15934,1,6,0:0:0:0:
216,172,16092,1,2,0:0:0:0:
291,341,16250,1,8,0:0:0:0:
390,150,16408,6,0,B|405:94|380:43|380:43|353:82|299:88,1,198.000006042481,6|2,0:0|0:0,0:0:0:0:
132,125,16881,2,0,P|116:80|128:32,1,99.0000030212403,12|0,0:0|0:0,0:0:0:0:
271,169,17197,1,6,0:0:0:0:
271,169,17355,1,2,0:0:0:0:
106,262,17513,1,12,0:0:0:0:
363,344,17671,6,0,B|398:314|396:261|396:261|365:231|372:176,1,161.999995056153,6|0,0:0|0:0,0:0:0:0:
340,119,17987,2,0,P|417:128|452:198,1,161.999995056153,6|0,0:0|0:0,0:0:0:0:
306,280,18302,2,0,B|253:290|253:290|193:279,1,107.999996704102,6|6,0:0|0:0,0:0:0:0:
72,183,18618,1,2,0:0:0:0:
273,61,18776,1,12,0:0:0:0:
199,280,18934,6,0,P|178:213|187:68,1,198.000006042481,6|2,0:0|0:0,0:0:0:0:
57,212,19408,1,12,0:0:0:0:
291,164,19566,1,0,0:0:0:0:
291,164,19645,1,0,0:0:0:0:
291,164,19723,2,0,B|340:152|340:152|392:168,1,99.0000030212403,6|2,0:0|0:0,0:0:0:0:
186,69,20039,1,12,0:0:0:0:
325,264,20197,6,0,P|341:157|323:59,1,198.000006042481,2|2,0:0|0:0,0:0:0:0:
116,192,20671,2,0,B|164:204|164:204|217:189,1,99.0000030212403,12|0,0:0|0:0,0:0:0:0:
420,88,20987,1,6,0:0:0:0:
222,74,21145,1,2,0:0:0:0:
325,264,21302,1,12,0:0:0:0:
35,204,21460,6,0,P|75:126|149:120,1,161.999995056153,6|0,0:0|0:0,0:0:0:0:
233,180,21776,2,0,P|259:192|288:195,1,53.9999983520508,2|0,0:0|0:0,0:0:0:0:
404,138,21934,2,0,P|416:110|419:81,1,53.9999983520508,12|0,0:0|0:0,0:0:0:0:
274,8,22092,2,0,P|246:19|225:39,1,53.9999983520508
233,180,22250,1,2,0:0:0:0:
306,102,22408,1,2,0:0:0:0:
384,294,22566,1,8,0:0:0:0:
168,228,22723,6,0,P|152:184|164:132,1,99.0000030212403,6|0,0:0|0:0,0:0:0:0:
337,204,23039,1,2,0:0:0:0:
224,60,23197,1,8,0:0:0:0:
168,228,23355,2,0,L|223:218,1,49.5000015106202,2|2,0:0|0:0,0:0:0:0:
416,180,23513,1,8,0:0:0:0:
241,333,23671,1,8,0:0:0:0:
241,333,24145,6,0,P|306:309|374:318,1,125.999996154785,6|8,0:0|0:0,0:0:0:0:
361,313,24618,1,0,0:0:0:0:
280,231,24776,2,0,P|267:187|266:145,1,62.9999980773926,8|0,0:0|0:0,0:0:0:0:
175,278,25092,1,8,0:0:0:0:
364,233,25250,2,0,P|377:189|370:102,1,125.999996154785,0|0,0:0|0:0,0:0:0:0:
303,39,25723,2,0,L|230:38,1,62.9999980773926,8|0,0:0|0:0,0:0:0:0:
94,102,26039,6,0,L|196:108,1,90,8|0,0:0|0:0,0:0:0:0:
264,112,26276,1,0,0:0:0:0:
268,136,26355,2,0,B|273:169|273:169|288:185|288:185|295:220,1,90
400,326,26671,6,0,B|340:309|340:309|276:323,1,125.999996154785,2|8,0:0|0:0,0:0:0:0:
184,348,27145,1,0,0:0:0:0:
100,308,27302,2,0,P|120:280|144:264,1,62.9999980773926,8|0,0:0|0:0,0:0:0:0:
267,239,27618,6,0,P|259:198|237:160,1,72,8|0,0:0|0:0,0:0:0:0:
38,128,27934,6,0,P|43:174|63:214,1,80.9999975280763,8|0,0:0|0:0,0:0:0:0:
231,92,28250,6,0,P|219:49|189:11,1,90,8|0,0:0|0:0,0:0:0:0:
173,185,28566,1,8,0:0:0:0:
321,141,28723,2,0,L|419:115,1,90,0|0,0:0|0:0,0:0:0:0:
267,239,29039,1,0,0:0:0:0:
450,335,29197,6,0,P|417:287|344:256,1,125.999996154785,2|8,0:0|0:0,0:0:0:0:
267,239,29671,1,0,0:0:0:0:
162,341,29829,2,0,P|176:313|198:290,1,62.9999980773926,8|0,0:0|0:0,0:0:0:0:
325,171,30145,2,0,P|335:113|312:27,1,125.999996154785,8|8,0:0|0:0,0:0:0:0:
227,78,30618,1,0,0:0:0:0:
227,78,30776,2,0,P|193:91|152:96,1,62.9999980773926,8|0,0:0|0:0,0:0:0:0:
53,186,31092,6,0,L|157:189,1,90,8|0,0:0|0:0,0:0:0:0:
212,248,31329,1,0,0:0:0:0:
228,264,31408,2,0,L|332:267,1,90
445,76,31723,6,0,P|423:105|414:141,1,62.9999980773926,2|0,0:0|0:0,0:0:0:0:
333,114,32039,2,0,P|334:150|351:183,1,62.9999980773926,2|0,0:0|0:0,0:0:0:0:
337,309,32355,6,0,P|364:279|376:235,1,72,2|0,0:0|0:0,0:0:0:0:
455,275,32671,2,0,P|457:234|437:192,1,72,2|0,0:0|0:0,0:0:0:0:
282,53,32987,6,0,P|257:96|258:138,1,80.9999975280763,2|0,0:0|0:0,0:0:0:0:
171,131,33302,2,0,P|187:177|224:204,1,80.9999975280763,2|0,0:0|0:0,0:0:0:0:
388,332,33618,6,0,B|347:319|347:319|299:331,1,90,2|0,0:0|0:0,0:0:0:0:
124,198,33934,2,0,B|169:210|169:210|210:197,1,90,8|0,0:0|0:0,0:0:0:0:
432,84,34250,5,6,0:0:0:0:
341,225,34408,1,2,0:0:0:0:
262,76,34566,1,8,0:0:0:0:
424,180,34723,1,8,0:0:0:0:
433,200,34801,1,2,0:0:0:0:
438,222,34881,2,0,L|420:320,1,90,2|0,0:0|0:0,0:0:0:0:
336,136,35197,1,8,0:0:0:0:
208,292,35355,2,0,P|228:300|259:301,1,45,8|2,0:0|0:0,0:0:0:0:
341,225,35513,6,0,L|250:209,1,90,2|0,0:0|0:0,0:0:0:0:
72,176,35829,1,8,0:0:0:0:
253,78,35987,1,8,0:0:0:0:
262,98,36066,1,2,0:0:0:0:
267,120,36145,2,0,L|249:218,1,90,2|0,0:0|0:0,0:0:0:0:
160,124,36460,1,8,0:0:0:0:
360,192,36618,1,8,0:0:0:0:
382,192,36696,1,2,0:0:0:0:
403,186,36776,6,0,L|419:97,1,90,2|0,0:0|0:0,0:0:0:0:
240,32,37092,1,8,0:0:0:0:
160,196,37250,2,0,P|180:204|211:205,1,45,8|2,0:0|0:0,0:0:0:0:
293,129,37408,2,0,L|202:113,1,90,2|0,0:0|0:0,0:0:0:0:
40,72,37723,1,8,0:0:0:0:
150,239,37881,2,0,P|158:218|159:195,1,45,8|2,0:0|0:0,0:0:0:0:
148,40,38039,5,2,0:0:0:0:
80,196,38197,1,0,0:0:0:0:
250,177,38355,1,8,0:0:0:0:
88,96,38513,1,8,0:0:0:0:
103,112,38591,1,2,0:0:0:0:
122,123,38671,2,0,L|228:104,1,90,2|0,0:0|0:0,0:0:0:0:
384,76,38987,1,8,0:0:0:0:
248,236,39145,2,0,P|236:212|236:188,1,45,8|2,0:0|0:0,0:0:0:0:
290,48,39302,6,0,L|305:138,1,90,2|0,0:0|0:0,0:0:0:0:
336,312,39618,1,8,0:0:0:0:
484,216,39776,1,8,0:0:0:0:
483,193,39854,1,2,0:0:0:0:
474,172,39934,2,0,L|385:156,1,90,2|0,0:0|0:0,0:0:0:0:
188,124,40250,1,8,0:0:0:0:
352,20,40408,2,0,P|360:40|361:71,1,45,8|2,0:0|0:0,0:0:0:0:
285,153,40566,6,0,L|269:62,1,90,2|0,0:0|0:0,0:0:0:0:
444,84,40881,1,8,0:0:0:0:
328,220,41039,1,8,0:0:0:0:
308,230,41117,1,2,0:0:0:0:
286,233,41197,2,0,L|167:212,1,90,2|0,0:0|0:0,0:0:0:0:
24,188,41513,1,8,0:0:0:0:
200,86,41671,1,8,0:0:0:0:
210,106,41749,1,2,0:0:0:0:
213,128,41829,6,0,L|192:247,1,90,2|0,0:0|0:0,0:0:0:0:
108,136,42145,1,8,0:0:0:0:
292,196,42302,1,0,0:0:0:0:
292,196,42381,1,0,0:0:0:0:
292,196,42460,1,0,0:0:0:0:
264,72,42618,1,2,0:0:0:0:
196,300,42776,1,8,0:0:0:0:
428,245,42934,5,6,0:0:0:0:
428,245,43408,6,0,B|320:160|260:308|152:244,1,292.499986610413,6|0,0:0|0:0,0:0:0:0:
128,172,43881,2,0,P|224:220|120:312,1,292.499986610413,6|0,0:0|0:0,0:0:0:0:
48,272,44355,6,0,L|31:177,1,72,6|0,0:0|0:0,0:0:0:0:
176,90,44671,1,8,0:0:0:0:
152,244,44829,1,0,0:0:0:0:
298,188,44987,1,2,0:0:0:0:
136,160,45145,5,8,0:0:0:0:
117,146,45223,1,8,0:0:0:0:
104,128,45302,1,2,0:0:0:0:
96,107,45381,1,0,0:0:0:0:
96,85,45460,2,0,L|105:29,3,45,8|0|2|0,0:0|0:0|0:0|0:0,0:0:0:0:
176,90,45776,2,0,L|184:42,1,45,8|0,0:0|0:0,0:0:0:0:
256,95,45934,2,0,L|264:47,1,45,8|0,0:0|0:0,0:0:0:0:
336,103,46092,5,8,0:0:0:0:
375,130,46170,1,8,0:0:0:0:
383,178,46249,1,8,0:0:0:0:
356,217,46328,1,0,0:0:0:0:
308,225,46408,1,0,0:0:0:0:
267,209,46486,1,8,0:0:0:0:
223,218,46565,1,8,0:0:0:0:
193,250,46644,1,0,0:0:0:0:
186,294,46723,1,0,0:0:0:0:
205,334,46802,1,8,0:0:0:0:
243,357,46881,6,0,P|264:359|288:355,3,45,8|8|8|8,0:0|0:0|0:0|0:0,0:0:0:0:
260,283,47197,1,0,0:0:0:0:
250,239,47275,1,0,0:0:0:0:
221,205,47354,1,8,0:0:0:0:
180,189,47433,1,8,0:0:0:0:
136,196,47513,2,0,L|84:205,3,45,2|0|8|8,0:0|0:0|0:0|0:0,0:0:0:0:
44,267,47829,5,8,0:0:0:0:
16,232,47908,1,8,0:0:0:0:
12,188,47987,1,8,0:0:0:0:
33,149,48066,1,8,0:0:0:0:
72,128,48145,2,0,L|116:120,1,45
188,159,48302,5,8,0:0:0:0:
229,175,48380,1,8,0:0:0:0:
273,168,48460,1,0,0:0:0:0:
306,138,48538,1,0,0:0:0:0:
319,96,48618,2,0,L|310:48,1,45,8|8,3:0|3:0,3:0:0:0:
238,94,48776,2,0,L|228:43,3,45
184,235,49092,2,0,L|193:279,3,45
446,337,49408,6,0,P|437:303|439:260,1,72,6|0,0:0|0:0,0:0:0:0:
351,269,49723,2,0,P|360:234|382:198,1,72,2|0,0:0|0:0,0:0:0:0:
301,163,50039,2,0,P|326:137|363:117,1,72,2|0,0:0|0:0,0:0:0:0:
314,44,50355,2,0,P|348:34|390:36,1,72,2|0,0:0|0:0,0:0:0:0:
351,269,50671,6,0,P|331:309|288:339,1,80.9999975280763,2|0,0:0|0:0,0:0:0:0:
254,247,50987,2,0,P|217:271|164:276,1,80.9999975280763,2|0,0:0|0:0,0:0:0:0:
181,181,51302,2,0,P|136:184|88:162,1,80.9999975280763,2|0,0:0|0:0,0:0:0:0:
150,86,51618,2,0,P|109:66|79:23,1,80.9999975280763,2|0,0:0|0:0,0:0:0:0:
380,78,51934,6,0,P|427:96|463:130,1,90,10|0,0:0|0:0,0:0:0:0:
371,188,52250,2,0,P|403:227|417:275,1,90,10|0,0:0|0:0,0:0:0:0:
308,280,52566,2,0,P|315:330|304:379,1,90,10|0,0:0|0:0,0:0:0:0:
116,260,52881,1,8,0:0:0:0:
294,88,53039,6,0,B|342:180|262:200|313:290,1,198.000006042481,6|0,0:0|0:0,0:0:0:0:
228,144,53513,1,8,0:0:0:0:
384,240,53671,1,8,0:0:0:0:
140,288,53829,1,8,0:0:0:0:
456,224,53987,1,8,0:0:0:0:
68,304,54145,1,8,0:0:0:0:
255,59,54302,1,8,0:0:0:0:
255,59,55092,6,0,B|255:99|239:123|239:123|271:171|271:171|255:203|255:235,1,188.999994232178,0|0,0:0|0:0,0:0:0:0:
295,338,55723,6,0,P|230:313|135:320,1,161.999995056153,6|0,0:0|0:0,0:0:0:0:
87,335,56039,1,12,0:0:0:0:
186,183,56197,1,0,0:0:0:0:
17,97,56355,2,0,P|56:130|122:147,1,107.999996704102,6|2,0:0|0:0,0:0:0:0:
319,113,56671,1,12,0:0:0:0:
210,282,56829,1,0,0:0:0:0:
142,57,56987,6,0,B|200:31|200:31|263:40|310:87,1,161.999995056153,6|0,0:0|0:0,0:0:0:0:
319,113,57302,2,0,P|320:173|331:230,1,107.999996704102,12|0,0:0|0:0,0:0:0:0:
512,147,57618,2,0,P|452:148|395:159,1,107.999996704102,6|2,0:0|0:0,0:0:0:0:
215,196,57934,1,12,0:0:0:0:
347,334,58092,1,0,0:0:0:0:
448,70,58250,6,0,P|460:155|452:245,1,161.999995056153,6|0,0:0|0:0,0:0:0:0:
413,266,58566,2,0,P|353:275|295:274,1,107.999996704102,12|0,0:0|0:0,0:0:0:0:
70,231,58881,2,0,P|79:291|78:349,1,107.999996704102,6|2,0:0|0:0,0:0:0:0:
208,164,59197,1,12,0:0:0:0:
51,51,59355,6,0,P|104:50|158:42,1,107.999996704102,0|6,0:0|0:0,0:0:0:0:
395,132,59671,2,0,P|342:133|288:141,1,107.999996704102,0|12,0:0|0:0,0:0:0:0:
105,282,59987,2,0,P|158:283|212:291,1,107.999996704102,0|6,0:0|0:0,0:0:0:0:
352,328,60302,1,2,0:0:0:0:
208,198,60460,1,12,0:0:0:0:
422,43,60618,6,0,B|442:118|442:118|439:256,1,215.999993408203,6|2,0:0|0:0,0:0:0:0:
282,148,61092,1,12,0:0:0:0:
182,290,61250,1,0,0:0:0:0:
56,53,61408,1,6,0:0:0:0:
234,219,61566,1,2,0:0:0:0:
364,27,61723,1,12,0:0:0:0:
180,148,61881,2,0,P|169:97|182:30,1,107.999996704102,0|6,0:0|0:0,0:0:0:0:
379,146,62197,2,0,P|387:199|376:251,1,107.999996704102,0|12,0:0|0:0,0:0:0:0:
255,341,62513,1,0,0:0:0:0:
92,151,62671,5,6,0:0:0:0:
299,275,62829,1,2,0:0:0:0:
353,35,62987,1,12,0:0:0:0:
182,253,63145,2,0,P|171:202|184:135,1,107.999996704102,0|6,0:0|0:0,0:0:0:0:
353,35,63460,2,0,P|364:86|351:153,1,107.999996704102,0|12,0:0|0:0,0:0:0:0:
299,275,63776,1,0,0:0:0:0:
131,78,63934,5,6,0:0:0:0:
103,305,64092,1,0,0:0:0:0:
270,144,64250,1,12,0:0:0:0:
31,190,64408,2,0,P|92:206|154:198,1,107.999996704102,0|6,0:0|0:0,0:0:0:0:
270,144,64723,5,2,0:0:0:0:
412,320,64881,1,12,0:0:0:0:
336,76,65039,1,2,0:0:0:0:
326,321,65197,1,12,0:0:0:0:
424,85,65355,1,2,0:0:0:0:
255,268,65513,1,12,0:0:0:0:
482,149,65671,1,2,0:0:0:0:
235,175,65829,6,0,P|152:178|57:148,1,161.999995056153,6|0,0:0|0:0,0:0:0:0:
28,131,66145,1,12,0:0:0:0:
131,302,66302,1,0,0:0:0:0:
264,158,66460,2,0,P|322:136|388:134,1,107.999996704102,6|2,0:0|0:0,0:0:0:0:
153,62,66776,1,12,0:0:0:0:
255,268,66934,1,0,0:0:0:0:
449,93,67092,6,0,P|465:169|454:261,1,161.999995056153,6|0,0:0|0:0,0:0:0:0:
435,302,67408,1,12,0:0:0:0:
261,212,67566,1,0,0:0:0:0:
122,331,67723,2,0,P|178:315|232:315,1,107.999996704102,6|2,0:0|0:0,0:0:0:0:
368,151,68039,2,0,P|312:135|258:135,1,107.999996704102,12|0,0:0|0:0,0:0:0:0:
4,196,68355,6,0,B|70:205|70:205|169:176,1,161.999995056153,6|0,0:0|0:0,0:0:0:0:
210,154,68671,1,12,0:0:0:0:
325,279,68829,1,0,0:0:0:0:
405,38,68987,1,6,0:0:0:0:
269,212,69145,1,2,0:0:0:0:
468,92,69302,1,12,0:0:0:0:
252,136,69460,6,0,P|209:102|179:58,1,107.999996704102,0|6,0:0|0:0,0:0:0:0:
456,172,69776,2,0,P|442:224|414:269,1,107.999996704102,0|12,0:0|0:0,0:0:0:0:
211,234,70092,2,0,P|223:181|251:136,1,107.999996704102,0|6,0:0|0:0,0:0:0:0:
348,28,70408,1,2,0:0:0:0:
312,253,70566,1,12,0:0:0:0:
62,87,70723,6,0,P|48:182|66:306,1,215.999993408203,6|2,0:0|0:0,0:0:0:0:
209,153,71197,1,12,0:0:0:0:
325,279,71355,1,0,0:0:0:0:
452,50,71513,1,6,0:0:0:0:
267,217,71671,1,2,0:0:0:0:
167,6,71829,1,12,0:0:0:0:
353,192,71987,2,0,P|360:143|345:78,1,107.999996704102,0|6,0:0|0:0,0:0:0:0:
129,192,72302,2,0,P|122:241|137:306,1,107.999996704102,0|12,0:0|0:0,0:0:0:0:
291,358,72618,1,0,0:0:0:0:
348,86,72776,5,6,0:0:0:0:
231,286,72934,1,2,0:0:0:0:
121,90,73092,1,12,0:0:0:0:
357,297,73250,2,0,P|364:248|349:183,1,107.999996704102,0|6,0:0|0:0,0:0:0:0:
121,90,73566,2,0,P|114:139|129:204,1,107.999996704102,0|12,0:0|0:0,0:0:0:0:
219,322,73881,1,0,0:0:0:0:
417,140,74039,5,6,0:0:0:0:
204,240,74197,1,2,0:0:0:0:
420,347,74355,1,12,0:0:0:0:
348,86,74513,1,0,0:0:0:0:
219,322,74671,5,6,0:0:0:0:
219,322,74829,1,2,0:0:0:0:
139,59,74987,1,12,0:0:0:0:
125,318,75145,1,2,0:0:0:0:
229,57,75303,1,12,0:0:0:0:
55,257,75460,1,2,0:0:0:0:
299,117,75618,1,12,0:0:0:0:
43,167,75776,1,2,0:0:0:0:
316,209,75934,5,6,0:0:0:0:
299,117,76092,1,0,0:0:0:0:
320,236,76250,1,0,0:0:0:0:
295,90,76408,2,0,B|290:62|290:62|295:45|295:45|286:-1,1,72
392,264,76723,6,0,P|336:312|252:276,1,161.999995056153,6|0,0:0|0:0,0:0:0:0:
148,188,77039,2,0,B|174:183|174:183|188:173|188:173|216:168,1,72,6|0,0:0|0:0,0:0:0:0:
320,236,77355,5,0,0:0:0:0:
228,253,77513,1,0,0:0:0:0:
348,232,77671,1,0,0:0:0:0:
201,257,77829,1,0,0:0:0:0:
380,156,77987,6,0,P|428:224|404:292,1,161.999995056153,6|0,0:0|0:0,0:0:0:0:
232,323,78302,2,0,B|227:296|227:296|232:280|232:280|227:252,1,72,6|0,0:0|0:0,0:0:0:0:
260,152,78618,5,0,0:0:0:0:
168,169,78776,1,0,0:0:0:0:
288,148,78934,1,0,0:0:0:0:
141,173,79092,1,0,0:0:0:0:
313,75,79250,6,0,P|363:135|336:208,1,161.999995056153,6|0,0:0|0:0,0:0:0:0:
176,296,79566,6,0,B|272:252|304:344|388:288,1,215.999993408203,6|2,0:0|0:0,0:0:0:0:
456,60,80039,1,8,0:0:0:0:
335,208,80197,1,2,0:0:0:0:
476,32,80355,1,8,0:0:0:0:
315,236,80513,5,8,0:0:0:0:
297,232,80591,1,8,0:0:0:0:
279,229,80670,1,8,0:0:0:0:
261,226,80749,1,8,0:0:0:0:
244,223,80828,1,8,0:0:0:0:
226,220,80907,1,8,0:0:0:0:
208,217,80987,6,0,B|172:210|172:210|154:195|154:195|107:187,1,90,8|0,0:0|0:0,0:0:0:0:
32,180,81223,1,0,0:0:0:0:
32,180,81302,1,0,0:0:0:0:
200,92,81460,1,0,0:0:0:0:
200,92,81539,1,0,0:0:0:0:
200,92,81618,2,0,L|209:143,1,45
88,320,81776,5,8,0:0:0:0:
128,132,81934,1,2,0:0:0:0:
80,348,82092,2,0,B|74:317|74:317|83:296|83:296|76:260,1,90,8|0,0:0|0:0,0:0:0:0:
200,92,82408,2,0,L|209:143,1,45
164,296,82566,1,0,0:0:0:0:
160,273,82644,1,0,0:0:0:0:
156,251,82723,1,0,0:0:0:0:
152,229,82802,1,0,0:0:0:0:
148,207,82881,1,0,0:0:0:0:
284,48,83039,5,8,0:0:0:0:
244,236,83197,1,2,0:0:0:0:
292,20,83355,2,0,B|298:51|298:51|289:72|289:72|296:108,1,90,8|0,0:0|0:0,0:0:0:0:
476,224,83671,2,0,L|465:164,1,45
372,84,83829,1,0,0:0:0:0:
375,106,83907,1,0,0:0:0:0:
379,128,83986,1,0,0:0:0:0:
383,150,84065,1,0,0:0:0:0:
387,172,84144,1,0,0:0:0:0:
252,332,84302,5,8,0:0:0:0:
291,144,84460,1,2,0:0:0:0:
244,360,84618,2,0,B|238:329|238:329|247:308|247:308|240:272,1,90,8|0,0:0|0:0,0:0:0:0:
216,80,84934,5,8,0:0:0:0:
216,80,85092,1,8,0:0:0:0:
164,292,85250,1,2,0:0:0:0:
224,48,85408,1,8,0:0:0:0:
156,324,85566,2,0,L|147:276,1,45
124,116,85723,1,8,0:0:0:0:
256,352,85881,5,6,0:0:0:0:
256,192,86039,12,0,89197,0:0:0:0:
