osu file format v14

[General]
AudioFilename: pretty.mp3
AudioLeadIn: 0
PreviewTime: 42387
Countdown: 0
SampleSet: Soft
StackLeniency: 0.7
Mode: 0
LetterboxInBreaks: 0
WidescreenStoryboard: 1

[Editor]
Bookmarks: 12268
DistanceSpacing: 1.1
BeatDivisor: 4
GridSize: 8
TimelineZoom: 1

[Metadata]
Title:Sowieso
TitleUnicode:Sowieso
Artist:Kisha
ArtistUnicode:Kisha
Creator:MkGuh
Version:Easy
Source:The Sims 2: Pets
Tags:Switzerdeutsch switzer Schweizerdeutsch Switzerdütsch Schwizerdütsch Deutsch german swiss switzerland pop rock ps2 playstation 2 pc electronic arts ea games simlish maxis two videogame video game video-game old style
BeatmapID:3358450
BeatmapSetID:908515

[Difficulty]
HPDrainRate:1
CircleSize:2.5
OverallDifficulty:2
ApproachRate:3
SliderMultiplier:1
SliderTickRate:2

[Events]
//Background and Video events
Video,-280,"ED_no_audio_Trim.mp4"
0,0,"tumblr_7fc7276ea35132098b55a0b0853bb8c6_3ba01333_1280.jpg",0,0
//Break Periods
2,12468,17971
2,75324,80590
2,141792,147495
//Storyboard Layer 0 (Background)
//Storyboard Layer 1 (Fail)
//Storyboard Layer 2 (Pass)
//Storyboard Layer 3 (Foreground)
//Storyboard Layer 4 (Overlay)
//Storyboard Sound Samples

[TimingPoints]
840,476.190476190476,4,2,1,75,1,0
7506,-100,4,2,1,55,0,0
7982,-100,4,2,1,75,0,0
9887,-100,4,2,1,60,0,0
12268,-100,4,2,1,60,0,0
23697,-100,4,2,1,60,0,0
27506,-100,4,2,1,60,0,0
41316,-100,4,2,1,65,0,0
41792,-100,4,2,1,70,0,0
42744,-100,4,2,1,80,0,1
70125,-100,4,2,1,80,0,1
73220,-100,4,2,1,70,0,0
75125,-100,4,2,1,65,0,0
90363,-100,4,2,1,65,0,0
97982,-100,4,2,1,65,0,0
103697,-100,4,2,1,60,0,0
104173,-100,4,2,1,65,0,0
104649,-100,4,2,1,70,0,0
105601,-100,4,2,1,80,0,1
136078,-100,4,2,1,80,0,0
139887,-100,4,2,1,55,0,0
148935,-100,4,2,1,55,0,0
154887,-100,4,2,1,75,0,0
156792,-100,4,2,1,45,0,0
157268,-100,4,2,1,55,0,0
157506,-100,4,2,1,65,0,0
157744,-100,4,2,1,75,0,0
158935,-100,4,2,1,80,0,0
160839,-83.3333333333334,4,2,1,80,0,0
162744,-100,4,2,1,80,0,0
166554,-100,4,2,1,80,0,0
168459,-83.3333333333333,4,2,1,80,0,0
170363,-100,4,2,1,80,0,0
170839,-100,4,2,1,80,0,0
175125,-100,4,2,1,80,0,0
176078,-100,4,2,1,80,0,1
204649,-100,4,2,1,60,0,0
208459,-100,4,2,1,45,0,0
210363,-100,4,2,1,30,0,0
211554,-100,4,2,1,5,0,0

[Colours]
Combo1 : 0,166,83
Combo2 : 128,64,64
Combo3 : 255,125,255
Combo4 : 206,103,0
Combo5 : 196,0,0
Combo6 : 174,174,255

[HitObjects]
82,37,840,6,0,B|122:37|122:37|154:69,2,75,6|2|2,1:0|0:0|0:1,0:0:0:0:
430,37,2744,2,0,B|390:37|390:37|358:69,2,75,6|2|2,0:1|0:0|0:1,0:0:0:0:
255,358,4649,6,0,B|254:333|254:333|258:304|258:304|255:267,2,75,6|2|2,1:0|0:0|0:1,0:0:0:0:
219,85,6554,2,0,B|256:96|256:96|293:83,2,75,4|2|2,3:0|0:0|1:0,0:0:0:0:
211,296,8459,6,0,P|255:346|300:297,2,150,6|4|4,1:2|1:2|1:2,0:0:0:0:
256,192,10363,12,4,12268,1:0:0:0:
28,192,19411,5,2,0:0:0:0:
106,268,19887,2,0,L|268:250,2,150,4|4|2,1:0|3:0|0:0,0:0:0:0:
28,192,21792,2,0,P|22:118|97:96,1,150,4|0,3:0|1:0,0:0:0:0:
232,21,23220,5,2,0:0:0:0:
341,31,23697,2,0,L|329:194,1,150,4|4,3:0|3:0,0:0:0:0:
312,289,24887,1,4,3:0:0:0:
402,351,25363,1,2,0:0:0:0:
469,41,27506,6,0,P|372:27|321:108,1,200,4|0,1:0|1:0,0:0:0:0:
256,192,28935,1,2,0:0:0:0:
190,103,29411,2,0,P|136:25|43:41,1,200,4|0,3:0|1:0,0:0:0:0:
24,264,31316,6,0,B|97:256|98:294|177:282,1,150,4|2,3:0|0:0,0:0:0:0:
256,351,32506,1,2,0:0:0:0:
345,286,32982,2,0,P|421:275|380:186,1,200,2|2,0:0|0:0,0:0:0:0:
120,110,35125,6,0,P|58:109|64:36,1,150,4|2,1:0|0:0,0:0:0:0:
336,9,37030,2,0,P|345:75|279:82,1,150,4|2,3:0|0:0,0:0:0:0:
35,211,38935,6,0,P|12:288|179:336,1,300,4|2,3:0|0:3,0:0:0:0:
284,309,40839,1,0,1:0:0:0:
318,204,41316,1,0,1:0:0:0:
212,159,41792,1,0,1:0:0:0:
200,48,42268,1,0,1:0:0:0:
102,99,42744,6,0,P|54:103|2:82,2,100,6|0|2,1:0|1:0|0:0,0:0:0:0:
200,48,44173,1,0,1:0:0:0:
289,111,44649,2,0,L|300:218,1,100,4|0,3:0|1:0,0:0:0:0:
406,187,45601,2,0,L|417:294,1,100,2|0,0:0|1:0,0:0:0:0:
509,345,46554,6,0,B|444:304|391:349|341:389|266:352,1,250,4|4,1:2|3:0,0:0:0:0:
140,250,48459,2,0,B|205:209|258:254|308:294|383:257,1,250,2|4,1:2|3:0,0:0:0:0:
421,222,49887,1,0,1:0:0:0:
486,133,50363,6,0,P|412:114|372:129,1,100,6|0,1:0|1:0,0:0:0:0:
305,50,51316,2,0,P|255:55|210:36,1,100,2|0,0:0|1:0,0:0:0:0:
102,15,52268,1,4,3:0:0:0:
28,96,52744,1,0,1:0:0:0:
97,181,53220,1,2,0:0:0:0:
199,139,53697,1,0,1:0:0:0:
210,29,54173,6,0,B|327:-6|459:29,1,250,4|4,1:0|0:3,0:0:0:0:
501,187,56078,2,0,B|384:222|252:187,1,250,4|2,3:0|0:0,0:0:0:0:
201,203,57506,1,0,1:0:0:0:
105,258,57982,6,0,P|97:322|114:359,2,100,6|0|2,1:0|1:0|0:0,0:0:0:0:
201,203,59411,1,0,1:0:0:0:
290,139,59887,2,0,B|299:29,1,100,4|0,3:0|1:0,0:0:0:0:
406,20,60839,2,0,L|400:125,1,100,2|0,0:0|1:0,0:0:0:0:
482,192,61792,6,0,P|461:286|327:257,1,250,4|4,1:0|3:0,0:0:0:0:
238,132,63697,2,0,P|128:101|88:208,1,250,4|4,3:0|3:0,0:0:0:0:
46,243,65125,1,0,1:0:0:0:
78,341,65601,6,0,L|182:325,1,100,6|0,1:0|1:0,0:0:0:0:
284,349,66554,2,0,L|390:334,1,100,2|0,0:0|1:0,0:0:0:0:
488,366,67506,1,4,3:0:0:0:
507,257,67982,1,0,1:0:0:0:
401,223,68459,1,2,0:0:0:0:
352,124,68935,1,0,1:0:0:0:
407,29,69411,6,0,P|289:34|245:110,1,200,4|2,1:0|0:0,0:0:0:0:
264,203,70839,1,0,1:0:0:0:
264,203,71316,2,0,P|200:275|104:268,1,200,4|8,3:0|3:0,0:0:0:0:
31,194,72744,1,0,1:0:0:0:
87,99,73220,6,0,B|167:80|167:80|202:132|202:132|312:108|312:108|346:155|346:155|435:136,1,400,4|4,1:2|0:0,0:0:0:0:
480,346,82030,5,0,1:0:0:0:
424,190,82744,2,0,L|443:39,2,150,4|2|0,0:0|0:0|1:0,0:0:0:0:
343,264,84649,2,0,P|278:275|225:195,1,150,4|2,3:0|1:2,0:0:0:0:
249,109,85839,2,0,L|260:58,1,50,0|2,1:0|0:0,0:0:0:0:
157,20,86554,6,0,L|-6:31,2,150,4|2|0,3:0|0:0|1:0,0:0:0:0:
260,61,88459,2,0,L|423:50,1,150,4|2,3:0|1:2,0:0:0:0:
480,290,90363,6,0,P|401:338|333:266,1,200,4|0,1:0|1:0,0:0:0:0:
186,109,92268,2,0,P|119:44|39:92,1,200,4|0,3:0|1:0,0:0:0:0:
9,310,94173,6,0,P|90:364|188:352,1,200,4|0,3:0|1:0,0:0:0:0:
256,272,95601,1,2,0:0:0:0:
324,352,96078,2,0,P|421:364|503:310,1,200,4|0,3:0|1:0,0:0:0:0:
480,94,97982,6,0,P|401:46|333:118,1,200,4|0,1:0|1:0,0:0:0:0:
186,275,99887,2,0,P|119:339|39:291,1,200,4|0,3:0|1:0,0:0:0:0:
9,74,101792,6,0,P|77:24|191:33,1,200,2|0,0:0|1:0,0:0:0:0:
256,112,103220,1,2,0:0:0:0:
329,30,103697,2,0,B|371:12|445:29|464:124|401:172|401:172|435:161|466:175,1,300,0|0,1:0|1:0,0:0:0:0:
463,285,105601,6,0,P|388:305|348:298,2,100,6|0|2,1:0|1:0|0:0,0:0:0:0:
466,175,107030,1,0,1:0:0:0:
406,82,107506,2,0,P|343:68|311:84,1,100,4|0,3:0|1:0,0:0:0:0:
198,82,108459,2,0,P|152:66|106:82,1,100,2|0,0:0|1:0,0:0:0:0:
0,114,109411,6,0,P|11:174|32:364,1,250,4|4,1:0|3:0,0:0:0:0:
191,318,111316,2,0,P|180:258|159:68,1,250,4|4,3:0|3:0,0:0:0:0:
174,17,112744,1,0,1:0:0:0:
283,23,113220,6,0,L|393:32,1,100,6|0,1:0|1:0,0:0:0:0:
485,70,114173,2,0,L|435:169,1,100,2|0,0:0|1:0,0:0:0:0:
378,250,115125,1,4,3:0:0:0:
303,169,115601,1,0,1:0:0:0:
205,221,116078,1,2,0:0:0:0:
220,329,116554,1,0,1:0:0:0:
326,354,117030,6,0,P|419:354|485:220,1,250,4|4,1:0|3:0,0:0:0:0:
437,70,118935,2,0,P|344:70|278:204,1,250,4|4,3:0|3:0,0:0:0:0:
284,250,120363,1,0,1:0:0:0:
206,328,120839,6,0,P|151:335|99:324,2,100,6|0|2,1:0|1:0|0:0,0:0:0:0:
284,250,122268,1,0,1:0:0:0:
388,215,122744,2,0,B|398:180|398:180|362:127,1,100,4|0,3:0|1:0,0:0:0:0:
406,26,123697,2,0,B|375:5|375:5|314:23,1,100,2|0,0:0|1:0,0:0:0:0:
237,102,124649,6,0,B|160:62|87:117|87:117|53:84|4:95,1,250,4|4,1:0|3:0,0:0:0:0:
8,260,126554,2,0,B|57:271|91:238|91:238|164:293|241:253,1,250,4|4,3:0|3:0,0:0:0:0:
282,289,127982,1,0,1:0:0:0:
353,373,128459,6,0,P|380:339|385:268,1,100,6|0,1:0|1:0,0:0:0:0:
339,185,129411,2,0,P|312:151|307:80,1,100,2|0,0:0|1:0,0:0:0:0:
386,24,130363,2,0,L|492:17,2,100,2|0|2,0:0|1:0|0:0,0:0:0:0:
182,107,132268,5,4,1:0:0:0:
73,90,132744,1,0,1:0:0:0:
113,192,133220,1,2,0:0:0:0:
14,242,133697,1,0,1:0:0:0:
49,345,134173,1,2,0:0:0:0:
208,197,135125,2,0,B|246:188|246:188|267:196|267:196|308:186,2,100,12|0|4,3:0|1:0|1:0,0:0:0:0:
425,261,136792,6,0,P|449:191|423:122,2,150,4|4|4,1:2|1:2|1:2,0:0:0:0:
256,192,138935,1,0,1:0:0:0:
146,192,139411,1,4,1:2:0:0:
255,252,148935,5,2,0:3:0:0:
312,345,149411,2,0,B|388:337|388:337|448:273,2,150,4|4|2,0:0|0:3|0:0,0:0:0:0:
198,344,151316,2,0,B|122:336|122:336|71:282,2,150,4|0|2,0:3|1:0|0:0,0:0:0:0:
199,234,153220,6,0,P|255:107|311:234,1,350,4|6,3:0|1:2,0:0:0:0:
88,40,157030,5,0,1:0:0:0:
200,40,157506,1,0,1:0:0:0:
312,40,157982,1,0,1:0:0:0:
424,40,158458,1,0,1:0:0:0:
364,136,158935,6,0,P|255:222|146:134,1,300,6|2,1:0|1:0,0:0:0:0:
97,239,160839,2,0,P|255:311|414:237,1,359.999989013672,2|2,1:0|1:0,0:0:0:0:
494,161,162744,5,6,1:0:0:0:
424,72,163220,1,2,1:0:0:0:
320,112,163697,1,2,0:1:0:0:
256,24,164173,1,2,1:0:0:0:
192,112,164649,1,4,3:0:0:0:
18,223,165601,1,2,0:1:0:0:
88,309,166077,1,2,1:0:0:0:
147,216,166554,6,0,P|256:129|365:218,1,300,6|2,1:0|1:0,0:0:0:0:
414,113,168459,2,0,P|255:40|96:114,1,359.999989013672,2|2,1:0|1:0,0:0:0:0:
21,193,170363,5,6,1:0:0:0:
122,235,170839,1,0,1:0:0:0:
200,312,171316,1,2,1:0:0:0:
312,312,171792,1,2,1:0:0:0:
390,235,172269,1,6,1:0:0:0:
491,193,172745,1,2,1:0:0:0:
483,83,173220,1,2,1:0:0:0:
382,127,173697,1,2,1:0:0:0:
276,96,174173,1,2,0:0:0:0:
58,35,175125,5,4,1:0:0:0:
8,133,175601,1,4,1:0:0:0:
44,236,176078,2,0,P|39:285|65:328,2,100,6|0|2,1:0|1:0|0:0,0:0:0:0:
138,187,177506,1,0,1:0:0:0:
157,83,177982,2,0,L|365:107,1,200,4|2,1:0|0:0,0:0:0:0:
424,191,179411,1,0,1:0:0:0:
355,278,179887,2,0,L|157:301,1,200,4|2,3:0|0:0,0:0:0:0:
66,237,181316,1,0,1:0:0:0:
55,118,181792,6,0,B|89:82|89:82|145:77,1,100,6|0,1:0|1:0,0:0:0:0:
236,26,182744,1,2,0:0:0:0:
340,60,183220,1,0,1:0:0:0:
449,49,183697,2,0,P|447:97|413:140,1,100,4|0,3:0|1:0,0:0:0:0:
416,246,184649,2,0,P|446:285|449:335,1,100,2|0,0:0|1:0,0:0:0:0:
338,326,185601,2,0,P|253:286|256:192,1,200,4|2,1:0|0:0,0:0:0:0:
329,109,187030,1,0,1:0:0:0:
329,109,187506,2,0,L|490:120,2,150,4|2|0,3:0|0:0|1:0,0:0:0:0:
228,62,189411,6,0,B|178:53|178:53|139:90,1,100,6|0,1:0|1:0,0:0:0:0:
52,150,190363,2,0,B|102:141|102:141|141:178,1,100,2|0,0:0|1:0,0:0:0:0:
218,249,191316,2,0,B|168:240|168:240|129:277,2,100,4|0|2,3:0|1:0|0:0,0:0:0:0:
322,282,192744,1,0,1:0:0:0:
427,313,193220,2,0,P|462:253|439:127,1,200,4|2,1:0|0:0,0:0:0:0:
372,42,194649,1,0,1:0:0:0:
262,45,195125,2,0,L|47:66,1,200,4|2,3:0|0:0,0:0:0:0:
31,169,196554,1,2,1:2:0:0:
76,269,197030,6,0,P|53:335|17:353,2,100,6|0|2,1:0|1:0|0:0,0:0:0:0:
31,169,198459,1,0,1:0:0:0:
88,75,198935,2,0,L|287:55,1,200,4|2,3:0|0:0,0:0:0:0:
424,309,200839,2,0,L|224:328,1,200,4|2,1:0|0:0,0:0:0:0:
115,340,202268,1,0,1:0:0:0:
36,263,202744,1,4,3:0:0:0:
113,184,203220,2,0,P|160:174|201:200,1,100,0|8,1:0|3:0,0:0:0:0:
311,202,204173,2,0,P|351:174|399:184,1,100,0|6,1:0|1:0,0:0:0:0:
256,192,205125,12,2,211554,0:0:0:0:
