osu file format v14

[General]
AudioFilename: audio.mp3
AudioLeadIn: 0
PreviewTime: 67166
Countdown: 0
SampleSet: Soft
StackLeniency: 0.7
Mode: 3
LetterboxInBreaks: 0
SpecialStyle: 0
WidescreenStoryboard: 1

[Editor]
Bookmarks: 1166,9514,15775,17862,33514,34558,51253,59601,65862,67949,84645,99253
DistanceSpacing: 1
BeatDivisor: 4
GridSize: 32
TimelineZoom: 1.1

[Metadata]
Title:Yoru ni Kakeru -THE HOME TAKE ver.- (Cut Ver.)
TitleUnicode:夜に駆ける -THE HOME TAKE ver.- (Cut Ver.)
Artist:Kisaragi Rumii
ArtistUnicode:如月ルミィ
Creator:Irone OSU
Version:Hard
Source:
Tags:Vocal jpop J-pop Japanese synth-pop Hong Kong 香港Vtuber HKVtuber 如月瑠美 rumiikisaragi Mica BASA cover yoasobi racing into the night 幾田りら ikuta rira lilas ayase 如月ルミィ virtual youtuber the book XSCL-50 Faputa itsrumiinous rumii48kHz
BeatmapID:2845538
BeatmapSetID:1376799

[Difficulty]
HPDrainRate:7.5
CircleSize:4
OverallDifficulty:7.5
ApproachRate:5
SliderMultiplier:1.4
SliderTickRate:1

[Events]
//Background and Video events
0,0,"rumii_BG.jpg",0,0
//Break Periods
//Storyboard Layer 0 (Background)
//Storyboard Layer 1 (Fail)
//Storyboard Layer 2 (Pass)
//Storyboard Layer 3 (Foreground)
//Storyboard Layer 4 (Overlay)
//Storyboard Sound Samples

[TimingPoints]
1166,521.739130434783,4,2,1,45,1,0
17862,-100,4,2,1,50,0,0
67948,-100,4,2,1,60,0,1
99252,-100,4,2,1,30,0,0

[HitObjects]
64,192,644,128,0,905:0:0:0:0:
192,192,905,128,0,1166:0:0:0:0:
448,192,1166,128,0,1426:0:0:0:0:
320,192,1557,128,0,1948:0:0:0:0:
64,192,1687,1,0,0:0:0:0:
192,192,1948,128,0,2209:0:0:0:0:
64,192,2209,128,0,2470:0:0:0:0:
320,192,2470,128,0,2731:0:0:0:0:
192,192,2731,128,0,2861:0:0:0:0:
64,192,2731,1,0,0:0:0:0:
448,192,2992,128,0,3252:0:0:0:0:
64,192,3252,128,0,3513:0:0:0:0:
448,192,3513,128,0,3644:0:0:0:0:
320,192,3644,128,0,4035:0:0:0:0:
64,192,3774,1,0,0:0:0:0:
192,192,4035,128,0,4296:0:0:0:0:
64,192,4296,128,0,5339:0:0:0:0:
448,192,4296,1,0,0:0:0:0:
448,192,4818,1,0,0:0:0:0:
320,192,5079,1,0,0:0:0:0:
192,192,5339,1,0,0:0:0:0:
64,192,5731,1,0,0:0:0:0:
320,192,6122,1,0,0:0:0:0:
192,192,6383,1,0,0:0:0:0:
448,192,6644,1,0,0:0:0:0:
320,192,6905,1,0,0:0:0:0:
64,192,7166,1,0,0:0:0:0:
192,192,7426,1,0,0:0:0:0:
448,192,7818,1,0,0:0:0:0:
64,192,7948,1,0,0:0:0:0:
448,192,8079,1,0,0:0:0:0:
192,192,8209,1,0,0:0:0:0:
320,192,8339,1,0,0:0:0:0:
448,192,8470,1,0,0:0:0:0:
320,192,8731,1,0,0:0:0:0:
64,192,8992,128,0,9252:0:0:0:0:
192,192,9252,128,0,9513:0:0:0:0:
320,192,9513,1,2,0:0:0:0:
448,192,9513,128,0,9774:0:0:0:0:
320,192,9905,128,0,10166:0:0:0:0:
192,192,10035,1,2,0:0:0:0:
64,192,10035,1,0,0:0:0:0:
192,192,10296,128,0,10557:0:0:0:0:
320,192,10557,1,2,0:0:0:0:
64,192,10557,128,0,10687:0:0:0:0:
448,192,10818,128,0,11079:0:0:0:0:
64,192,11079,1,2,0:0:0:0:
320,192,11079,128,0,11339:0:0:0:0:
192,192,11339,128,0,11470:0:0:0:0:
64,192,11600,128,2,11861:0:0:0:0:
448,192,11600,1,0,0:0:0:0:
192,192,11861,128,0,11992:0:0:0:0:
320,192,12122,128,2,12383:0:0:0:0:
64,192,12122,1,0,0:0:0:0:
448,192,12383,128,0,12513:0:0:0:0:
64,192,12644,1,2,0:0:0:0:
192,192,12644,1,0,0:0:0:0:
320,192,12905,128,0,13166:0:0:0:0:
192,192,13166,128,2,13426:0:0:0:0:
448,192,13166,1,0,0:0:0:0:
64,192,13426,128,0,14992:0:0:0:0:
320,192,13687,1,2,0:0:0:0:
448,192,13687,1,0,0:0:0:0:
192,192,14209,1,2,0:0:0:0:
448,192,14209,1,0,0:0:0:0:
320,192,14731,1,2,0:0:0:0:
448,192,14731,1,0,0:0:0:0:
64,192,15252,1,2,0:0:0:0:
192,192,15252,1,0,0:0:0:0:
320,192,15513,1,0,0:0:0:0:
64,192,15774,1,0,0:0:0:0:
448,192,15774,1,0,0:0:0:0:
192,192,16166,1,0,0:0:0:0:
64,192,16296,1,2,0:0:0:0:
448,192,16296,1,0,0:0:0:0:
320,192,16426,1,0,0:0:0:60:Tom1.wav
192,192,16557,1,0,0:0:0:60:Tom2.wav
64,192,16687,1,0,0:0:0:60:Tom3.wav
320,192,16818,1,2,0:0:0:0:
448,192,16818,1,0,0:0:0:0:
192,192,17079,1,0,0:0:0:60:Tom3.wav
320,192,17209,1,0,0:0:0:0:
64,192,17339,1,2,0:0:0:0:
448,192,17339,1,0,0:0:0:0:
448,192,17600,128,0,17861:0:0:0:0:
320,192,17861,1,4,0:0:0:0:
64,192,17861,128,2,18122:0:0:0:0:
192,192,18122,128,0,18383:0:0:0:0:
64,192,18383,1,8,0:0:0:0:
448,192,18383,128,2,18644:0:0:0:0:
320,192,18644,128,0,18905:0:0:0:0:
64,192,18905,1,2,0:0:0:0:
192,192,18905,1,0,0:0:0:0:
448,192,19166,128,0,19296:0:0:0:0:
64,192,19426,128,8,19687:0:0:0:0:
192,192,19426,1,2,0:0:0:0:
320,192,19687,128,0,19948:0:0:0:0:
64,192,19948,1,2,0:0:0:0:
192,192,19948,1,0,0:0:0:0:
448,192,20209,128,0,20470:0:0:0:0:
64,192,20470,1,8,0:0:0:0:
320,192,20470,1,2,0:0:0:0:
192,192,20731,128,0,20992:0:0:0:0:
64,192,20992,1,2,0:0:0:0:
320,192,20992,128,0,21252:0:0:0:0:
448,192,21252,128,0,21383:0:0:0:0:
320,192,21513,1,2,0:0:0:0:
64,192,21513,128,8,21774:0:0:0:0:
192,192,21774,128,0,21905:0:0:0:0:
448,192,22035,128,0,22296:0:0:0:0:
320,192,22035,1,2,0:0:0:0:
64,192,22296,128,0,22557:0:0:0:0:
192,192,22557,1,8,0:0:0:0:
320,192,22557,128,2,22818:0:0:0:0:
448,192,22818,128,0,22948:0:0:0:0:
64,192,23079,1,2,0:0:0:0:
192,192,23079,128,0,23339:0:0:0:0:
448,192,23339,128,0,23600:0:0:0:0:
320,192,23600,128,8,23731:0:0:0:0:
64,192,23600,1,2,0:0:0:0:
192,192,23861,128,0,24122:0:0:0:0:
320,192,24122,1,2,0:0:0:0:
448,192,24122,1,0,0:0:0:0:
64,192,24383,128,0,24644:0:0:0:0:
192,192,24644,1,8,0:0:0:0:
448,192,24644,1,2,0:0:0:0:
320,192,24905,128,0,25166:0:0:0:0:
64,192,25166,1,2,0:0:0:0:
448,192,25166,128,0,25426:0:0:0:0:
192,192,25426,128,0,25687:0:0:0:0:
448,192,25687,1,8,0:0:0:0:
320,192,25687,128,2,25948:0:0:0:0:
64,192,25948,128,0,26209:0:0:0:0:
320,192,26209,1,2,0:0:0:0:
192,192,26209,128,4,26339:0:0:0:0:
448,192,26470,128,0,26600:0:0:0:0:
192,192,26731,1,2,0:0:0:0:
64,192,26731,128,8,26861:0:0:0:0:
320,192,26992,128,0,27252:0:0:0:0:
64,192,27252,1,2,0:0:0:0:
448,192,27252,128,0,27513:0:0:0:0:
320,192,27513,1,0,0:0:0:0:
192,192,27644,1,0,0:0:0:0:
64,192,27774,1,8,0:0:0:0:
448,192,27774,1,2,0:0:0:0:
320,192,28035,128,0,28296:0:0:0:0:
192,192,28296,1,2,0:0:0:0:
448,192,28296,128,0,28557:0:0:0:0:
64,192,28557,1,0,0:0:0:0:
192,192,28687,1,0,0:0:0:0:
448,192,28818,1,8,0:0:0:0:
320,192,28818,1,2,0:0:0:0:
64,192,28948,128,0,29209:0:0:0:0:
192,192,29209,1,0,0:0:0:0:
320,192,29339,128,2,29470:0:0:0:0:
448,192,29339,1,0,0:0:0:0:
64,192,29600,1,0,0:0:0:0:
448,192,29861,1,8,0:0:0:0:
192,192,29861,128,2,30122:0:0:0:0:
320,192,30122,128,0,30383:0:0:0:0:
448,192,30383,1,2,0:0:0:0:
64,192,30383,128,0,30644:0:0:0:0:
192,192,30644,128,0,30905:0:0:0:0:
64,192,30905,1,8,0:0:0:0:
448,192,30905,128,2,31166:0:0:0:0:
320,192,31166,128,0,31426:0:0:0:0:
192,192,31426,1,2,0:0:0:0:
64,192,31426,1,0,0:0:0:0:
448,192,31687,128,0,31948:0:0:0:0:
64,192,31948,1,8,0:0:0:0:
320,192,31948,128,2,32209:0:0:0:0:
192,192,32209,128,0,32470:0:0:0:0:
64,192,32470,1,2,0:0:0:0:
448,192,32470,1,0,0:0:0:0:
320,192,32731,128,0,32861:0:0:0:0:
64,192,32992,128,8,33513:0:0:0:0:
448,192,32992,1,2,0:0:0:0:
192,192,33252,1,0,0:0:0:0:
320,192,33513,1,2,0:0:0:0:
448,192,33513,1,0,0:0:0:0:
320,192,33905,1,2,0:0:0:0:
448,192,33905,1,0,0:0:0:0:
192,192,34296,1,8,0:0:0:0:
320,192,34426,1,8,0:0:0:0:
64,192,34557,1,2,0:0:0:0:
448,192,34557,1,4,0:0:0:0:
192,192,34687,1,0,0:0:0:0:
448,192,34818,1,0,0:0:0:0:
64,192,34948,1,0,0:0:0:0:
320,192,35079,1,8,0:0:0:0:
448,192,35079,1,2,0:0:0:0:
192,192,35209,1,0,0:0:0:0:
64,192,35339,1,0,0:0:0:0:
320,192,35470,1,0,0:0:0:0:
448,192,35600,1,2,0:0:0:0:
64,192,35731,1,0,0:0:0:0:
320,192,35861,1,0,0:0:0:0:
448,192,35992,1,0,0:0:0:0:
192,192,36122,1,8,0:0:0:0:
64,192,36122,1,2,0:0:0:0:
64,192,36383,128,0,36644:0:0:0:0:
448,192,36644,1,2,0:0:0:0:
192,192,36905,128,0,37166:0:0:0:0:
448,192,37166,1,8,0:0:0:0:
320,192,37166,1,2,0:0:0:0:
192,192,37426,1,0,0:0:0:0:
320,192,37557,1,0,0:0:0:0:
64,192,37687,1,2,0:0:0:0:
448,192,37818,1,0,0:0:0:0:
192,192,37948,1,0,0:0:0:0:
448,192,38079,1,0,0:0:0:0:
64,192,38209,1,8,0:0:0:0:
192,192,38209,1,2,0:0:0:0:
320,192,38339,1,0,0:0:0:0:
64,192,38470,1,0,0:0:0:0:
192,192,38600,1,0,0:0:0:0:
448,192,38731,1,2,0:0:0:0:
192,192,38861,1,0,0:0:0:0:
320,192,38992,1,0,0:0:0:0:
64,192,39122,1,0,0:0:0:0:
448,192,39252,1,2,0:0:0:0:
320,192,39252,1,8,0:0:0:0:
192,192,39383,1,0,0:0:0:0:
64,192,39513,1,0,0:0:0:0:
320,192,39644,1,0,0:0:0:0:
448,192,39774,1,2,0:0:0:0:
192,192,39905,1,0,0:0:0:0:
64,192,40035,1,0,0:0:0:0:
320,192,40166,1,0,0:0:0:0:
64,192,40296,1,8,0:0:0:0:
448,192,40296,1,2,0:0:0:0:
320,192,40557,128,0,40818:0:0:0:0:
64,192,40818,1,2,0:0:0:0:
448,192,41079,128,0,41339:0:0:0:0:
192,192,41339,1,8,0:0:0:0:
64,192,41339,1,2,0:0:0:0:
320,192,41600,1,0,0:0:0:0:
448,192,41731,1,0,0:0:0:0:
192,192,41861,1,2,0:0:0:0:
320,192,41992,1,0,0:0:0:0:
64,192,42122,128,0,42383:0:0:0:0:
320,192,42383,1,8,0:0:0:0:
448,192,42383,1,2,0:0:0:0:
192,192,42513,1,0,0:0:0:0:
320,192,42644,1,0,0:0:0:0:
192,192,42774,1,0,0:0:0:0:
64,192,42905,1,2,0:0:0:0:
448,192,42905,1,4,0:0:0:0:
320,192,43035,1,0,0:0:0:0:
192,192,43166,1,0,0:0:0:0:
64,192,43296,1,0,0:0:0:0:
448,192,43426,1,8,0:0:0:0:
320,192,43426,1,2,0:0:0:0:
192,192,43557,1,0,0:0:0:0:
448,192,43687,1,0,0:0:0:0:
320,192,43818,1,0,0:0:0:0:
192,192,43948,1,2,0:0:0:0:
64,192,44079,1,0,0:0:0:0:
320,192,44209,1,0,0:0:0:0:
448,192,44339,1,0,0:0:0:0:
64,192,44470,1,8,0:0:0:0:
192,192,44470,1,2,0:0:0:0:
320,192,44731,1,0,0:0:0:0:
448,192,44861,1,0,0:0:0:0:
64,192,44992,1,2,0:0:0:0:
320,192,45122,1,0,0:0:0:0:
64,192,45252,1,0,0:0:0:0:
320,192,45383,1,0,0:0:0:0:
192,192,45513,1,8,0:0:0:0:
448,192,45513,1,2,0:0:0:0:
64,192,45644,1,0,0:0:0:0:
320,192,45774,1,0,0:0:0:0:
192,192,45905,1,0,0:0:0:0:
448,192,46035,128,2,46296:0:0:0:0:
64,192,46296,1,0,0:0:0:0:
320,192,46426,1,0,0:0:0:0:
192,192,46557,1,8,0:0:0:0:
448,192,46557,1,2,0:0:0:0:
64,192,46687,1,0,0:0:0:0:
320,192,46818,1,0,0:0:0:0:
64,192,46948,1,0,0:0:0:0:
448,192,47079,1,2,0:0:0:0:
192,192,47209,1,0,0:0:0:0:
448,192,47339,1,0,0:0:0:0:
192,192,47470,1,0,0:0:0:0:
64,192,47600,1,8,0:0:0:0:
320,192,47600,1,2,0:0:0:0:
192,192,47861,128,0,48122:0:0:0:0:
448,192,48122,1,2,0:0:0:0:
320,192,48383,1,0,0:0:0:0:
448,192,48513,1,0,0:0:0:0:
64,192,48644,1,8,0:0:0:0:
192,192,48644,1,2,0:0:0:0:
320,192,48774,1,0,0:0:0:0:
64,192,48905,1,0,0:0:0:0:
192,192,49035,1,0,0:0:0:0:
320,192,49166,1,2,0:0:0:0:
64,192,49296,1,0,0:0:0:0:
448,192,49426,1,0,0:0:0:0:
320,192,49557,1,0,0:0:0:0:
64,192,49687,1,8,0:0:0:0:
448,192,49687,1,2,0:0:0:0:
192,192,49818,1,0,0:0:0:0:
320,192,49948,1,0,0:0:0:0:
448,192,50079,1,0,0:0:0:0:
64,192,50209,1,2,0:0:0:0:
448,192,50339,1,0,0:0:0:0:
192,192,50470,1,0,0:0:0:0:
320,192,50600,1,0,0:0:0:0:
64,192,50731,1,8,0:0:0:0:
448,192,50731,128,2,50992:0:0:0:0:
320,192,50992,128,0,51252:0:0:0:0:
64,192,51252,128,2,51513:0:0:0:0:
448,192,51252,1,4,0:0:0:0:
320,192,51513,1,0,0:0:0:0:
192,192,51644,1,2,0:0:0:0:
448,192,51644,128,0,51905:0:0:0:0:
192,192,51905,1,0,0:0:0:0:
64,192,52035,1,2,0:0:0:0:
320,192,52035,128,0,52296:0:0:0:0:
448,192,52426,1,0,0:0:0:0:
192,192,52557,1,2,0:0:0:0:
320,192,52687,1,0,0:0:0:0:
64,192,52818,1,8,0:0:0:0:
192,192,52818,128,0,53079:0:0:0:0:
320,192,53079,128,0,53339:0:0:0:0:
64,192,53339,1,2,0:0:0:0:
448,192,53339,128,0,53600:0:0:0:0:
192,192,53600,1,0,0:0:0:0:
64,192,53731,128,2,53992:0:0:0:0:
320,192,53731,1,0,0:0:0:0:
320,192,53992,1,0,0:0:0:0:
192,192,54122,1,2,0:0:0:0:
448,192,54122,128,0,54513:0:0:0:0:
320,192,54513,1,0,0:0:0:0:
192,192,54644,1,2,0:0:0:0:
448,192,54774,1,0,0:0:0:0:
64,192,54905,1,8,0:0:0:0:
192,192,54905,1,0,0:0:0:0:
320,192,55035,1,2,0:0:0:0:
192,192,55166,1,0,0:0:0:0:
64,192,55296,1,2,0:0:0:0:
448,192,55296,128,4,55687:0:0:0:0:
320,192,55687,1,2,0:0:0:0:
192,192,55818,1,0,0:0:0:0:
64,192,55948,1,8,0:0:0:0:
448,192,55948,1,0,0:0:0:0:
320,192,56079,1,0,0:0:0:0:
64,192,56209,1,0,0:0:0:0:
192,192,56339,128,2,56731:0:0:0:0:
320,192,56731,1,2,0:0:0:0:
64,192,56861,1,0,0:0:0:0:
320,192,56992,1,8,0:0:0:0:
448,192,56992,1,0,0:0:0:0:
192,192,57122,1,0,0:0:0:0:
448,192,57252,1,0,0:0:0:0:
64,192,57383,128,2,57774:0:0:0:0:
448,192,57774,128,2,58035:0:0:0:0:
64,192,58035,1,8,0:0:0:0:
320,192,58035,1,0,0:0:0:0:
192,192,58296,128,0,58557:0:0:0:0:
320,192,58557,128,2,58818:0:0:0:0:
448,192,58557,1,0,0:0:0:0:
192,192,58818,1,0,0:0:0:0:
448,192,58948,1,0,0:0:0:0:
64,192,59079,1,8,0:0:0:0:
320,192,59079,1,2,0:0:0:0:
192,192,59209,1,0,0:0:0:0:
320,192,59339,128,0,59600:0:0:0:0:
64,192,59600,1,2,0:0:0:0:
448,192,59600,1,4,0:0:0:0:
192,192,59861,128,0,60122:0:0:0:0:
320,192,60122,1,2,0:0:0:0:
64,192,60122,128,8,60252:0:0:0:0:
448,192,60383,128,0,60513:0:0:0:0:
192,192,60644,1,2,0:0:0:0:
320,192,60644,1,0,0:0:0:0:
64,192,60905,128,0,61166:0:0:0:0:
320,192,61166,1,8,0:0:0:0:
448,192,61166,128,2,61426:0:0:0:0:
192,192,61426,128,0,61687:0:0:0:0:
64,192,61687,1,2,0:0:0:0:
320,192,61687,128,0,61948:0:0:0:0:
448,192,61948,128,0,62209:0:0:0:0:
320,192,62209,1,2,0:0:0:0:
192,192,62209,128,8,62339:0:0:0:0:
64,192,62470,128,0,62600:0:0:0:0:
320,192,62731,1,2,0:0:0:0:
448,192,62731,1,0,0:0:0:0:
192,192,62992,128,0,63252:0:0:0:0:
64,192,63252,1,12,0:0:0:0:
448,192,63252,1,2,0:0:0:0:
320,192,63513,128,0,63774:0:0:0:0:
64,192,63774,1,2,0:0:0:0:
192,192,63774,1,4,0:0:0:0:
448,192,63905,1,0,0:0:0:0:
192,192,64035,1,0,0:0:0:0:
320,192,64166,1,0,0:0:0:0:
64,192,64296,1,8,0:0:0:0:
448,192,64296,1,2,0:0:0:0:
320,192,64426,1,0,0:0:0:0:
64,192,64557,1,0,0:0:0:0:
192,192,64687,1,0,0:0:0:0:
320,192,64818,1,2,0:0:0:0:
192,192,64948,1,0,0:0:0:0:
320,192,65079,1,0,0:0:0:0:
64,192,65209,1,0,0:0:0:0:
192,192,65339,1,8,0:0:0:0:
448,192,65339,1,2,0:0:0:0:
320,192,65470,1,0,0:0:0:0:
192,192,65600,1,0,0:0:0:0:
448,192,65731,1,0,0:0:0:0:
64,192,65861,128,0,66383:0:0:0:0:
320,192,65861,1,0,0:0:0:0:
448,192,66644,1,0,0:0:0:0:
64,192,66905,1,0,0:0:0:0:
320,192,67166,128,0,67426:0:0:0:0:
192,192,67426,128,0,67687:0:0:0:0:
64,192,67687,128,0,67948:0:0:0:0:
320,192,67948,128,2,68209:0:0:0:0:
448,192,67948,1,4,0:0:0:0:
192,192,68209,1,0,0:0:0:0:
448,192,68339,128,0,68470:0:0:0:0:
64,192,68470,1,8,0:0:0:0:
320,192,68470,1,2,0:0:0:0:
192,192,68731,128,0,68861:0:0:0:0:
320,192,68861,128,0,68992:0:0:0:0:
64,192,68992,128,2,69252:0:0:0:0:
448,192,68992,1,0,0:0:0:0:
320,192,69252,128,0,69513:0:0:0:0:
64,192,69513,1,8,0:0:0:0:
448,192,69513,128,2,69774:0:0:0:0:
192,192,69774,128,0,70035:0:0:0:0:
64,192,70035,128,2,70296:0:0:0:0:
448,192,70035,1,0,0:0:0:0:
192,192,70296,1,0,0:0:0:0:
448,192,70426,128,0,70557:0:0:0:0:
64,192,70557,1,8,0:0:0:0:
320,192,70557,1,2,0:0:0:0:
192,192,70687,128,0,70948:0:0:0:0:
320,192,70948,128,0,71079:0:0:0:0:
64,192,71079,128,2,71339:0:0:0:0:
448,192,71079,1,0,0:0:0:0:
192,192,71339,1,0,0:0:0:0:
64,192,71600,1,8,0:0:0:0:
320,192,71600,128,2,71861:0:0:0:0:
448,192,71861,128,0,72122:0:0:0:0:
64,192,72122,128,2,72383:0:0:0:0:
192,192,72122,1,0,0:0:0:0:
320,192,72383,128,0,72513:0:0:0:0:
192,192,72513,128,0,72644:0:0:0:0:
64,192,72644,1,8,0:0:0:0:
448,192,72644,128,2,72905:0:0:0:0:
320,192,72905,128,0,73166:0:0:0:0:
192,192,73166,1,2,0:0:0:0:
64,192,73166,128,0,73426:0:0:0:0:
448,192,73426,128,0,73557:0:0:0:0:
320,192,73557,128,0,73687:0:0:0:0:
64,192,73687,1,8,0:0:0:0:
192,192,73687,128,2,73948:0:0:0:0:
320,192,73948,128,0,74209:0:0:0:0:
64,192,74209,1,2,0:0:0:0:
448,192,74209,128,0,74339:0:0:0:0:
192,192,74383,128,0,74600:0:0:0:0:
320,192,74600,128,0,74731:0:0:0:0:
64,192,74731,1,8,0:0:0:0:
192,192,74731,1,2,0:0:0:0:
448,192,74861,128,0,75122:0:0:0:0:
320,192,75122,128,0,75252:0:0:0:0:
64,192,75252,128,2,75513:0:0:0:0:
192,192,75252,1,0,0:0:0:0:
448,192,75513,1,0,0:0:0:0:
320,192,75644,1,0,0:0:0:0:
64,192,75774,1,8,0:0:0:0:
448,192,75774,1,2,0:0:0:0:
192,192,75905,1,0,0:0:0:0:
320,192,76035,1,0,0:0:0:0:
192,192,76166,1,0,0:0:0:0:
64,192,76296,1,2,0:0:0:0:
448,192,76296,128,4,76557:0:0:0:0:
320,192,76557,1,0,0:0:0:0:
192,192,76687,128,0,76818:0:0:0:0:
64,192,76818,128,8,77079:0:0:0:0:
448,192,76818,1,2,0:0:0:0:
320,192,77079,128,0,77339:0:0:0:0:
64,192,77339,1,2,0:0:0:0:
448,192,77339,128,0,77470:0:0:0:0:
192,192,77600,1,0,0:0:0:0:
320,192,77731,1,0,0:0:0:0:
64,192,77861,1,8,0:0:0:0:
448,192,77861,1,2,0:0:0:0:
192,192,77992,1,0,0:0:0:0:
448,192,78122,1,0,0:0:0:0:
320,192,78252,1,0,0:0:0:0:
64,192,78383,1,2,0:0:0:0:
192,192,78383,128,0,78644:0:0:0:0:
448,192,78644,128,0,78774:0:0:0:0:
320,192,78774,128,0,78905:0:0:0:0:
64,192,78905,1,8,0:0:0:0:
192,192,78905,1,2,0:0:0:0:
448,192,79035,128,0,79296:0:0:0:0:
192,192,79296,128,0,79426:0:0:0:0:
64,192,79426,128,2,79687:0:0:0:0:
320,192,79426,1,0,0:0:0:0:
448,192,79687,1,0,0:0:0:0:
320,192,79818,1,0,0:0:0:0:
64,192,79948,1,8,0:0:0:0:
192,192,79948,1,2,0:0:0:0:
320,192,80079,1,0,0:0:0:0:
448,192,80209,1,0,0:0:0:0:
192,192,80339,1,0,0:0:0:0:
448,192,80470,1,2,0:0:0:0:
320,192,80470,128,0,80731:0:0:0:0:
64,192,80731,128,0,80861:0:0:0:0:
192,192,80861,128,0,80992:0:0:0:0:
320,192,80992,128,8,81252:0:0:0:0:
448,192,80992,1,2,0:0:0:0:
64,192,81252,128,0,81513:0:0:0:0:
320,192,81513,1,2,0:0:0:0:
448,192,81513,128,0,81774:0:0:0:0:
192,192,81774,128,0,81905:0:0:0:0:
320,192,81905,128,0,82035:0:0:0:0:
448,192,82035,128,2,82296:0:0:0:0:
64,192,82035,1,8,0:0:0:0:
192,192,82296,128,0,82557:0:0:0:0:
64,192,82557,128,2,82818:0:0:0:0:
448,192,82557,1,0,0:0:0:0:
320,192,82818,1,0,0:0:0:0:
192,192,82948,1,0,0:0:0:0:
64,192,83079,1,8,0:0:0:0:
448,192,83079,1,2,0:0:0:0:
320,192,83209,1,0,0:0:0:0:
192,192,83339,1,0,0:0:0:0:
320,192,83470,1,0,0:0:0:0:
64,192,83600,1,2,0:0:0:0:
448,192,83600,1,0,0:0:0:0:
192,192,83731,1,0,0:0:0:0:
320,192,83861,1,0,0:0:0:0:
448,192,83992,1,0,0:0:0:0:
64,192,84122,1,8,0:0:0:0:
192,192,84122,1,2,0:0:0:0:
320,192,84252,1,0,0:0:0:0:
192,192,84383,1,0,0:0:0:0:
320,192,84513,1,0,0:0:0:0:
64,192,84644,128,4,84905:0:0:0:0:
448,192,84644,1,2,0:0:0:0:
192,192,84905,1,0,0:0:0:0:
448,192,85035,128,0,85166:0:0:0:0:
64,192,85166,1,8,0:0:0:0:
320,192,85166,1,2,0:0:0:0:
192,192,85426,128,0,85557:0:0:0:0:
320,192,85557,128,0,85687:0:0:0:0:
64,192,85687,128,2,85948:0:0:0:0:
448,192,85687,1,0,0:0:0:0:
320,192,85948,128,0,86209:0:0:0:0:
64,192,86209,1,8,0:0:0:0:
192,192,86209,128,2,86470:0:0:0:0:
448,192,86470,128,0,86731:0:0:0:0:
64,192,86731,128,2,86992:0:0:0:0:
192,192,86731,1,0,0:0:0:0:
320,192,86992,128,0,87122:0:0:0:0:
192,192,87122,128,0,87252:0:0:0:0:
64,192,87252,1,8,0:0:0:0:
448,192,87252,1,2,0:0:0:0:
320,192,87383,128,0,87644:0:0:0:0:
448,192,87644,128,0,87774:0:0:0:0:
64,192,87774,128,2,88035:0:0:0:0:
192,192,87774,1,0,0:0:0:0:
448,192,88035,1,0,0:0:0:0:
64,192,88296,1,8,0:0:0:0:
320,192,88296,128,2,88557:0:0:0:0:
448,192,88557,128,0,88818:0:0:0:0:
192,192,88818,1,2,0:0:0:0:
64,192,88818,128,0,89079:0:0:0:0:
320,192,89079,128,0,89209:0:0:0:0:
192,192,89209,128,0,89339:0:0:0:0:
64,192,89339,1,8,0:0:0:0:
448,192,89339,128,2,89600:0:0:0:0:
320,192,89600,128,0,89861:0:0:0:0:
64,192,89861,1,2,0:0:0:0:
192,192,89861,128,0,90122:0:0:0:0:
320,192,90122,128,0,90252:0:0:0:0:
64,192,90252,128,0,90383:0:0:0:0:
192,192,90383,1,8,0:0:0:0:
448,192,90383,128,2,90644:0:0:0:0:
320,192,90644,128,0,90905:0:0:0:0:
64,192,90905,128,2,91166:0:0:0:0:
448,192,90905,1,0,0:0:0:0:
192,192,91166,128,0,91296:0:0:0:0:
320,192,91296,128,0,91426:0:0:0:0:
64,192,91426,1,8,0:0:0:0:
192,192,91426,1,2,0:0:0:0:
448,192,91557,128,0,91818:0:0:0:0:
320,192,91818,128,0,91948:0:0:0:0:
64,192,91948,128,2,92079:0:0:0:0:
192,192,91948,1,0,0:0:0:0:
448,192,92079,1,0,0:0:0:0:
320,192,92209,1,0,0:0:0:0:
192,192,92339,1,0,0:0:0:0:
64,192,92470,1,8,0:0:0:0:
448,192,92470,1,2,0:0:0:0:
320,192,92600,1,0,0:0:0:0:
64,192,92731,1,0,0:0:0:0:
192,192,92861,1,0,0:0:0:0:
320,192,92992,1,2,0:0:0:0:
448,192,92992,128,4,93252:0:0:0:0:
192,192,93252,1,0,0:0:0:0:
64,192,93383,128,0,93774:0:0:0:0:
320,192,93513,1,8,0:0:0:0:
448,192,93513,1,2,0:0:0:0:
192,192,93774,128,0,93905:0:0:0:0:
320,192,93905,128,0,94035:0:0:0:0:
64,192,94035,128,2,94296:0:0:0:0:
448,192,94035,1,0,0:0:0:0:
448,192,94296,128,0,94557:0:0:0:0:
64,192,94557,1,8,0:0:0:0:
320,192,94557,128,2,94818:0:0:0:0:
192,192,94818,128,0,95079:0:0:0:0:
64,192,95079,128,2,95339:0:0:0:0:
448,192,95079,1,0,0:0:0:0:
192,192,95339,128,0,95600:0:0:0:0:
64,192,95600,1,8,0:0:0:0:
320,192,95600,128,2,95861:0:0:0:0:
448,192,95861,128,0,96122:0:0:0:0:
64,192,96122,1,2,0:0:0:0:
320,192,96122,1,0,0:0:0:0:
192,192,96383,128,0,96644:0:0:0:0:
448,192,96644,1,2,0:0:0:0:
64,192,96644,128,8,96905:0:0:0:0:
320,192,96905,128,0,97035:0:0:0:0:
64,192,97166,1,2,0:0:0:0:
192,192,97166,1,4,0:0:0:0:
448,192,97426,128,0,97687:0:0:0:0:
64,192,97687,1,8,0:0:0:0:
192,192,97687,128,2,97948:0:0:0:0:
320,192,97948,128,0,98079:0:0:0:0:
64,192,98079,1,2,0:0:0:0:
448,192,98079,128,0,98470:0:0:0:0:
192,192,98470,128,2,98731:0:0:0:0:
64,192,98470,1,0,0:0:0:0:
320,192,98731,128,0,98992:0:0:0:0:
448,192,98861,1,0,0:0:0:0:
64,192,98992,128,0,99252:0:0:0:0:
192,192,99122,1,0,0:0:0:0:
320,192,99252,1,0,0:0:0:40:Tom1.wav
448,192,99252,1,0,0:0:0:0:
192,192,99513,1,0,0:0:0:30:Tom2.wav
448,192,99644,1,0,0:0:0:0:
64,192,99905,1,0,0:0:0:20:Tom3.wav
448,192,100035,1,0,0:0:0:0:
192,192,100166,1,0,0:0:0:0:
320,192,100296,128,0,100818:0:0:0:10:Tom3.wav
