osu file format v14

[General]
AudioFilename: audio.mp3
AudioLeadIn: 0
PreviewTime: 67166
Countdown: 0
SampleSet: Soft
StackLeniency: 0.7
Mode: 3
LetterboxInBreaks: 0
SpecialStyle: 0
WidescreenStoryboard: 1

[Editor]
Bookmarks: 1166,9514,15775,17862,33514,34558,51253,59601,65862,67949,84645,99253
DistanceSpacing: 1
BeatDivisor: 2
GridSize: 32
TimelineZoom: 0.2999999

[Metadata]
Title:Yoru ni Kakeru -THE HOME TAKE ver.- (Cut Ver.)
TitleUnicode:夜に駆ける -THE HOME TAKE ver.- (Cut Ver.)
Artist:Kisaragi Rumii
ArtistUnicode:如月ルミィ
Creator:Irone OSU
Version:Easy
Source:
Tags:Vocal jpop J-pop Japanese synth-pop Hong Kong 香港Vtuber HKVtuber 如月瑠美 rumiikisaragi Mica BASA cover yoasobi racing into the night 幾田りら ikuta rira lilas ayase 如月ルミィ virtual youtuber the book XSCL-50 Faputa itsrumiinous rumii48kHz
BeatmapID:2845576
BeatmapSetID:1376799

[Difficulty]
HPDrainRate:6.5
CircleSize:4
OverallDifficulty:6.5
ApproachRate:5
SliderMultiplier:1.4
SliderTickRate:1

[Events]
//Background and Video events
0,0,"rumii_BG.jpg",0,0
//Break Periods
//Storyboard Layer 0 (Background)
//Storyboard Layer 1 (Fail)
//Storyboard Layer 2 (Pass)
//Storyboard Layer 3 (Foreground)
//Storyboard Layer 4 (Overlay)
//Storyboard Sound Samples
Sample,16426,0,"Tom1.wav",60
Sample,16687,0,"Tom3.wav",60
Sample,17079,0,"Tom3.wav",60
Sample,34426,0,"soft-hitclap.wav",50
Sample,55035,0,"soft-hitwhistle.wav",50
Sample,99513,0,"Tom2.wav",30
Sample,99905,0,"Tom3.wav",20

[TimingPoints]
1166,521.739130434783,4,2,1,45,1,0
17862,-100,4,2,1,50,0,0
67948,-100,4,2,1,60,0,1
99252,-100,4,2,1,30,0,0

[HitObjects]
448,192,644,128,0,1166:0:0:0:0:
64,192,1166,128,0,2209:0:0:0:0:
192,192,2209,128,0,2731:0:0:0:0:
320,192,2731,128,0,3252:0:0:0:0:
448,192,3252,128,0,4296:0:0:0:0:
64,192,4296,128,0,5339:0:0:0:0:
448,192,5339,128,0,6383:0:0:0:0:
192,192,6383,128,0,6905:0:0:0:0:
320,192,6905,128,0,7426:0:0:0:0:
64,192,7426,128,0,8470:0:0:0:0:
448,192,8470,128,0,8992:0:0:0:0:
320,192,8992,128,0,9513:0:0:0:0:
64,192,9513,1,2,0:0:0:0:
320,192,10035,1,2,0:0:0:0:
192,192,10557,1,2,0:0:0:0:
448,192,11079,1,2,0:0:0:0:
64,192,11600,1,2,0:0:0:0:
320,192,12122,1,2,0:0:0:0:
192,192,12644,1,2,0:0:0:0:
448,192,13166,1,2,0:0:0:0:
192,192,13687,1,2,0:0:0:0:
320,192,14209,1,2,0:0:0:0:
64,192,14731,1,2,0:0:0:0:
192,192,15252,1,2,0:0:0:0:
448,192,15774,1,0,0:0:0:0:
64,192,16296,1,2,0:0:0:0:
320,192,16557,1,0,0:0:0:60:Tom2.wav
192,192,16818,1,2,0:0:0:0:
448,192,17339,1,2,0:0:0:0:
64,192,17861,1,2,0:0:0:0:
192,192,17861,1,4,0:0:0:0:
320,192,18383,128,10,18905:0:0:0:0:
192,192,18905,1,2,0:0:0:0:
64,192,19426,128,10,19948:0:0:0:0:
320,192,19948,1,2,0:0:0:0:
448,192,20470,128,10,20992:0:0:0:0:
64,192,20992,1,2,0:0:0:0:
192,192,21513,128,10,22035:0:0:0:0:
448,192,22035,1,2,0:0:0:0:
320,192,22557,128,10,23079:0:0:0:0:
64,192,23079,1,2,0:0:0:0:
192,192,23600,128,10,24122:0:0:0:0:
448,192,24122,1,2,0:0:0:0:
64,192,24644,128,10,25166:0:0:0:0:
320,192,25166,1,2,0:0:0:0:
448,192,25687,128,10,26209:0:0:0:0:
64,192,26209,1,4,0:0:0:0:
192,192,26209,1,2,0:0:0:0:
320,192,26731,128,10,27252:0:0:0:0:
64,192,27252,1,2,0:0:0:0:
192,192,27774,128,10,28296:0:0:0:0:
448,192,28296,1,2,0:0:0:0:
64,192,28818,128,10,29339:0:0:0:0:
320,192,29339,1,2,0:0:0:0:
448,192,29861,128,10,30383:0:0:0:0:
192,192,30383,1,2,0:0:0:0:
64,192,30905,128,10,31426:0:0:0:0:
320,192,31426,1,2,0:0:0:0:
192,192,31948,128,10,32470:0:0:0:0:
320,192,32470,1,2,0:0:0:0:
448,192,32992,128,10,33513:0:0:0:0:
64,192,33513,1,2,0:0:0:0:
192,192,33905,1,2,0:0:0:0:
320,192,34296,1,8,0:0:0:0:
64,192,34557,1,2,0:0:0:0:
448,192,34557,1,4,0:0:0:0:
192,192,35079,1,10,0:0:0:0:
448,192,35600,1,2,0:0:0:0:
320,192,35861,1,0,0:0:0:0:
64,192,36122,1,10,0:0:0:0:
192,192,36644,1,2,0:0:0:0:
320,192,37166,1,10,0:0:0:0:
64,192,37687,1,2,0:0:0:0:
192,192,37948,1,0,0:0:0:0:
448,192,38209,1,10,0:0:0:0:
320,192,38731,1,2,0:0:0:0:
192,192,39252,1,10,0:0:0:0:
448,192,39774,1,2,0:0:0:0:
320,192,40035,1,0,0:0:0:0:
64,192,40296,1,10,0:0:0:0:
192,192,40818,1,2,0:0:0:0:
320,192,41339,1,10,0:0:0:0:
448,192,41861,1,2,0:0:0:0:
192,192,42122,1,0,0:0:0:0:
320,192,42383,1,10,0:0:0:0:
64,192,42644,1,0,0:0:0:0:
320,192,42905,1,2,0:0:0:0:
448,192,42905,1,4,0:0:0:0:
192,192,43426,1,10,0:0:0:0:
64,192,43948,1,2,0:0:0:0:
320,192,44209,1,0,0:0:0:0:
448,192,44470,1,10,0:0:0:0:
192,192,44992,1,2,0:0:0:0:
448,192,45513,1,10,0:0:0:0:
320,192,46035,1,2,0:0:0:0:
192,192,46296,1,0,0:0:0:0:
64,192,46557,1,10,0:0:0:0:
192,192,47079,1,2,0:0:0:0:
448,192,47600,1,10,0:0:0:0:
320,192,48122,1,2,0:0:0:0:
64,192,48383,1,0,0:0:0:0:
192,192,48644,1,10,0:0:0:0:
320,192,49166,1,2,0:0:0:0:
192,192,49687,1,10,0:0:0:0:
448,192,50209,1,2,0:0:0:0:
192,192,50470,1,0,0:0:0:0:
64,192,50731,1,10,0:0:0:0:
320,192,51252,1,2,0:0:0:0:
448,192,51252,1,4,0:0:0:0:
192,192,51644,1,2,0:0:0:0:
320,192,52035,128,2,52557:0:0:0:0:
64,192,52557,1,2,0:0:0:0:
448,192,52818,1,8,0:0:0:0:
320,192,53079,1,0,0:0:0:0:
64,192,53339,1,2,0:0:0:0:
192,192,53339,1,0,0:0:0:0:
320,192,53731,1,2,0:0:0:0:
192,192,54122,128,2,54644:0:0:0:0:
448,192,54644,1,2,0:0:0:0:
64,192,54905,1,8,0:0:0:0:
320,192,55296,1,2,0:0:0:0:
448,192,55296,1,4,0:0:0:0:
64,192,55687,1,2,0:0:0:0:
320,192,55948,1,8,0:0:0:0:
192,192,56339,1,2,0:0:0:0:
448,192,56731,1,2,0:0:0:0:
320,192,56992,1,8,0:0:0:0:
64,192,57383,1,2,0:0:0:0:
320,192,57774,1,2,0:0:0:0:
192,192,58035,1,8,0:0:0:0:
448,192,58557,1,2,0:0:0:0:
320,192,59079,1,10,0:0:0:0:
64,192,59600,1,2,0:0:0:0:
192,192,59600,1,4,0:0:0:0:
448,192,60122,128,10,60644:0:0:0:0:
320,192,60644,1,2,0:0:0:0:
192,192,61166,128,10,61687:0:0:0:0:
64,192,61687,1,2,0:0:0:0:
320,192,62209,128,10,62731:0:0:0:0:
192,192,62731,1,2,0:0:0:0:
320,192,63252,1,12,0:0:0:0:
448,192,63252,128,2,63774:0:0:0:0:
64,192,63774,1,2,0:0:0:0:
192,192,63774,1,4,0:0:0:0:
320,192,64296,128,10,64818:0:0:0:0:
192,192,64818,1,2,0:0:0:0:
448,192,65339,128,10,65861:0:0:0:0:
64,192,65861,128,0,66383:0:0:0:0:
320,192,67166,128,0,67948:0:0:0:0:
64,192,67948,1,2,0:0:0:0:
192,192,67948,1,4,0:0:0:0:
448,192,68470,1,10,0:0:0:0:
192,192,68731,1,0,0:0:0:0:
64,192,68992,1,2,0:0:0:0:
320,192,69513,1,10,0:0:0:0:
448,192,69774,1,0,0:0:0:0:
64,192,70035,1,2,0:0:0:0:
192,192,70557,1,10,0:0:0:0:
448,192,70818,1,0,0:0:0:0:
64,192,71079,1,2,0:0:0:0:
320,192,71600,1,10,0:0:0:0:
192,192,71861,1,0,0:0:0:0:
448,192,72122,1,2,0:0:0:0:
320,192,72644,1,10,0:0:0:0:
192,192,72905,1,0,0:0:0:0:
64,192,73166,1,2,0:0:0:0:
320,192,73687,1,10,0:0:0:0:
448,192,73948,1,0,0:0:0:0:
64,192,74209,1,2,0:0:0:0:
192,192,74731,1,10,0:0:0:0:
320,192,74992,1,0,0:0:0:0:
64,192,75252,1,2,0:0:0:0:
320,192,75774,1,10,0:0:0:0:
448,192,76035,1,0,0:0:0:0:
64,192,76296,1,2,0:0:0:0:
192,192,76296,1,4,0:0:0:0:
448,192,76818,1,10,0:0:0:0:
320,192,77079,1,0,0:0:0:0:
192,192,77339,1,2,0:0:0:0:
64,192,77861,1,10,0:0:0:0:
448,192,78122,1,0,0:0:0:0:
320,192,78383,1,2,0:0:0:0:
448,192,78905,1,10,0:0:0:0:
192,192,79166,1,0,0:0:0:0:
64,192,79426,1,2,0:0:0:0:
192,192,79948,1,10,0:0:0:0:
320,192,80209,1,0,0:0:0:0:
448,192,80470,1,2,0:0:0:0:
64,192,80992,1,10,0:0:0:0:
320,192,81252,1,0,0:0:0:0:
448,192,81513,1,2,0:0:0:0:
64,192,82035,1,10,0:0:0:0:
192,192,82296,1,0,0:0:0:0:
320,192,82557,1,2,0:0:0:0:
192,192,83079,1,10,0:0:0:0:
320,192,83339,1,0,0:0:0:0:
64,192,83600,1,2,0:0:0:0:
448,192,83861,1,0,0:0:0:0:
320,192,84122,128,10,84644:0:0:0:0:
64,192,84644,1,4,0:0:0:0:
192,192,84644,1,2,0:0:0:0:
448,192,85166,1,10,0:0:0:0:
192,192,85426,1,0,0:0:0:0:
320,192,85687,1,2,0:0:0:0:
64,192,86209,1,10,0:0:0:0:
192,192,86470,1,0,0:0:0:0:
448,192,86731,1,2,0:0:0:0:
320,192,87252,1,10,0:0:0:0:
192,192,87513,1,0,0:0:0:0:
64,192,87774,1,2,0:0:0:0:
320,192,88296,1,10,0:0:0:0:
448,192,88557,1,0,0:0:0:0:
192,192,88818,1,2,0:0:0:0:
448,192,89339,1,10,0:0:0:0:
320,192,89600,1,0,0:0:0:0:
64,192,89861,1,2,0:0:0:0:
192,192,90383,1,10,0:0:0:0:
320,192,90644,1,0,0:0:0:0:
448,192,90905,1,2,0:0:0:0:
64,192,91426,1,10,0:0:0:0:
320,192,91687,1,0,0:0:0:0:
192,192,91948,1,2,0:0:0:0:
64,192,92470,1,10,0:0:0:0:
192,192,92731,1,0,0:0:0:0:
320,192,92992,1,2,0:0:0:0:
448,192,92992,1,4,0:0:0:0:
192,192,93513,1,10,0:0:0:0:
448,192,93774,1,0,0:0:0:0:
64,192,94035,1,2,0:0:0:0:
448,192,94557,1,10,0:0:0:0:
320,192,94818,1,0,0:0:0:0:
192,192,95079,1,2,0:0:0:0:
64,192,95600,1,10,0:0:0:0:
448,192,95861,1,0,0:0:0:0:
320,192,96122,1,2,0:0:0:0:
64,192,96644,1,10,0:0:0:0:
192,192,96905,1,0,0:0:0:0:
320,192,97166,1,2,0:0:0:0:
448,192,97166,1,4,0:0:0:0:
192,192,97687,1,10,0:0:0:0:
320,192,98079,1,2,0:0:0:0:
64,192,98470,1,2,0:0:0:0:
448,192,98731,128,0,99252:0:0:0:0:
320,192,99252,128,0,100296:0:0:0:40:Tom1.wav
192,192,100296,128,0,100818:0:0:0:10:Tom3.wav
