osu file format v14

[General]
AudioFilename: audio.mp3
AudioLeadIn: 0
PreviewTime: 30592
Countdown: 0
SampleSet: Normal
StackLeniency: 0.7
Mode: 1
LetterboxInBreaks: 0
WidescreenStoryboard: 1

[Editor]
Bookmarks: 37219
DistanceSpacing: 1.7
BeatDivisor: 2
GridSize: 16
TimelineZoom: 0.8999999

[Metadata]
Title:Me ga Au Toki
TitleUnicode:目が逢う瞬間
Artist:Kisaragi Chihaya (CV: Imai Asami)
ArtistUnicode:如月千早 (CV: 今井麻美)
Creator:Konpaku Sariel
Version:Kantan
Source:THE iDOLM@STER
Tags:MASTER ARTIST 05 idolmaster japanese video game anime アイドルマスター
BeatmapID:2281587
BeatmapSetID:1091358

[Difficulty]
HPDrainRate:8
CircleSize:5
OverallDifficulty:2
ApproachRate:5
SliderMultiplier:1.4
SliderTickRate:1

[Events]
//Background and Video events
0,0,"bg.jpg",0,0
//Break Periods
//Storyboard Layer 0 (Background)
//Storyboard Layer 1 (Fail)
//Storyboard Layer 2 (Pass)
//Storyboard Layer 3 (Foreground)
//Storyboard Layer 4 (Overlay)
//Storyboard Sound Samples

[TimingPoints]
2455,413.793103448276,4,1,0,70,1,0
30541,-100,4,1,0,75,0,0
30592,413.793103448276,4,1,0,75,1,1
37212,-100,4,1,0,70,0,0
37316,-100,4,1,0,60,0,0
78540,-100,4,1,0,70,0,0
78592,413.793103448276,4,1,0,70,1,1
105074,-100,4,1,0,70,0,0
118626,-100,4,1,0,65,0,0
128971,-100,4,1,0,69,0,0
129798,-100,4,1,0,75,0,0
131557,-100,4,1,0,75,0,1
144798,-100,4,1,0,75,0,0
144954,-100,4,1,0,70,0,0

[HitObjects]
256,192,2454,5,4,0:0:0:0:
256,192,4110,1,0,0:0:0:0:
256,192,5765,1,0,0:0:0:0:
256,192,7420,1,0,0:0:0:0:
256,192,8248,1,0,0:0:0:0:
256,192,8661,1,0,0:0:0:0:
256,192,9075,1,0,0:0:0:0:
256,192,10730,1,0,0:0:0:0:
256,192,11558,1,0,0:0:0:0:
256,192,11972,1,8,0:0:0:0:
256,192,12386,1,0,0:0:0:0:
256,192,13213,1,8,0:0:0:0:
256,192,14041,1,0,0:0:0:0:
256,192,14868,1,8,0:0:0:0:
256,192,15282,1,8,0:0:0:0:
256,192,15696,1,0,0:0:0:0:
256,192,16523,1,8,0:0:0:0:
256,192,17351,1,0,0:0:0:0:
256,192,18179,1,8,0:0:0:0:
256,192,18592,1,8,0:0:0:0:
256,192,19006,1,0,0:0:0:0:
256,192,20661,1,0,0:0:0:0:
256,192,21489,1,8,0:0:0:0:
256,192,21903,1,8,0:0:0:0:
256,192,22317,1,0,0:0:0:0:
256,192,23144,1,8,0:0:0:0:
256,192,23558,1,8,0:0:0:0:
256,192,23972,1,0,0:0:0:0:
256,192,24799,1,0,0:0:0:0:
256,192,25213,1,8,0:0:0:0:
256,192,25627,1,0,0:0:0:0:
256,192,27282,1,0,0:0:0:0:
256,192,28937,1,0,0:0:0:0:
256,192,29351,1,0,0:0:0:0:
256,192,29765,1,0,0:0:0:0:
256,192,30179,1,0,0:0:0:0:
256,192,30592,1,4,0:0:0:0:
256,192,31419,1,8,0:0:0:0:
256,192,32247,1,0,0:0:0:0:
256,192,32660,1,0,0:0:0:0:
256,192,33074,1,8,0:0:0:0:
256,192,33902,1,0,0:0:0:0:
256,192,34729,1,8,0:0:0:0:
256,192,35557,1,0,0:0:0:0:
256,192,35971,1,8,0:0:0:0:
256,192,36385,1,8,0:0:0:0:
256,192,37212,1,0,0:0:0:0:
256,192,38040,1,0,0:0:0:0:
256,192,38867,1,8,0:0:0:0:
256,192,39695,1,0,0:0:0:0:
256,192,40109,1,8,0:0:0:0:
256,192,40523,1,0,0:0:0:0:
256,192,42178,1,0,0:0:0:0:
256,192,43833,1,0,0:0:0:0:
256,192,44660,1,0,0:0:0:0:
256,192,45488,1,8,0:0:0:0:
256,192,46316,1,0,0:0:0:0:
256,192,46729,1,0,0:0:0:0:
256,192,47143,1,8,0:0:0:0:
256,192,48798,1,0,0:0:0:0:
256,192,50454,1,0,0:0:0:0:
256,192,51281,1,0,0:0:0:0:
256,192,52109,1,8,0:0:0:0:
256,192,52936,1,0,0:0:0:0:
256,192,53350,1,8,0:0:0:0:
256,192,53764,1,0,0:0:0:0:
256,192,56247,1,8,0:0:0:0:
256,192,56660,1,8,0:0:0:0:
256,192,57074,1,0,0:0:0:0:
256,192,57902,1,0,0:0:0:0:
256,192,58729,1,8,0:0:0:0:
256,192,59557,1,8,0:0:0:0:
256,192,60385,1,0,0:0:0:0:
256,192,62040,1,0,0:0:0:0:
256,192,63695,5,8,0:0:0:0:
256,192,64523,1,8,0:0:0:0:
256,192,65350,1,8,0:0:0:0:
256,192,66178,1,8,0:0:0:0:
256,192,66592,1,8,0:0:0:0:
256,192,67005,1,0,0:0:0:0:
256,192,68660,1,0,0:0:0:0:
256,192,70316,1,8,0:0:0:0:
256,192,71143,1,8,0:0:0:0:
256,192,71971,1,8,0:0:0:0:
256,192,72798,1,8,0:0:0:0:
256,192,73212,1,8,0:0:0:0:
256,192,73626,1,0,0:0:0:0:
256,192,75281,1,8,0:0:0:0:
256,192,76936,1,0,0:0:0:0:
256,192,77350,1,0,0:0:0:0:
256,192,77764,1,0,0:0:0:0:
256,192,78178,1,0,0:0:0:0:
256,192,78592,1,0,0:0:0:0:
256,192,79419,1,0,0:0:0:0:
256,192,79833,1,8,0:0:0:0:
256,192,80247,1,0,0:0:0:0:
256,192,81074,1,8,0:0:0:0:
256,192,81488,1,8,0:0:0:0:
256,192,81902,1,0,0:0:0:0:
256,192,82729,1,8,0:0:0:0:
256,192,84385,1,8,0:0:0:0:
256,192,84798,1,8,0:0:0:0:
256,192,85212,1,0,0:0:0:0:
256,192,86040,1,0,0:0:0:0:
256,192,86454,1,8,0:0:0:0:
256,192,86867,1,0,0:0:0:0:
256,192,87695,1,8,0:0:0:0:
256,192,88523,1,0,0:0:0:0:
256,192,89350,1,0,0:0:0:0:
256,192,90178,1,0,0:0:0:0:
256,192,91833,1,0,0:0:0:0:
256,192,92660,1,0,0:0:0:0:
256,192,93074,1,8,0:0:0:0:
256,192,93488,1,0,0:0:0:0:
256,192,94316,1,8,0:0:0:0:
256,192,94729,1,8,0:0:0:0:
256,192,95143,1,0,0:0:0:0:
256,192,95971,1,8,0:0:0:0:
256,192,97626,1,0,0:0:0:0:
256,192,98040,1,8,0:0:0:0:
256,192,98454,1,0,0:0:0:0:
256,192,99281,1,8,0:0:0:0:
256,192,99695,1,8,0:0:0:0:
256,192,100109,1,0,0:0:0:0:
256,192,100936,1,8,0:0:0:0:
256,192,101350,1,8,0:0:0:0:
256,192,101764,1,0,0:0:0:0:
256,192,103419,1,0,0:0:0:0:
256,192,104247,1,8,0:0:0:0:
256,192,105074,1,4,0:0:0:0:
256,192,105695,1,0,0:0:0:0:
256,192,106316,1,0,0:0:0:0:
256,192,107557,1,8,0:0:0:0:
256,192,108385,1,0,0:0:0:0:
256,192,109005,1,0,0:0:0:0:
256,192,109626,1,0,0:0:0:0:
256,192,110867,1,8,0:0:0:0:
256,192,111695,1,8,0:0:0:0:
256,192,112316,1,8,0:0:0:0:
256,192,112936,1,8,0:0:0:0:
256,192,114178,1,0,0:0:0:0:
256,192,114592,1,0,0:0:0:0:
256,192,115005,1,8,0:0:0:0:
256,192,116247,1,8,0:0:0:0:
256,192,116660,1,8,0:0:0:0:
256,192,118316,1,0,0:0:0:0:
256,192,119143,1,0,0:0:0:0:
256,192,119971,1,8,0:0:0:0:
256,192,120798,1,8,0:0:0:0:
256,192,121626,1,0,0:0:0:0:
256,192,124109,1,8,0:0:0:0:
256,192,124523,1,8,0:0:0:0:
256,192,124936,1,0,0:0:0:0:
256,192,125764,1,0,0:0:0:0:
256,192,126592,1,8,0:0:0:0:
256,192,127419,1,8,0:0:0:0:
256,192,128247,1,0,0:0:0:0:
256,192,129074,1,8,0:0:0:0:
256,192,129902,1,0,0:0:0:0:
256,192,130316,1,0,0:0:0:0:
256,192,130729,1,8,0:0:0:0:
256,192,131143,1,8,0:0:0:0:
256,192,131557,1,4,0:0:0:0:
256,192,132385,1,0,0:0:0:0:
256,192,132798,1,8,0:0:0:0:
256,192,133212,1,0,0:0:0:0:
256,192,134040,1,8,0:0:0:0:
256,192,134454,1,8,0:0:0:0:
256,192,134867,1,0,0:0:0:0:
256,192,135695,1,8,0:0:0:0:
256,192,137350,1,0,0:0:0:0:
256,192,137764,1,8,0:0:0:0:
256,192,138178,1,0,0:0:0:0:
256,192,139005,1,8,0:0:0:0:
256,192,139419,1,8,0:0:0:0:
256,192,139833,1,0,0:0:0:0:
256,192,140660,1,8,0:0:0:0:
256,192,141488,1,0,0:0:0:0:
256,192,141902,1,8,0:0:0:0:
256,192,144798,5,4,0:0:0:0:
256,192,145626,1,8,0:0:0:0:
256,192,146454,1,8,0:0:0:0:
256,192,147281,1,8,0:0:0:0:
256,192,147695,1,8,0:0:0:0:
256,192,148109,1,0,0:0:0:0:
256,192,148936,1,8,0:0:0:0:
256,192,149764,1,0,0:0:0:0:
256,192,150592,1,8,0:0:0:0:
256,192,151419,1,0,0:0:0:0:
256,192,152247,1,8,0:0:0:0:
256,192,153074,1,8,0:0:0:0:
256,192,153902,1,8,0:0:0:0:
256,192,154316,1,8,0:0:0:0:
256,192,154729,1,0,0:0:0:0:
256,192,155557,1,8,0:0:0:0:
256,192,156385,1,8,0:0:0:0:
256,192,157212,1,8,0:0:0:0:
256,192,157626,1,8,0:0:0:0:
256,192,158040,1,0,0:0:0:0:
