osu file format v14

[General]
AudioFilename: cytus-kiryu-the-last-illusion.mp3
AudioLeadIn: 0
PreviewTime: 24409
Countdown: 0
SampleSet: Soft
StackLeniency: 0.7
Mode: 0
LetterboxInBreaks: 0
WidescreenStoryboard: 1

[Editor]
DistanceSpacing: 1
BeatDivisor: 4
GridSize: 32
TimelineZoom: 1.5

[Metadata]
Title:The Last Illusion
TitleUnicode:The Last Illusion
Artist:Kiryu
ArtistUnicode:桐生
Creator:AzureDoctor
Version:Normal
Source:Cytus
Tags:rayark ios android chapter 7 loom
BeatmapID:1134277
BeatmapSetID:534073

[Difficulty]
HPDrainRate:5
CircleSize:4
OverallDifficulty:5
ApproachRate:6
SliderMultiplier:1.6
SliderTickRate:1

[Events]
//Background and Video events
0,0,"the last.png",0,0
//Break Periods
2,1427,3586
2,53927,59040
//Storyboard Layer 0 (Background)
//Storyboard Layer 1 (Fail)
//Storyboard Layer 2 (Pass)
//Storyboard Layer 3 (Foreground)
//Storyboard Sound Samples

[TimingPoints]
1000,454.545454545455,4,2,0,80,1,0
60090,-100,4,2,0,80,0,0
65999,-100,4,2,0,80,0,0
82818,-100,4,2,0,80,0,1
97250,-100,4,2,0,80,0,0
97363,-100,4,2,0,80,0,1
111795,-100,4,2,0,80,0,0
111909,-100,4,2,0,80,0,1
125545,-100,4,2,0,80,0,0

[Colours]
Combo1 : 128,0,255
Combo2 : 37,179,233
Combo3 : 196,15,91
Combo4 : 28,255,164

[HitObjects]
139,131,1000,6,0,L|158:240,1,80,6|0,0:0|0:0,0:0:0:0:
152,209,4636,6,0,P|125:272|146:332,2,120,2|0|0,0:0|0:0|0:0,0:0:0:0:
207,151,5545,2,0,P|234:88|213:28,2,120,2|0|0,0:0|0:0|0:0,0:0:0:0:
230,227,6454,2,0,L|389:199,2,160
71,251,7818,1,0,0:0:0:0:
131,103,8272,6,0,P|202:64|285:88,1,160,6|0,0:0|0:0,0:0:0:0:
336,133,8954,1,0,0:0:0:0:
364,207,9181,2,0,L|383:348,2,120,2|0|0,0:0|0:0|0:0,0:0:0:0:
297,252,10090,2,0,P|226:291|143:267,1,160
92,222,10772,1,0,0:0:0:0:
64,148,10999,2,0,L|45:7,2,120,2|0|0,0:0|0:0|0:0,0:0:0:0:
143,162,11909,6,0,B|133:89|133:89|165:25,2,120
222,175,12818,2,0,B|232:248|232:248|200:312,2,120,2|0|0,0:0|0:0|0:0,0:0:0:0:
280,119,13727,2,0,P|370:142|430:93,1,160
479,51,14409,1,0,0:0:0:0:
504,126,14636,2,0,L|521:214,1,80,2|0,0:0|0:0,0:0:0:0:
448,242,15090,2,0,L|432:320,1,80
352,328,15545,6,0,B|255:351|255:351|181:325,1,160,6|0,0:0|0:0,0:0:0:0:
125,296,16227,1,0,0:0:0:0:
99,220,16454,2,0,P|81:148|123:95,2,120,2|0|0,0:0|0:0|0:0,0:0:0:0:
159,166,17363,2,0,B|256:143|256:143|330:169,1,160
386,198,18045,1,0,0:0:0:0:
412,274,18272,2,0,P|429:342|385:401,2,120,2|0|0,0:0|0:0|0:0,0:0:0:0:
352,328,19181,6,0,P|286:353|241:337,2,120
291,274,20090,2,0,P|319:220|301:163,2,120,2|0|0,0:0|0:0|0:0,0:0:0:0:
238,213,21000,2,0,B|143:224|143:224|105:180|63:197,1,160
77,270,21681,1,0,0:0:0:0:
11,224,21909,2,0,P|7:177|34:129,1,80,2|0,0:0|0:0,0:0:0:0:
88,108,22363,2,0,P|135:112|183:85,1,80
236,64,22818,1,4,0:0:0:0:
276,320,24409,5,0,0:0:0:0:
276,320,24636,2,0,P|215:337|141:300,2,120,6|0|0,0:0|0:0|0:0,0:0:0:0:
326,257,25545,2,0,L|331:166,1,80
333,96,26000,1,8,0:0:0:0:
178,53,26454,2,0,P|134:46|43:119,1,160,2|0,0:0|0:0,0:0:0:0:
11,181,27136,1,0,0:0:0:0:
90,184,27363,2,0,P|134:191|225:118,1,160,0|8,0:0|0:0,0:0:0:0:
366,57,28272,6,0,B|519:80,2,120,2|0|0,0:0|0:0|0:0,0:0:0:0:
322,130,29181,2,0,P|306:199|372:263,1,160,0|8,0:0|0:0,0:0:0:0:
384,182,29863,1,0,0:0:0:0:
322,130,30090,6,0,B|475:153,2,120,2|0|0,0:0|0:0|0:0,0:0:0:0:
243,146,31000,2,0,L|78:172,1,160
206,275,31909,6,0,P|255:333|358:312,1,160,2|0,0:0|0:0,0:0:0:0:
409,305,32590,1,0,0:0:0:0:
424,226,32818,2,0,L|414:142,1,80
345,107,33272,2,0,L|355:23,1,80,8|0,0:0|0:0,0:0:0:0:
275,16,33727,2,0,L|127:36,2,120,2|0|0,0:0|0:0|0:0,0:0:0:0:
354,27,34636,2,0,P|327:91|374:165,1,160,0|8,0:0|0:0,0:0:0:0:
451,158,35318,1,0,0:0:0:0:
412,87,35545,6,0,L|238:112,1,160,2|0,0:0|0:0,0:0:0:0:
182,72,36227,2,0,P|175:131|250:190,1,160
327,190,36909,1,8,0:0:0:0:
315,349,37363,6,0,B|212:317|212:317|155:358,1,160,2|0,0:0|0:0,0:0:0:0:
108,295,38045,2,0,B|138:252|138:252|106:149,1,160
141,77,38727,2,0,L|223:47,1,80,8|0,0:0|0:0,0:0:0:0:
296,50,39181,6,0,P|302:99|349:146,1,80,6|0,0:0|0:0,0:0:0:0:
394,144,39636,1,0,0:0:0:0:
383,64,39863,2,0,L|221:130,1,160
162,158,40545,1,8,0:0:0:0:
97,304,41000,2,0,B|197:333|197:333|251:309,1,160,2|0,0:0|0:0,0:0:0:0:
324,287,41681,1,0,0:0:0:0:
336,207,41909,2,0,B|236:178|236:178|182:202,1,160,0|8,0:0|0:0,0:0:0:0:
35,258,42818,6,0,L|27:107,2,120,2|0|0,0:0|0:0|0:0,0:0:0:0:
19,336,43727,2,0,P|97:297|180:322,1,160,0|8,0:0|0:0,0:0:0:0:
238,343,44409,1,0,0:0:0:0:
307,303,44636,2,0,P|344:222|311:147,1,160,2|0,0:0|0:0,0:0:0:0:
193,62,45545,2,0,P|156:143|189:218,1,160,8|0,0:0|0:0,0:0:0:0:
289,321,46454,6,0,L|398:346,1,80,6|0,0:0|0:0,0:0:0:0:
441,309,46909,1,0,0:0:0:0:
441,309,47136,2,0,P|479:240|445:142,1,160
414,99,47818,2,0,L|305:74,1,80,8|0,0:0|0:0,0:0:0:0:
258,63,48272,2,0,P|197:87|130:47,2,120,2|0|0,0:0|0:0|0:0,0:0:0:0:
336,80,49181,2,0,P|397:56|464:96,2,120,8|0|0,0:0|0:0|0:0,0:0:0:0:
394,136,50090,6,0,P|410:212|372:281,1,160,2|0,0:0|0:0,0:0:0:0:
298,312,50772,2,0,P|221:295|152:333,1,160
76,359,51454,1,8,0:0:0:0:
8,213,51909,2,0,B|78:186|147:214|147:214|109:146|169:100,1,240,2|0,0:0|0:0,0:0:0:0:
212,167,52818,2,0,P|261:155|302:164,1,80
336,224,53272,2,0,P|287:236|246:227,1,80,8|0,0:0|0:0,0:0:0:0:
194,280,53727,1,6,0:0:0:0:
318,104,60090,6,0,P|384:80|438:111,2,120
241,128,61000,2,0,B|172:163|92:141|92:141|115:207|80:251,1,240,2|0,0:0|0:0,0:0:0:0:
152,281,61909,2,0,P|86:305|32:274,2,120
229,300,62818,2,0,B|265:254|352:255|352:255|342:204|342:204|411:200|448:121,1,320,2|0,0:0|0:0,0:0:0:0:
424,52,63954,1,0,0:0:0:0:
347,28,64181,2,0,L|262:42,1,80
197,78,64636,6,0,B|102:97|102:97|39:86|39:86|15:155|15:155|118:177,1,320,2|0,0:0|0:0,0:0:0:0:
162,320,66000,2,0,L|265:300,1,80
318,287,66454,2,0,P|330:244|308:189,1,80,2|0,0:0|0:0,0:0:0:0:
242,214,66909,2,0,P|230:171|252:116,1,80
301,89,67363,2,0,P|344:77|399:99,2,80,0|0|8,0:0|0:0|0:0,0:0:0:0:
227,57,68045,1,0,0:0:0:0:
154,89,68272,6,0,P|111:77|56:99,1,80,6|0,0:0|0:0,0:0:0:0:
37,154,68727,2,0,B|28:256|28:256|65:315,1,160
130,340,69409,1,0,0:0:0:0:
152,263,69636,2,0,L|162:159,1,80,8|0,0:0|0:0,0:0:0:0:
233,152,70090,2,0,P|270:141|328:157,1,80,2|0,0:0|0:0,0:0:0:0:
277,221,70545,1,0,0:0:0:0:
356,212,70772,2,0,P|389:167|328:73,1,160
276,48,71454,2,0,L|197:65,1,80,8|0,0:0|0:0,0:0:0:0:
118,79,71909,6,0,P|76:143|111:210,1,160,2|0,0:0|0:0,0:0:0:0:
82,285,72590,2,0,P|146:243|213:278,1,160
263,341,73272,1,8,0:0:0:0:
336,198,73727,2,0,L|441:165,1,80,2|0,0:0|0:0,0:0:0:0:
489,153,74181,1,0,0:0:0:0:
474,74,74409,2,0,P|436:26|343:31,1,160
276,73,75090,2,0,L|174:106,1,80,8|0,0:0|0:0,0:0:0:0:
141,152,75545,6,0,P|120:104|125:61,2,80,2|0|0,0:0|0:0|0:0,0:0:0:0:
143,232,76227,2,0,B|154:333|154:333|198:372,1,160,4|0,0:0|0:0,0:0:0:0:
277,375,76909,2,0,L|374:363,1,80,8|0,0:0|0:0,0:0:0:0:
419,316,77363,2,0,L|535:331,2,80,2|0|0,0:0|0:0|0:0,0:0:0:0:
420,235,78045,2,0,P|459:146|407:81,1,160
365,51,78727,1,8,0:0:0:0:
253,165,79181,5,0,0:0:0:0:
172,170,79409,2,0,P|201:228|288:239,1,160
368,234,80090,2,0,L|372:145,1,80
444,120,80545,2,0,L|447:13,1,80,8|0,0:0|0:0,0:0:0:0:
367,57,81000,2,4,B|325:37|325:37|291:36|291:36|236:11,2,120
175,267,82363,6,0,P|150:217|152:182,1,80
114,121,82818,2,0,P|188:163|276:132,1,160,6|0,0:0|0:0,0:0:0:0:
327,107,83500,1,0,0:0:0:0:
380,166,83727,2,0,L|403:274,1,80,8|0,0:0|0:0,0:0:0:0:
320,267,84181,2,0,L|297:375,1,80
223,354,84636,2,0,B|150:362|150:362|92:322,2,120,2|0|0,0:0|0:0|0:0,0:0:0:0:
303,345,85545,2,0,P|354:341|395:311,1,80,8|0,0:0|0:0,0:0:0:0:
436,271,86000,1,0,0:0:0:0:
438,191,86227,1,0,0:0:0:0:
382,133,86454,6,2,P|310:75|234:101,1,160,2|0,0:0|0:0,0:0:0:0:
219,162,87136,1,0,0:0:0:0:
299,161,87363,2,0,L|381:294,2,120,8|0|0,0:0|0:0|0:0,0:0:0:0:
219,162,88272,2,0,L|137:29,2,120,2|0|0,0:0|0:0|0:0,0:0:0:0:
146,195,89181,2,0,P|105:203|40:180,1,80,8|0,0:0|0:0,0:0:0:0:
41,120,89636,1,0,0:0:0:0:
104,70,89863,1,0,0:0:0:0:
173,110,90090,6,0,P|214:102|279:125,1,80,6|0,0:0|0:0,0:0:0:0:
328,84,90545,2,0,P|291:152|319:227,1,160,0|8,0:0|0:0,0:0:0:0:
356,296,91227,1,0,0:0:0:0:
294,345,91454,2,0,P|254:352|215:344,1,80
136,337,91909,2,0,B|111:259|111:259|119:195,2,120,2|0|0,0:0|0:0|0:0,0:0:0:0:
216,344,92818,2,0,L|192:261,1,80,8|0,0:0|0:0,0:0:0:0:
232,196,93272,1,0,0:0:0:0:
197,123,93500,1,0,0:0:0:0:
253,66,93727,6,0,B|325:66|325:66|365:43|397:58|440:86,1,160,2|0,0:0|0:0,0:0:0:0:
446,137,94409,1,0,0:0:0:0:
366,136,94636,2,0,P|399:189|368:264,2,120,8|0|0,0:0|0:0|0:0,0:0:0:0:
285,131,95545,2,0,P|252:78|283:3,2,120,2|0|0,0:0|0:0|0:0,0:0:0:0:
324,200,96454,2,0,P|290:221|250:225,1,80,8|0,0:0|0:0,0:0:0:0:
200,287,96909,1,0,0:0:0:0:
131,327,97136,1,0,0:0:0:0:
107,251,97363,6,0,P|181:209|269:240,1,160,6|0,0:0|0:0,0:0:0:0:
320,265,98045,1,0,0:0:0:0:
373,206,98272,2,0,L|396:98,1,80,8|0,0:0|0:0,0:0:0:0:
313,105,98726,2,0,L|290:-3,1,80
216,18,99181,2,0,B|143:10|143:10|85:50,2,120,2|0|0,0:0|0:0|0:0,0:0:0:0:
296,27,100090,2,0,P|347:31|388:61,1,80,8|0,0:0|0:0,0:0:0:0:
429,101,100545,1,0,0:0:0:0:
431,181,100772,1,0,0:0:0:0:
375,239,100999,6,2,P|303:297|227:271,1,160,2|0,0:0|0:0,0:0:0:0:
212,210,101681,1,0,0:0:0:0:
292,211,101908,2,0,L|374:78,2,120,8|0|0,0:0|0:0|0:0,0:0:0:0:
211,212,102818,2,0,L|144:323,2,120,2|0|0,0:0|0:0|0:0,0:0:0:0:
139,177,103726,2,0,P|98:169|33:192,1,80,8|0,0:0|0:0,0:0:0:0:
34,252,104181,1,0,0:0:0:0:
97,302,104408,1,0,0:0:0:0:
166,262,104635,6,0,P|207:270|272:247,1,80,6|0,0:0|0:0,0:0:0:0:
321,288,105090,2,0,P|284:220|312:145,1,160,0|8,0:0|0:0,0:0:0:0:
349,76,105772,1,0,0:0:0:0:
287,27,105999,2,0,P|247:20|208:28,1,80
129,35,106454,2,0,B|104:113|104:113|112:177,2,120,2|0|0,0:0|0:0|0:0,0:0:0:0:
209,28,107363,2,0,L|185:111,1,80,8|0,0:0|0:0,0:0:0:0:
225,176,107817,1,0,0:0:0:0:
190,249,108045,1,0,0:0:0:0:
246,306,108272,6,0,B|318:306|318:306|358:329|390:314|433:286,1,160,2|0,0:0|0:0,0:0:0:0:
439,235,108954,1,0,0:0:0:0:
359,236,109181,2,0,P|392:183|361:108,2,120,8|0|0,0:0|0:0|0:0,0:0:0:0:
280,253,110090,2,4,P|247:306|278:381,2,120
233,187,110999,2,0,L|211:89,1,80
150,62,111454,1,0,0:0:0:0:
75,91,111681,1,0,0:0:0:0:
61,170,111909,6,0,L|88:275,1,80,6|0,0:0|0:0,0:0:0:0:
160,250,112363,2,0,L|179:172,1,80
259,174,112818,2,0,L|278:252,1,80,8|0,0:0|0:0,0:0:0:0:
357,248,113272,2,0,L|383:146,1,80
376,90,113727,2,0,P|317:39|256:31,2,120,2|0|0,0:0|0:0|0:0,0:0:0:0:
448,125,114636,2,0,P|468:164|465:208,1,80,8|0,0:0|0:0,0:0:0:0:
398,238,115090,2,0,P|398:277|417:312,1,80
474,368,115545,6,0,P|404:335|307:364,1,160,2|0,0:0|0:0,0:0:0:0:
246,364,116227,1,0,0:0:0:0:
172,332,116454,2,0,B|101:288|101:288|81:229,2,120,8|0|0,0:0|0:0|0:0,0:0:0:0:
231,277,117363,2,0,B|302:321|302:321|322:380,2,120,2|0|0,0:0|0:0|0:0,0:0:0:0:
172,221,118272,2,0,L|148:131,1,80,8|0,0:0|0:0,0:0:0:0:
175,67,118727,1,0,0:0:0:0:
244,27,118954,1,0,0:0:0:0:
315,62,119181,6,0,P|365:84|410:78,1,80,6|0,0:0|0:0,0:0:0:0:
445,140,119636,2,0,P|395:162|350:156,1,80
315,219,120090,2,0,P|365:241|410:235,1,80,8|0,0:0|0:0,0:0:0:0:
446,297,120545,2,0,P|396:319|351:313,1,80
291,311,121000,2,0,L|163:352,2,120,2|0|0,0:0|0:0|0:0,0:0:0:0:
334,243,121909,2,0,L|347:154,1,80,8|0,0:0|0:0,0:0:0:0:
418,130,122363,2,0,L|405:41,1,80
327,35,122818,6,0,P|221:33|194:106,1,160,2|0,0:0|0:0,0:0:0:0:
273,94,123500,1,0,0:0:0:0:
253,171,123727,2,0,L|218:294,2,120,8|0|0,0:0|0:0|0:0,0:0:0:0:
369,201,124636,2,0,P|407:175|423:74,2,120
131,281,126454,6,0,P|202:320|285:296,1,160,6|0,0:0|0:0,0:0:0:0:
336,251,127136,1,0,0:0:0:0:
364,177,127363,2,0,L|383:36,2,120,2|0|0,0:0|0:0|0:0,0:0:0:0:
297,132,128272,2,0,P|226:93|143:117,1,160
92,162,128954,1,0,0:0:0:0:
64,236,129181,2,0,L|45:377,2,120,2|0|0,0:0|0:0|0:0,0:0:0:0:
143,222,130090,6,0,B|133:295|133:295|165:359,2,120
222,209,131000,2,0,B|232:136|232:136|200:72,2,120,2|0|0,0:0|0:0|0:0,0:0:0:0:
280,265,131909,2,0,P|370:242|430:291,1,160
479,333,132591,1,0,0:0:0:0:
504,258,132818,2,0,L|521:170,1,80,2|0,0:0|0:0,0:0:0:0:
448,142,133272,2,0,L|432:64,1,80
352,56,133727,6,0,B|255:33|255:33|181:59,1,160,6|0,0:0|0:0,0:0:0:0:
125,88,134409,1,0,0:0:0:0:
99,164,134636,2,0,P|81:236|123:289,2,120,2|0|0,0:0|0:0|0:0,0:0:0:0:
159,218,135545,2,0,B|256:241|256:241|330:215,1,160
386,186,136227,1,0,0:0:0:0:
412,110,136454,2,0,P|429:42|385:-17,2,120,2|0|0,0:0|0:0|0:0,0:0:0:0:
352,56,137363,6,0,P|286:31|241:47,2,120
291,110,138272,2,0,P|319:164|301:221,2,120,2|0|0,0:0|0:0|0:0,0:0:0:0:
238,171,139182,2,0,B|143:160|143:160|105:204|63:187,1,160
77,114,139863,1,0,0:0:0:0:
11,160,140091,2,0,P|7:207|34:255,1,80,2|0,0:0|0:0,0:0:0:0:
88,276,140545,2,0,P|135:272|183:299,1,80
236,320,141000,1,4,0:0:0:0:
256,192,141227,12,0,143386,0:0:0:0:
