osu file format v14

[General]
AudioFilename: cytus-kiryu-the-last-illusion.mp3
AudioLeadIn: 0
PreviewTime: 24409
Countdown: 0
SampleSet: Soft
StackLeniency: 0.4
Mode: 0
LetterboxInBreaks: 0
WidescreenStoryboard: 0

[Editor]
DistanceSpacing: 1
BeatDivisor: 4
GridSize: 32
TimelineZoom: 1.7

[Metadata]
Title:The Last Illusion
TitleUnicode:The Last Illusion
Artist:Kiryu
ArtistUnicode:桐生
Creator:AzureDoctor
Version:Hard
Source:Cytus
Tags:rayark ios android chapter 7 loom
BeatmapID:1183832
BeatmapSetID:534073

[Difficulty]
HPDrainRate:5
CircleSize:4
OverallDifficulty:6
ApproachRate:7
SliderMultiplier:1.8
SliderTickRate:1

[Events]
//Background and Video events
0,0,"the last.png",0,0
//Break Periods
2,1427,3736
2,53927,59190
//Storyboard Layer 0 (Background)
//Storyboard Layer 1 (Fail)
//Storyboard Layer 2 (Pass)
//Storyboard Layer 3 (Foreground)
//Storyboard Sound Samples

[TimingPoints]
1000,454.545454545455,4,2,0,80,1,0
60090,-133.333333333333,4,2,0,80,0,0
65999,-100,4,2,0,80,0,0
82818,-83.3333333333333,4,2,0,80,0,1
97250,-83.3333333333333,4,2,0,80,0,0
97363,-83.3333333333333,4,2,0,80,0,1
111795,-83.3333333333333,4,2,0,80,0,0
111909,-83.3333333333333,4,2,0,80,0,1
125545,-100,4,2,0,80,0,0

[Colours]
Combo1 : 155,0,155
Combo2 : 37,179,233
Combo3 : 219,17,103
Combo4 : 28,255,164

[HitObjects]
139,131,1000,6,0,L|156:233,1,90,6|0,0:0|0:0,0:0:0:0:
359,165,4636,6,0,P|384:113|357:24,2,135,2|0|0,0:0|0:0|0:0,0:0:0:0:
290,223,5545,2,0,P|265:275|292:364,2,135,2|0|0,0:0|0:0|0:0,0:0:0:0:
235,99,6454,6,0,L|163:48,2,60
252,156,6909,2,0,L|205:231,2,60
290,110,7363,2,0,L|398:85,2,90
500,279,8272,6,0,L|376:310,1,90,6|0,0:0|0:0,0:0:0:0:
326,327,8727,1,0,0:0:0:0:
260,265,8954,2,0,L|364:241,1,90,0|2,0:0|0:0,0:0:0:0:
391,234,9295,1,0,0:0:0:0:
434,221,9409,2,0,P|409:168|418:125,1,90
470,69,9863,1,0,0:0:0:0:
326,59,10090,6,0,P|278:27|194:47,2,135
271,132,11000,1,2,0:0:0:0:
271,132,11113,1,0,0:0:0:0:
271,132,11227,2,0,P|303:170|302:226,1,90
277,293,11681,1,0,0:0:0:0:
150,363,11909,6,0,L|154:228,1,135
170,186,12363,1,0,0:0:0:0:
217,109,12590,1,0,0:0:0:0:
295,64,12818,2,0,L|293:20,2,45,2|0|0,0:0|0:0|0:0,0:0:0:0:
379,95,13272,2,0,P|423:84|465:93,1,90
360,192,13727,6,0,L|364:292,1,90
352,312,14068,1,0,0:0:0:0:
324,340,14181,2,0,P|276:352|216:324,1,90
129,233,14636,1,2,0:0:0:0:
268,263,14863,1,0,0:0:0:0:
149,321,15090,1,0,0:0:0:0:
210,195,15318,1,0,0:0:0:0:
321,103,15545,6,0,P|265:66|170:71,1,135,6|0,0:0|0:0,0:0:0:0:
157,80,16000,1,0,0:0:0:0:
104,152,16227,2,0,L|72:260,1,90,0|2,0:0|0:0,0:0:0:0:
67,282,16568,1,0,0:0:0:0:
63,324,16681,2,0,P|105:353|159:351,1,90
232,344,17136,1,0,0:0:0:0:
375,354,17363,6,0,P|454:346|495:309,2,135
408,260,18272,1,2,0:0:0:0:
408,260,18386,1,0,0:0:0:0:
408,260,18500,2,0,L|448:164,1,90
480,85,18954,1,0,0:0:0:0:
351,25,19181,6,0,P|287:39|251:109,1,135
243,139,19636,1,0,0:0:0:0:
181,204,19863,1,0,0:0:0:0:
92,220,20090,2,0,L|52:184,2,45,2|0|0,0:0|0:0|0:0,0:0:0:0:
118,306,20545,2,0,L|226:289,1,90
334,223,21000,6,0,L|245:209,1,90
200,202,21340,1,0,0:0:0:0:
155,194,21454,2,0,P|161:149|144:108,1,90
216,53,21909,1,2,0:0:0:0:
305,49,22136,1,0,0:0:0:0:
385,89,22363,1,0,0:0:0:0:
448,218,22590,1,0,0:0:0:0:
448,218,22704,1,0,0:0:0:0:
448,218,22818,6,4,B|392:214|392:214|384:226|384:226|320:222,1,135
112,286,23500,2,4,B|168:290|168:290|176:278|176:278|240:282,1,135
265,107,24409,5,0,0:0:0:0:
265,107,24636,2,0,P|237:155|254:229,2,135,6|0|0,0:0|0:0|0:0,0:0:0:0:
323,175,25545,2,0,P|370:188|418:177,1,90
481,235,26000,2,0,P|500:178|463:108,1,135,8|0,0:0|0:0,0:0:0:0:
415,65,26454,6,0,B|289:58|289:58|235:85,1,180,2|0,0:0|0:0,0:0:0:0:
163,124,27136,1,0,0:0:0:0:
118,201,27363,2,0,P|167:213|222:192,1,90
288,236,27818,1,8,0:0:0:0:
416,171,28045,5,0,0:0:0:0:
416,171,28159,1,0,0:0:0:0:
416,171,28272,2,0,L|368:87,1,90,2|0,0:0|0:0,0:0:0:0:
346,55,28613,1,0,0:0:0:0:
211,40,28954,1,0,0:0:0:0:
211,40,29181,2,0,L|255:124,1,90
245,209,29636,1,8,0:0:0:0:
186,277,29863,1,0,0:0:0:0:
315,339,30090,6,0,P|387:331|423:283,2,135,2|0|0,0:0|0:0|0:0,0:0:0:0:
243,282,31000,1,0,0:0:0:0:
243,282,31227,1,0,0:0:0:0:
193,206,31454,2,0,L|185:162,3,45,8|0|0|0,0:0|0:0|0:0|0:0,0:0:0:0:
221,98,31909,6,0,P|289:79|368:108,2,135,2|0|0,0:0|0:0|0:0,0:0:0:0:
136,65,32818,2,0,P|136:121|164:161,1,90
189,231,33272,2,0,L|200:290,3,45,8|0|0|0,0:0|0:0|0:0|0:0,0:0:0:0:
234,338,33727,6,0,P|286:330|326:346,1,90,2|0,0:0|0:0,0:0:0:0:
350,350,34068,1,0,0:0:0:0:
403,226,34409,1,0,0:0:0:0:
403,226,34636,2,0,P|471:177|502:80,1,180,0|8,0:0|0:0,0:0:0:0:
357,90,35318,5,0,0:0:0:0:
357,90,35431,1,0,0:0:0:0:
357,90,35545,2,0,L|221:137,2,135,2|0|0,0:0|0:0|0:0,0:0:0:0:
362,180,36454,2,0,L|247:220,1,90
229,134,36909,2,0,P|165:106|109:126,1,90,8|0,0:0|0:0,0:0:0:0:
3,96,37363,6,0,P|-1:136|39:192,1,90,2|0,0:0|0:0,0:0:0:0:
43,218,37704,1,0,0:0:0:0:
228,328,38045,2,0,P|232:288|192:232,1,90,0|0,0:0|0:0,0:0:0:0:
180,210,38386,1,0,0:0:0:0:
317,43,38727,2,0,L|360:109,3,45,8|0|0|0,0:0|0:0|0:0|0:0,0:0:0:0:
384,140,39181,6,0,P|451:166|472:247,2,135,6|0|0,0:0|0:0|0:0,0:0:0:0:
387,230,40090,2,0,P|339:250|291:242,1,90
212,232,40545,1,8,0:0:0:0:
212,232,40659,1,0,0:0:0:0:
212,232,40772,1,0,0:0:0:0:
330,149,41000,6,0,P|354:245|297:348,1,180,2|0,0:0|0:0,0:0:0:0:
244,355,41681,1,0,0:0:0:0:
160,319,41909,2,0,P|133:256|134:211,1,90
148,147,42363,1,8,0:0:0:0:
257,53,42590,5,0,0:0:0:0:
257,53,42704,1,0,0:0:0:0:
257,53,42818,2,0,L|354:71,1,90,2|0,0:0|0:0,0:0:0:0:
389,77,43159,1,0,0:0:0:0:
460,191,43500,1,0,0:0:0:0:
460,191,43727,2,0,L|364:168,1,90
285,147,44181,1,8,0:0:0:0:
333,283,44409,5,0,0:0:0:0:
333,283,44522,1,0,0:0:0:0:
333,283,44636,2,0,P|409:300|478:264,2,135,2|0|0,0:0|0:0|0:0,0:0:0:0:
250,319,45545,1,0,0:0:0:0:
173,272,45772,1,0,0:0:0:0:
100,218,46000,2,0,L|108:174,3,45,8|0|0|0,0:0|0:0|0:0|0:0,0:0:0:0:
102,101,46454,6,0,P|62:71|-19:75,2,135,6|0|0,0:0|0:0|0:0,0:0:0:0:
174,46,47363,2,0,P|194:90|174:150,1,90
179,219,47818,2,0,L|175:275,3,45,8|0|0|0,0:0|0:0|0:0|0:0,0:0:0:0:
203,330,48272,6,0,P|247:318|303:330,1,90,2|0,0:0|0:0,0:0:0:0:
334,335,48613,1,0,0:0:0:0:
455,275,48954,1,0,0:0:0:0:
431,188,49181,2,0,P|457:125|444:50,2,135
291,226,50090,6,0,P|228:200|153:213,2,135,2|0|0,0:0|0:0|0:0,0:0:0:0:
367,275,51000,2,0,L|374:168,1,90
341,100,51454,1,8,0:0:0:0:
257,66,51681,1,0,0:0:0:0:
132,138,51909,6,0,P|116:186|136:242,1,90,2|0,0:0|0:0,0:0:0:0:
141,264,52250,1,0,0:0:0:0:
241,353,52590,2,0,P|267:305|263:229,1,90
271,225,52931,1,0,0:0:0:0:
271,225,53045,1,0,0:0:0:0:
244,83,53272,1,8,0:0:0:0:
369,11,53500,1,0,0:0:0:0:
369,154,53727,1,6,0:0:0:0:
143,230,60090,6,0,P|190:255|246:248,2,101.250003862381
213,146,61000,2,0,B|241:118|289:126|289:126|321:146|321:146|357:130|415:141,1,202.500007724762,2|0,0:0|0:0,0:0:0:0:
446,207,61909,2,0,P|477:168|480:118,2,101.250003862381
350,258,62818,6,0,B|266:274|207:238|207:238|276:240|289:155,1,270.000010299683,2|0,0:0|0:0,0:0:0:0:
297,82,63954,2,0,P|230:105|209:173,1,135.000005149842
258,256,64636,6,0,B|194:284|130:256|130:256|94:284|94:284|34:260|40:201,1,270.000010299683,2|0,0:0|0:0,0:0:0:0:
291,75,66000,6,0,L|324:10,3,45
356,40,66454,2,0,L|392:5,3,45,2|0|0|0,0:0|0:0|0:0|0:0,0:0:0:0:
426,35,66909,2,0,L|481:19,3,45
509,83,67363,6,0,L|513:187,1,90,0|0,0:0|0:0,0:0:0:0:
497,199,67704,1,0,0:0:0:0:
477,235,67818,2,0,L|413:247,3,45,8|0|0|0,0:0|0:0|0:0|0:0,0:0:0:0:
379,194,68272,6,0,P|343:214|279:210,1,90,6|0,0:0|0:0,0:0:0:0:
319,128,68727,2,0,L|364:305,1,180
297,364,69409,1,0,0:0:0:0:
270,278,69636,2,0,L|242:190,1,90,8|0,0:0|0:0,0:0:0:0:
193,56,70090,6,0,P|130:118|44:96,1,180,2|0,0:0|0:0,0:0:0:0:
107,31,70772,2,0,P|139:115|82:184,1,180
3,209,71454,2,0,P|31:251|68:266,1,90,8|0,0:0|0:0,0:0:0:0:
209,286,71909,6,0,B|297:262|289:186|289:186|322:254|411:234,2,270,2|0|8,0:0|0:0|0:0,0:0:0:0:
101,18,73727,6,0,L|186:189,1,180,2|0,0:0|0:0,0:0:0:0:
191,268,74409,2,0,B|243:265|267:212|267:212|311:220|335:264,1,180
393,320,75090,1,8,0:0:0:0:
393,320,75204,1,0,0:0:0:0:
393,320,75318,1,0,0:0:0:0:
419,234,75545,6,0,P|456:264|471:310,2,90,2|0|0,0:0|0:0|0:0,0:0:0:0:
347,108,76227,2,0,P|287:52|200:80,1,180,4|0,0:0|0:0,0:0:0:0:
138,152,76909,1,8,0:0:0:0:
138,152,77022,1,0,0:0:0:0:
138,152,77136,1,0,0:0:0:0:
265,219,77363,6,0,P|277:179|265:131,2,90,2|0|0,0:0|0:0|0:0,0:0:0:0:
186,263,78045,2,0,P|235:305|338:269,1,180
359,184,78727,2,0,P|347:144|359:96,1,90,8|0,0:0|0:0,0:0:0:0:
230,165,79181,6,0,L|185:263,1,90,2|0,0:0|0:0,0:0:0:0:
200,336,79636,1,0,0:0:0:0:
200,336,79750,1,0,0:0:0:0:
200,336,79863,1,0,0:0:0:0:
287,315,80090,2,0,P|337:320|378:303,1,90
412,225,80545,2,0,P|361:219|320:236,1,90,8|0,0:0|0:0,0:0:0:0:
257,246,80886,1,0,0:0:0:0:
257,246,81000,2,0,B|235:190|235:190|218:185|218:185|192:118,2,135,4|4|4,0:0|0:0|0:0,0:0:0:0:
436,44,82363,5,0,0:0:0:0:
436,44,82477,1,0,0:0:0:0:
436,44,82590,1,0,0:0:0:0:
436,44,82704,1,0,0:0:0:0:
436,44,82818,2,0,L|411:162,1,107.999996704102,6|0,0:0|0:0,0:0:0:0:
340,229,83272,2,0,L|315:111,1,107.999996704102
295,17,83727,1,8,0:0:0:0:
295,17,83840,1,0,0:0:0:0:
295,17,83954,1,0,0:0:0:0:
189,37,84181,2,0,L|113:57,3,53.9999983520508
106,132,84636,6,0,P|36:171|20:261,2,161.999995056153,2|0|0,0:0|0:0|0:0,0:0:0:0:
123,238,85545,2,0,L|228:291,1,107.999996704102,8|0,0:0|0:0,0:0:0:0:
267,310,85886,1,0,0:0:0:0:
267,310,86000,2,0,L|347:350,3,53.9999983520508
392,295,86454,6,0,P|432:267|460:211,1,107.999996704102,2|0,0:0|0:0,0:0:0:0:
460,161,86795,1,0,0:0:0:0:
345,45,87136,1,0,0:0:0:0:
339,152,87363,2,0,B|295:188|295:188|183:192,2,161.999995056153,8|0|0,0:0|0:0|0:0,0:0:0:0:
345,45,88272,2,0,B|301:9|301:9|189:5,2,161.999995056153,2|0|0,0:0|0:0|0:0,0:0:0:0:
253,103,89181,2,0,L|145:103,1,107.999996704102,8|0,0:0|0:0,0:0:0:0:
93,118,89522,1,0,0:0:0:0:
93,118,89636,2,0,L|39:176,3,53.9999983520508
76,241,90090,6,0,P|60:293|76:349,1,107.999996704102,6|0,0:0|0:0,0:0:0:0:
122,365,90431,1,0,0:0:0:0:
122,365,90545,2,0,P|173:349|236:373,1,107.999996704102
329,340,91000,1,8,0:0:0:0:
329,340,91113,1,0,0:0:0:0:
329,340,91227,1,0,0:0:0:0:
395,255,91454,2,0,L|411:200,3,53.9999983520508
406,115,91909,6,0,P|346:67|240:91,2,161.999995056153,2|0|0,0:0|0:0|0:0,0:0:0:0:
314,172,92818,2,0,P|218:160|186:112,1,107.999996704102,8|0,0:0|0:0,0:0:0:0:
157,63,93272,1,0,0:0:0:0:
18,166,93500,5,0,0:0:0:0:
18,166,93613,1,0,0:0:0:0:
18,166,93727,2,0,L|44:283,1,107.999996704102,2|0,0:0|0:0,0:0:0:0:
55,323,94068,1,0,0:0:0:0:
216,333,94409,1,0,0:0:0:0:
216,333,94522,1,0,0:0:0:0:
216,333,94636,2,0,P|183:249|227:163,2,161.999995056153,8|0|0,0:0|0:0|0:0,0:0:0:0:
287,251,95545,2,0,P|309:174|276:102,2,161.999995056153,2|0|0,0:0|0:0|0:0,0:0:0:0:
319,354,96454,1,8,0:0:0:0:
319,354,96568,1,0,0:0:0:0:
76,340,96909,5,0,0:0:0:0:
76,340,97023,1,0,0:0:0:0:
76,340,97136,1,0,0:0:0:0:
76,340,97250,1,0,0:0:0:0:
76,340,97364,2,0,L|101:222,1,107.999996704102,6|0,0:0|0:0,0:0:0:0:
172,155,97818,2,0,L|197:273,1,107.999996704102
217,367,98273,1,8,0:0:0:0:
217,367,98386,1,0,0:0:0:0:
217,367,98500,1,0,0:0:0:0:
323,347,98727,2,0,L|399:327,3,53.9999983520508
406,252,99182,6,0,P|476:213|492:123,2,161.999995056153,2|0|0,0:0|0:0|0:0,0:0:0:0:
389,146,100091,2,0,L|284:93,1,107.999996704102,8|0,0:0|0:0,0:0:0:0:
245,74,100432,1,0,0:0:0:0:
245,74,100546,2,0,L|165:34,3,53.9999983520508
120,89,101000,6,0,P|80:117|52:173,1,107.999996704102,2|0,0:0|0:0,0:0:0:0:
52,223,101341,1,0,0:0:0:0:
167,339,101682,1,0,0:0:0:0:
173,232,101909,2,0,B|217:196|217:196|329:192,2,161.999995056153,8|0|0,0:0|0:0|0:0,0:0:0:0:
167,339,102818,2,0,B|211:375|211:375|323:379,2,161.999995056153,2|0|0,0:0|0:0|0:0,0:0:0:0:
259,281,103727,2,0,L|367:281,1,107.999996704102,8|0,0:0|0:0,0:0:0:0:
419,266,104068,1,0,0:0:0:0:
419,266,104182,2,0,L|473:208,3,53.9999983520508
436,143,104636,6,0,P|452:91|436:35,1,107.999996704102,6|0,0:0|0:0,0:0:0:0:
390,19,104977,1,0,0:0:0:0:
390,19,105091,2,0,P|339:35|276:11,1,107.999996704102
183,44,105546,1,8,0:0:0:0:
183,44,105659,1,0,0:0:0:0:
183,44,105773,1,0,0:0:0:0:
117,129,106000,2,0,L|101:184,3,53.9999983520508
106,269,106455,6,0,P|166:317|272:293,2,161.999995056153,2|0|0,0:0|0:0|0:0,0:0:0:0:
198,212,107364,2,0,P|294:224|326:272,1,107.999996704102,8|0,0:0|0:0,0:0:0:0:
355,321,107818,1,0,0:0:0:0:
494,218,108046,5,0,0:0:0:0:
494,218,108159,1,0,0:0:0:0:
494,218,108273,2,0,L|468:101,1,107.999996704102,2|0,0:0|0:0,0:0:0:0:
457,61,108614,1,0,0:0:0:0:
296,51,108955,1,0,0:0:0:0:
296,51,109068,1,0,0:0:0:0:
296,51,109182,2,0,P|329:135|285:221,2,161.999995056153,8|0|0,0:0|0:0|0:0,0:0:0:0:
225,133,110090,5,0,0:0:0:0:
225,133,110204,2,4,B|128:159|128:159|69:128,2,161.999995056153
232,306,111114,6,0,L|335:275,1,107.999996704102
386,258,111454,2,0,L|385:191,3,53.9999983520508
394,117,111909,6,0,P|408:64|387:13,1,107.999996704102,6|0,0:0|0:0,0:0:0:0:
299,74,112363,2,0,P|285:127|305:177,1,107.999996704102
326,281,112818,1,8,0:0:0:0:
326,281,112931,1,0,0:0:0:0:
326,281,113045,1,0,0:0:0:0:
426,242,113272,2,0,L|449:177,3,53.9999983520508
433,104,113727,6,0,P|356:49|280:62,2,161.999995056153,2|0|0,0:0|0:0|0:0,0:0:0:0:
337,155,114636,2,0,L|219:174,1,107.999996704102,8|0,0:0|0:0,0:0:0:0:
179,189,114977,1,0,0:0:0:0:
179,189,115090,2,0,L|151:258,3,53.9999983520508
93,297,115545,6,0,P|136:323|232:290,1,107.999996704102,2|0,0:0|0:0,0:0:0:0:
245,312,115886,1,0,0:0:0:0:
381,224,116227,1,0,0:0:0:0:
273,211,116454,2,0,P|286:159|246:67,1,107.999996704102,8|0,0:0|0:0,0:0:0:0:
239,65,116795,2,0,P|179:83|132:55,1,107.999996704102
36,68,117363,6,0,P|6:160|29:222,1,161.999995056153,2|0,0:0|0:0,0:0:0:0:
62,260,117818,1,0,0:0:0:0:
62,260,117931,1,0,0:0:0:0:
207,331,118272,2,0,L|279:338,3,53.9999983520508,8|0|0|0,0:0|0:0|0:0|0:0,0:0:0:0:
306,305,118727,2,0,L|371:310,3,53.9999983520508
440,277,119181,6,0,P|458:227|444:175,1,107.999996704102,6|0,0:0|0:0,0:0:0:0:
354,118,119635,2,0,P|335:167|349:219,1,107.999996704102
352,327,120090,1,8,0:0:0:0:
352,327,120203,1,0,0:0:0:0:
352,327,120317,1,0,0:0:0:0:
245,311,120544,2,0,L|165:331,3,53.9999983520508
105,327,120999,6,0,P|34:256|50:167,2,161.999995056153,2|0|0,0:0|0:0|0:0,0:0:0:0:
140,224,121908,2,0,L|158:117,1,107.999996704102,8|0,0:0|0:0,0:0:0:0:
188,73,122249,1,0,0:0:0:0:
188,73,122362,2,0,L|277:66,3,53.9999983520508
329,61,122818,6,0,P|388:158|328:245,1,215.999993408203,2|0,0:0|0:0,0:0:0:0:
251,297,123500,1,0,0:0:0:0:
251,297,123613,1,0,0:0:0:0:
251,297,123727,2,0,P|160:333|82:292,2,161.999995056153,8|0|0,0:0|0:0|0:0,0:0:0:0:
87,238,124636,5,0,0:0:0:0:
87,238,124750,2,4,B|74:168|74:168|50:149|50:149|39:84,2,161.999995056153
41,89,126454,6,0,L|165:58,1,90,6|0,0:0|0:0,0:0:0:0:
215,41,126909,1,0,0:0:0:0:
281,103,127136,2,0,L|177:127,1,90,0|2,0:0|0:0,0:0:0:0:
150,134,127477,1,0,0:0:0:0:
107,147,127591,2,0,P|132:200|123:243,1,90
71,299,128045,1,0,0:0:0:0:
215,309,128272,6,0,P|263:341|347:321,2,135
270,236,129182,1,2,0:0:0:0:
270,236,129295,1,0,0:0:0:0:
270,236,129409,2,0,P|238:198|239:142,1,90
264,75,129863,1,0,0:0:0:0:
391,5,130091,6,0,L|387:140,1,135
371,182,130545,1,0,0:0:0:0:
324,259,130772,1,0,0:0:0:0:
246,304,131000,2,0,L|248:348,2,45,2|0|0,0:0|0:0|0:0,0:0:0:0:
162,273,131454,2,0,P|118:284|76:275,1,90
181,176,131909,6,0,L|177:76,1,90
189,56,132250,1,0,0:0:0:0:
217,28,132363,2,0,P|265:16|325:44,1,90
412,135,132818,1,2,0:0:0:0:
273,105,133045,1,0,0:0:0:0:
392,47,133272,1,0,0:0:0:0:
331,173,133500,1,0,0:0:0:0:
220,265,133727,6,0,P|276:302|371:297,1,135,6|0,0:0|0:0,0:0:0:0:
384,288,134182,1,0,0:0:0:0:
437,216,134409,2,0,L|469:108,1,90,0|2,0:0|0:0,0:0:0:0:
474,86,134750,1,0,0:0:0:0:
478,44,134863,2,0,P|436:15|382:17,1,90
309,24,135318,1,0,0:0:0:0:
166,14,135545,6,0,P|87:22|46:59,2,135
133,108,136454,1,2,0:0:0:0:
133,108,136568,1,0,0:0:0:0:
133,108,136682,2,0,L|93:204,1,90
61,283,137136,1,0,0:0:0:0:
190,343,137363,6,0,P|254:329|290:259,1,135
298,229,137818,1,0,0:0:0:0:
360,164,138045,1,0,0:0:0:0:
449,148,138272,2,0,L|489:184,2,45,2|0|0,0:0|0:0|0:0,0:0:0:0:
423,62,138727,2,0,L|315:79,1,90
207,145,139182,6,0,L|296:159,1,90
341,166,139522,1,0,0:0:0:0:
386,174,139636,2,0,P|380:219|397:260,1,90
325,315,140091,1,2,0:0:0:0:
236,319,140318,1,0,0:0:0:0:
156,279,140545,1,0,0:0:0:0:
93,150,140772,5,0,0:0:0:0:
93,150,140886,1,0,0:0:0:0:
93,150,141000,2,4,B|149:146|149:146|157:158|157:158|221:154,1,135
285,246,141681,2,4,B|229:250|229:250|221:238|221:238|157:242,1,135
133,238,142136,2,0,L|121:310,2,45,0|0|2,0:0|0:0|0:0,0:0:0:0:
141,199,142477,2,4,L|127:84,1,90
231,53,143045,2,0,L|214:187,1,135,4|4,0:0|0:0,0:0:0:0:
