osu file format v14

[General]
AudioFilename: cytus-kiryu-the-last-illusion.mp3
AudioLeadIn: 0
PreviewTime: 24409
Countdown: 0
SampleSet: Soft
StackLeniency: 0.7
Mode: 0
LetterboxInBreaks: 0
WidescreenStoryboard: 0

[Editor]
DistanceSpacing: 1
BeatDivisor: 4
GridSize: 32
TimelineZoom: 1

[Metadata]
Title:The Last Illusion
TitleUnicode:The Last Illusion
Artist:Kiryu
ArtistUnicode:桐生
Creator:AzureDoctor
Version:Easy
Source:Cytus
Tags:rayark ios android chapter 7 loom
BeatmapID:1131334
BeatmapSetID:534073

[Difficulty]
HPDrainRate:3
CircleSize:3
OverallDifficulty:3
ApproachRate:4
SliderMultiplier:1
SliderTickRate:1

[Events]
//Background and Video events
0,0,"the last.png",0,0
//Break Periods
2,1200,3317
2,53927,59680
//Storyboard Layer 0 (Background)
//Storyboard Layer 1 (Fail)
//Storyboard Layer 2 (Pass)
//Storyboard Layer 3 (Foreground)
//Storyboard Sound Samples

[TimingPoints]
1000,454.545454545455,4,2,0,80,1,0
82818,-100,4,2,0,80,0,1
97250,-100,4,2,0,80,0,0
97363,-100,4,2,0,80,0,1
111795,-100,4,2,0,80,0,0
111909,-100,4,2,0,80,0,1
125545,-100,4,2,0,80,0,0

[Colours]
Combo1 : 155,0,155
Combo2 : 37,179,233
Combo3 : 196,15,91
Combo4 : 28,255,164

[HitObjects]
136,131,1000,5,6,0:0:0:0:
136,131,4637,6,0,P|175:55|287:55,1,200,2|2,0:0|0:0,0:0:0:0:
199,233,6454,2,0,P|195:281|223:337,1,100,0|0,0:0|0:0,0:0:0:0:
285,257,7363,2,0,P|289:209|261:153,1,100,0|0,0:0|0:0,0:0:0:0:
328,72,8273,6,0,B|432:72|432:72|488:160,2,200,6|0|0,0:0|0:0|0:0,0:0:0:0:
224,72,10546,1,0,0:0:0:0:
128,72,11000,2,0,B|80:80|80:80|40:120,1,100,2|0,0:0|0:0,0:0:0:0:
55,215,11909,6,0,B|151:247|151:247|249:215,2,200,0|2|0,0:0|0:0|0:0,0:0:0:0:
43,116,14182,1,0,0:0:0:0:
144,136,14637,2,0,B|192:152|192:152|248:136,1,100,2|0,0:0|0:0,0:0:0:0:
302,216,15546,6,0,P|340:128|281:47,1,200,6|0,0:0|0:0,0:0:0:0:
239,138,16909,1,0,0:0:0:0:
174,61,17364,2,0,P|139:122|205:233,1,200,0|0,0:0|0:0,0:0:0:0:
256,304,18728,1,0,0:0:0:0:
352,296,19182,6,0,B|392:192|328:192|360:88,2,200,0|0|0,0:0|0:0|0:0,0:0:0:0:
256,304,21455,1,0,0:0:0:0:
156,298,21909,2,0,P|108:276|85:224,1,100,2|0,0:0|0:0,0:0:0:0:
80,135,22818,1,0,0:0:0:0:
80,135,24637,6,0,B|226:90,2,150,6|0|8,0:0|0:0|0:0,0:0:0:0:
120,232,26455,2,0,B|168:216|168:216|216:232,1,100,2|0,0:0|0:0,0:0:0:0:
176,320,27364,2,0,B|224:336|224:336|288:312,1,100,0|8,0:0|0:0,0:0:0:0:
214,231,28273,2,0,B|198:135|198:135|238:87,2,150,2|0|8,0:0|0:0|0:0,0:0:0:0:
299,179,30090,2,0,B|315:276|315:276|280:317,2,150,2|0|0,0:0|0:0|0:0,0:0:0:0:
240,96,31909,6,0,P|160:48|96:80,2,150,2|0|8,0:0|0:0|0:0,0:0:0:0:
344,96,33727,2,0,P|416:48|480:72,2,150,2|0|8,0:0|0:0|0:0,0:0:0:0:
296,184,35546,2,0,P|240:184|200:224,1,100,2|0,0:0|0:0,0:0:0:0:
280,280,36455,2,0,P|240:312|184:312,1,100,0|8,0:0|0:0,0:0:0:0:
112,255,37363,2,0,L|101:147,1,100
168,80,38272,2,0,P|224:56|280:72,1,100,0|8,0:0|0:0,0:0:0:0:
317,139,39182,6,0,B|396:160|396:160|464:148,2,150,6|0|8,0:0|0:0|0:0,0:0:0:0:
375,58,41000,2,0,L|260:28,1,100,2|0,0:0|0:0,0:0:0:0:
220,113,41909,2,0,L|324:141,1,100,0|8,0:0|0:0,0:0:0:0:
317,239,42818,2,0,B|245:303|245:303|181:303,2,150,2|0|8,0:0|0:0|0:0,0:0:0:0:
317,138,44636,2,0,B|237:69,2,100,2|0|0,0:0|0:0|0:0,0:0:0:0:
405,185,46000,1,0,0:0:0:0:
322,238,46455,6,0,P|274:222|210:246,1,100,6|0,0:0|0:0,0:0:0:0:
274,326,47364,2,0,P|218:334|170:318,1,100,0|8,0:0|0:0,0:0:0:0:
122,238,48273,2,0,B|74:150|74:150|146:142|162:78,1,200,2|0,0:0|0:0,0:0:0:0:
66,46,49636,1,0,0:0:0:0:
206,22,50091,6,0,P|239:57|250:106,1,100,2|0,0:0|0:0,0:0:0:0:
199,192,51000,1,0,0:0:0:0:
156,280,51455,1,8,0:0:0:0:
236,336,51909,2,0,P|284:352|348:336,1,100,2|0,0:0|0:0,0:0:0:0:
292,248,52818,2,0,P|349:242|397:262,1,100,0|8,0:0|0:0,0:0:0:0:
476,304,53727,5,6,0:0:0:0:
392,288,61000,6,0,P|424:224|384:144,2,150,2|0|0,0:0|0:0|0:0,0:0:0:0:
288,288,62818,2,0,P|256:208|296:144,2,150,2|0|0,0:0|0:0|0:0,0:0:0:0:
216,352,64636,2,0,B|160:296|160:208|160:208|96:264|18:214,1,300,2|0,0:0|0:0,0:0:0:0:
88,136,66454,2,0,B|128:104|176:96|216:120|240:144|240:144|267:57|352:56,1,300,2|8,0:0|0:0,0:0:0:0:
344,160,68273,6,0,B|384:216|384:216|312:336,1,200,6|0,0:0|0:0,0:0:0:0:
240,264,69636,1,8,0:0:0:0:
316,328,70091,2,0,B|392:352|392:352|480:320,2,150,2|0|8,0:0|0:0|0:0,0:0:0:0:
384,248,71909,2,0,B|317:223|317:223|240:248,2,150,2|0|8,0:0|0:0|0:0,0:0:0:0:
384,144,73727,2,0,B|244:88,1,150,2|0,0:0|0:0,0:0:0:0:
104,136,75091,1,8,0:0:0:0:
176,208,75545,6,0,B|136:304|136:304|160:368,2,150,2|4|8,0:0|0:0|0:0,0:0:0:0:
275,193,77363,2,0,P|216:113|108:133,1,200,2|0,0:0|0:0,0:0:0:0:
82,210,78727,1,8,0:0:0:0:
256,192,79182,12,4,81000,0:0:0:0:
280,208,82818,6,0,B|256:160|256:160|200:128,2,100,6|0|8,0:0|0:0|0:0,0:0:0:0:
272,304,84182,1,0,0:0:0:0:
176,288,84636,2,0,B|135:265|135:265|111:209,1,100,2|0,0:0|0:0,0:0:0:0:
160,128,85545,1,8,0:0:0:0:
256,136,86000,1,0,0:0:0:0:
328,72,86454,6,0,B|376:72|376:72|424:96,1,100,2|0,0:0|0:0,0:0:0:0:
464,184,87363,2,0,B|480:232|480:232|456:296,1,100,8|0,0:0|0:0,0:0:0:0:
360,280,88273,2,0,B|344:232|344:232|360:176,1,100,2|0,0:0|0:0,0:0:0:0:
393,91,89182,2,0,B|289:91|289:91,1,100,8|0,0:0|0:0,0:0:0:0:
275,189,90090,5,6,0:0:0:0:
216,272,90545,1,0,0:0:0:0:
128,312,91000,1,8,0:0:0:0:
40,272,91454,1,0,0:0:0:0:
32,176,91909,2,0,B|32:128|32:128|64:64,2,100,2|0|8,0:0|0:0|0:0,0:0:0:0:
128,176,93272,1,0,0:0:0:0:
216,128,93727,6,0,B|303:82|317:144|412:90,1,200,2|8,0:0|0:0,0:0:0:0:
456,192,95091,1,0,0:0:0:0:
384,256,95545,1,2,0:0:0:0:
312,192,96000,1,0,0:0:0:0:
232,256,96454,1,8,0:0:0:0:
136,80,97363,5,6,0:0:0:0:
136,184,97818,1,0,0:0:0:0:
40,224,98272,2,0,B|16:168|56:112,1,100,8|0,0:0|0:0,0:0:0:0:
136,80,99182,2,0,B|198:84|235:142,1,100,2|0,0:0|0:0,0:0:0:0:
136,192,100091,2,0,L|200:288,1,100,8|0,0:0|0:0,0:0:0:0:
248,360,101000,5,2,0:0:0:0:
320,288,101454,1,0,0:0:0:0:
336,192,101909,2,0,B|280:186|248:224|248:224|254:144|210:119,1,200,8|2,0:0|0:0,0:0:0:0:
144,200,103272,1,0,0:0:0:0:
48,168,103727,2,0,P|46:229|64:264,1,100,8|0,0:0|0:0,0:0:0:0:
85,356,104636,6,0,P|133:332|133:188,1,200,6|8,0:0|0:0,0:0:0:0:
64,264,106000,1,0,0:0:0:0:
69,164,106454,2,0,L|2:87,2,100,2|0|8,0:0|0:0|0:0,0:0:0:0:
141,95,107818,1,0,0:0:0:0:
152,216,108272,6,0,B|216:240|272:192|272:192|344:240,1,200,2|8,0:0|0:0,0:0:0:0:
432,216,109636,1,0,0:0:0:0:
376,136,110091,2,0,L|286:74,1,100,4|0,0:0|0:0,0:0:0:0:
194,96,111000,1,0,0:0:0:0:
304,264,111909,6,0,B|352:280|352:280|408:264,1,100,6|0,0:0|0:0,0:0:0:0:
390,166,112818,2,0,B|406:118|406:118|390:70,1,100,8|0,0:0|0:0,0:0:0:0:
302,119,113727,1,2,0:0:0:0:
232,192,114181,1,0,0:0:0:0:
160,120,114636,2,0,B|113:105|113:105|59:123,1,100,8|0,0:0|0:0,0:0:0:0:
4,200,115545,6,0,B|50:216|50:216|98:200,1,100,2|0,0:0|0:0,0:0:0:0:
160,120,116454,1,8,0:0:0:0:
212,205,116909,1,0,0:0:0:0:
151,284,117363,2,0,P|153:324|198:382,1,100,2|0,0:0|0:0,0:0:0:0:
250,296,118272,2,0,B|299:312|349:293,1,100,8|0,0:0|0:0,0:0:0:0:
344,176,119181,6,0,B|272:152|272:152|264:96|264:96|200:72|200:72,1,200,6|8,0:0|0:0,0:0:0:0:
104,56,120545,1,0,0:0:0:0:
80,152,121000,2,0,B|152:176|152:176|156:213|156:213|248:248,1,200,2|8,0:0|0:0,0:0:0:0:
334,266,122363,1,0,0:0:0:0:
432,248,122818,6,0,P|373:174|266:189,1,200,2|8,0:0|0:0,0:0:0:0:
177,164,124181,1,0,0:0:0:0:
158,65,124636,2,0,P|96:109|81:183,1,150,4|4,0:0|0:0,0:0:0:0:
232,240,126454,6,0,P|331:269|360:360,2,200,6|2|0,0:0|0:0|0:0,0:0:0:0:
256,344,128727,1,0,0:0:0:0:
160,360,129181,2,0,P|112:368|56:352,1,100,2|0,0:0|0:0,0:0:0:0:
112,272,130090,6,0,B|56:224|80:160|80:160|32:88,2,200,0|2|0,0:0|0:0|0:0,0:0:0:0:
176,192,132363,1,0,0:0:0:0:
208,96,132818,2,0,B|264:112|280:176,1,100,2|0,0:0|0:0,0:0:0:0:
176,192,133727,6,0,P|138:280|197:361,1,200,6|2,0:0|0:0,0:0:0:0:
239,270,135090,1,0,0:0:0:0:
304,347,135545,2,0,P|339:286|273:175,1,200,0|2,0:0|0:0,0:0:0:0:
222,104,136909,1,0,0:0:0:0:
120,120,137363,6,0,B|91:212|155:212|115:316,2,200,0|2|0,0:0|0:0|0:0,0:0:0:0:
216,88,139636,1,0,0:0:0:0:
312,80,140090,2,0,P|378:121|396:154,1,100,2|0,0:0|0:0,0:0:0:0:
424,232,140999,1,4,0:0:0:0:
256,192,141454,12,0,143386,0:0:0:0:
