osu file format v14

[General]
AudioFilename: audio.mp3
AudioLeadIn: 0
PreviewTime: 62743
Countdown: 0
SampleSet: Soft
StackLeniency: 0.7
Mode: 3
LetterboxInBreaks: 0
SpecialStyle: 0
WidescreenStoryboard: 1

[Editor]
Bookmarks: 20032,40032,60032,62532,82532,102532,122532,132532,142532
DistanceSpacing: 0.8
BeatDivisor: 4
GridSize: 8
TimelineZoom: 1.5

[Metadata]
Title:Q
TitleUnicode:Q
Artist:Kiryu
ArtistUnicode:桐生
Creator:Keiga
Version:Normal
Source:Cytus
Tags:-ziel- famoss asherz007 ating quest. chapter 8 viii eight another me electronic video game artcore instrumental c88 comiket 88 rayark inc.
BeatmapID:2177671
BeatmapSetID:1036157

[Difficulty]
HPDrainRate:7.5
CircleSize:4
OverallDifficulty:7.5
ApproachRate:5
SliderMultiplier:1.4
SliderTickRate:1

[Events]
//Background and Video events
0,0,"qcytus2.jpg",0,0
//Break Periods
//Storyboard Layer 0 (Background)
//Storyboard Layer 1 (Fail)
//Storyboard Layer 2 (Pass)
//Storyboard Layer 3 (Foreground)
//Storyboard Layer 4 (Overlay)
//Storyboard Sound Samples

[TimingPoints]
243,312.5,4,2,1,80,1,0
40243,-100,4,2,1,80,0,1
60243,-100,4,2,1,80,0,0
102743,-100,4,2,1,80,0,1
122743,-100,4,2,1,80,0,0

[HitObjects]
320,192,555,5,0,0:0:0:0:
448,192,1180,1,0,0:0:0:0:
192,192,1336,1,0,0:0:0:0:
64,192,2274,1,0,0:0:0:0:
192,192,2430,1,0,0:0:0:0:
320,192,2586,1,0,0:0:0:0:
320,192,2743,1,0,0:0:0:0:
192,192,3211,1,0,0:0:0:0:
448,192,3680,1,0,0:0:0:0:
320,192,3993,1,0,0:0:0:0:
64,192,4461,1,0,0:0:0:0:
64,192,4930,1,0,0:0:0:0:
448,192,5243,1,0,0:0:0:0:
320,192,6024,1,0,0:0:0:0:
192,192,6180,1,0,0:0:0:0:
64,192,6336,1,0,0:0:0:0:
64,192,7274,1,0,0:0:0:0:
192,192,7430,1,0,0:0:0:0:
320,192,7586,1,0,0:0:0:0:
320,192,7743,1,0,0:0:0:0:
192,192,8211,1,0,0:0:0:0:
448,192,8680,1,0,0:0:0:0:
64,192,8993,1,0,0:0:0:0:
192,192,9461,1,0,0:0:0:0:
192,192,9930,1,0,0:0:0:0:
448,192,10243,1,0,0:0:0:0:
320,192,11493,1,0,0:0:0:0:
64,192,12274,1,0,0:0:0:0:
192,192,12430,1,0,0:0:0:0:
320,192,12586,1,0,0:0:0:0:
320,192,12743,1,0,0:0:0:0:
192,192,13211,1,0,0:0:0:0:
448,192,13680,1,0,0:0:0:0:
64,192,13993,1,0,0:0:0:0:
320,192,14461,1,0,0:0:0:0:
192,192,14930,1,0,0:0:0:0:
448,192,15243,1,0,0:0:0:0:
320,192,16024,1,0,0:0:0:0:
192,192,16180,1,0,0:0:0:0:
64,192,16336,1,0,0:0:0:0:
64,192,17274,1,0,0:0:0:0:
192,192,17430,1,0,0:0:0:0:
320,192,17586,1,0,0:0:0:0:
320,192,17743,1,0,0:0:0:0:
192,192,18211,1,0,0:0:0:0:
448,192,18680,1,0,0:0:0:0:
64,192,18993,1,0,0:0:0:0:
192,192,19461,1,0,0:0:0:0:
448,192,19618,1,8,0:0:0:0:
64,192,19774,1,2,0:0:0:0:
64,192,19930,1,2,0:0:0:0:
320,192,20086,1,2,0:0:0:0:
64,192,20243,1,2,0:0:0:0:
448,192,20243,1,4,0:0:0:0:
320,192,20555,1,8,0:0:0:0:
64,192,21024,1,8,0:0:0:0:
448,192,21180,1,0,0:0:0:0:
192,192,21336,1,0,0:0:0:0:
64,192,21493,1,8,0:0:0:0:
320,192,21805,1,2,0:0:0:0:
448,192,22118,1,8,0:0:0:0:
64,192,22274,1,2,0:0:0:0:
192,192,22430,1,0,0:0:0:0:
320,192,22586,1,8,0:0:0:0:
448,192,22743,1,2,0:0:0:0:
64,192,23055,1,8,0:0:0:0:
320,192,23211,1,0,0:0:0:0:
448,192,23524,1,8,0:0:0:0:
192,192,23680,1,0,0:0:0:0:
320,192,23993,1,8,0:0:0:0:
192,192,24305,1,2,0:0:0:0:
64,192,24461,1,0,0:0:0:0:
448,192,24618,1,8,0:0:0:0:
64,192,24774,1,2,0:0:0:0:
64,192,24930,1,2,0:0:0:0:
320,192,25086,1,2,0:0:0:0:
448,192,25243,1,6,0:0:0:0:
192,192,25555,1,8,0:0:0:0:
320,192,26024,1,8,0:0:0:0:
192,192,26180,1,0,0:0:0:0:
64,192,26336,1,0,0:0:0:0:
320,192,26493,1,8,0:0:0:0:
192,192,26805,1,2,0:0:0:0:
448,192,27118,1,8,0:0:0:0:
64,192,27274,1,2,0:0:0:0:
192,192,27430,1,0,0:0:0:0:
320,192,27586,1,8,0:0:0:0:
448,192,27743,1,2,0:0:0:0:
64,192,28055,1,8,0:0:0:0:
320,192,28211,1,0,0:0:0:0:
448,192,28524,1,8,0:0:0:0:
192,192,28680,1,0,0:0:0:0:
64,192,28993,1,8,0:0:0:0:
320,192,29305,1,2,0:0:0:0:
192,192,29461,1,0,0:0:0:0:
64,192,29618,1,8,0:0:0:0:
448,192,29774,1,2,0:0:0:0:
448,192,29930,1,2,0:0:0:0:
192,192,30086,1,2,0:0:0:0:
448,192,30243,1,6,0:0:0:0:
320,192,30555,1,8,0:0:0:0:
64,192,31024,1,8,0:0:0:0:
320,192,31493,1,8,0:0:0:0:
192,192,31805,1,2,0:0:0:0:
448,192,32118,1,8,0:0:0:0:
64,192,32274,1,2,0:0:0:0:
192,192,32430,1,0,0:0:0:0:
320,192,32586,1,8,0:0:0:0:
448,192,32743,1,2,0:0:0:0:
192,192,33055,1,8,0:0:0:0:
320,192,33211,1,0,0:0:0:0:
448,192,33524,1,8,0:0:0:0:
192,192,33680,1,0,0:0:0:0:
64,192,33993,1,8,0:0:0:0:
448,192,34305,1,2,0:0:0:0:
192,192,34461,1,0,0:0:0:0:
64,192,34618,1,8,0:0:0:0:
448,192,34774,1,2,0:0:0:0:
448,192,34930,1,2,0:0:0:0:
192,192,35086,1,2,0:0:0:0:
448,192,35243,1,6,0:0:0:0:
320,192,35555,1,8,0:0:0:0:
320,192,36024,1,8,0:0:0:0:
192,192,36180,1,0,0:0:0:0:
64,192,36336,1,0,0:0:0:0:
448,192,36493,1,8,0:0:0:0:
192,192,36805,1,2,0:0:0:0:
320,192,37118,1,8,0:0:0:0:
64,192,37274,1,2,0:0:0:0:
192,192,37430,1,0,0:0:0:0:
320,192,37586,1,8,0:0:0:0:
448,192,37743,1,2,0:0:0:0:
64,192,38055,1,8,0:0:0:0:
320,192,38211,1,0,0:0:0:0:
448,192,38524,1,8,0:0:0:0:
192,192,38680,1,0,0:0:0:0:
64,192,38993,1,0,0:0:0:0:
192,192,39461,1,0,0:0:0:0:
448,192,39618,1,8,0:0:0:0:
64,192,39774,1,2,0:0:0:0:
64,192,39930,1,2,0:0:0:0:
320,192,40086,1,2,0:0:0:0:
64,192,40243,1,2,0:0:0:0:
448,192,40243,1,4,0:0:0:0:
192,192,40555,1,8,0:0:0:0:
320,192,40555,1,0,0:0:0:0:
64,192,40868,1,0,0:0:0:0:
320,192,41180,1,0,0:0:0:0:
448,192,41180,1,0,0:0:0:0:
64,192,41336,1,0,0:0:0:0:
192,192,41336,1,0,0:0:0:0:
448,192,41493,1,8,0:0:0:0:
448,192,41805,1,2,0:0:0:0:
448,192,42118,1,8,0:0:0:0:
64,192,42274,1,2,0:0:0:0:
192,192,42274,1,0,0:0:0:0:
320,192,42430,1,0,0:0:0:0:
64,192,42586,1,8,0:0:0:0:
448,192,42586,1,0,0:0:0:0:
192,192,42743,1,2,0:0:0:0:
320,192,42743,1,0,0:0:0:0:
64,192,43055,1,8,0:0:0:0:
192,192,43211,1,0,0:0:0:0:
448,192,43211,1,0,0:0:0:0:
320,192,43368,1,0,0:0:0:0:
64,192,43680,1,0,0:0:0:0:
192,192,43680,1,0,0:0:0:0:
320,192,43993,1,8,0:0:0:0:
448,192,43993,1,0,0:0:0:0:
192,192,44305,1,2,0:0:0:0:
64,192,44461,1,0,0:0:0:0:
448,192,44461,1,0,0:0:0:0:
320,192,44618,1,8,0:0:0:0:
192,192,44774,1,2,0:0:0:0:
64,192,44930,1,8,0:0:0:0:
192,192,44930,1,0,0:0:0:0:
320,192,45086,1,2,0:0:0:0:
320,192,45243,1,2,0:0:0:0:
448,192,45243,1,4,0:0:0:0:
64,192,45555,1,8,0:0:0:0:
64,192,45868,1,0,0:0:0:0:
320,192,46024,1,8,0:0:0:0:
448,192,46024,1,0,0:0:0:0:
64,192,46180,1,0,0:0:0:0:
192,192,46180,1,0,0:0:0:0:
320,192,46336,1,0,0:0:0:0:
448,192,46336,1,0,0:0:0:0:
192,192,46493,1,8,0:0:0:0:
192,192,46805,1,2,0:0:0:0:
192,192,47118,1,8,0:0:0:0:
64,192,47274,1,2,0:0:0:0:
448,192,47274,1,0,0:0:0:0:
320,192,47430,1,0,0:0:0:0:
64,192,47586,1,8,0:0:0:0:
192,192,47586,1,0,0:0:0:0:
320,192,47743,1,2,0:0:0:0:
448,192,47743,1,0,0:0:0:0:
64,192,48055,1,8,0:0:0:0:
192,192,48211,1,0,0:0:0:0:
448,192,48211,1,0,0:0:0:0:
320,192,48368,1,0,0:0:0:0:
64,192,48680,1,0,0:0:0:0:
192,192,48680,1,0,0:0:0:0:
64,192,48993,1,8,0:0:0:0:
320,192,48993,1,0,0:0:0:0:
192,192,49305,1,2,0:0:0:0:
320,192,49461,1,0,0:0:0:0:
448,192,49461,1,0,0:0:0:0:
64,192,49618,1,8,0:0:0:0:
448,192,49774,1,2,0:0:0:0:
64,192,49930,1,8,0:0:0:0:
448,192,49930,1,0,0:0:0:0:
64,192,50086,1,2,0:0:0:0:
320,192,50243,1,4,0:0:0:0:
448,192,50243,1,2,0:0:0:0:
192,192,50555,1,8,0:0:0:0:
192,192,50868,1,0,0:0:0:0:
192,192,51180,1,0,0:0:0:0:
64,192,51493,1,8,0:0:0:0:
448,192,51493,1,0,0:0:0:0:
320,192,51805,1,2,0:0:0:0:
320,192,52118,1,8,0:0:0:0:
64,192,52274,1,2,0:0:0:0:
192,192,52274,1,0,0:0:0:0:
448,192,52430,1,0,0:0:0:0:
64,192,52586,1,8,0:0:0:0:
320,192,52586,1,0,0:0:0:0:
192,192,52743,1,2,0:0:0:0:
448,192,52743,1,0,0:0:0:0:
320,192,53055,1,8,0:0:0:0:
64,192,53211,1,0,0:0:0:0:
192,192,53211,1,0,0:0:0:0:
320,192,53368,1,0,0:0:0:0:
192,192,53680,1,0,0:0:0:0:
448,192,53680,1,0,0:0:0:0:
64,192,53993,1,8,0:0:0:0:
320,192,53993,1,0,0:0:0:0:
192,192,54305,1,2,0:0:0:0:
320,192,54461,1,0,0:0:0:0:
448,192,54461,1,0,0:0:0:0:
64,192,54618,1,8,0:0:0:0:
320,192,54774,1,2,0:0:0:0:
192,192,54930,1,8,0:0:0:0:
320,192,54930,1,0,0:0:0:0:
192,192,55086,1,2,0:0:0:0:
320,192,55243,1,4,0:0:0:0:
448,192,55243,1,2,0:0:0:0:
192,192,55555,1,8,0:0:0:0:
192,192,55868,1,0,0:0:0:0:
64,192,56024,1,8,0:0:0:0:
320,192,56024,1,0,0:0:0:0:
192,192,56180,1,0,0:0:0:0:
448,192,56180,1,0,0:0:0:0:
64,192,56336,1,0,0:0:0:0:
320,192,56336,1,0,0:0:0:0:
448,192,56493,1,8,0:0:0:0:
448,192,56805,1,2,0:0:0:0:
448,192,57118,1,8,0:0:0:0:
64,192,57274,1,2,0:0:0:0:
320,192,57274,1,0,0:0:0:0:
192,192,57430,1,0,0:0:0:0:
320,192,57586,1,8,0:0:0:0:
448,192,57586,1,0,0:0:0:0:
64,192,57743,1,2,0:0:0:0:
192,192,57743,1,0,0:0:0:0:
448,192,58055,1,8,0:0:0:0:
192,192,58211,1,0,0:0:0:0:
320,192,58211,1,0,0:0:0:0:
64,192,58368,1,0,0:0:0:0:
192,192,58680,1,0,0:0:0:0:
448,192,58680,1,0,0:0:0:0:
64,192,58993,1,8,0:0:0:0:
320,192,58993,1,0,0:0:0:0:
192,192,59305,1,2,0:0:0:0:
64,192,59461,1,0,0:0:0:0:
448,192,59461,1,0,0:0:0:0:
320,192,59618,1,2,0:0:0:0:
192,192,59774,128,8,60086:0:0:0:0:
64,192,59930,128,8,60086:0:0:0:0:
320,192,60086,1,2,0:0:0:0:
64,192,62743,1,2,0:0:0:0:
448,192,62743,1,4,0:0:0:0:
192,192,62899,1,0,0:0:0:0:
320,192,63055,1,8,0:0:0:0:
192,192,63368,1,0,0:0:0:0:
320,192,63524,1,8,0:0:0:0:
64,192,63680,128,0,63993:0:0:0:0:
448,192,63993,1,8,0:0:0:0:
320,192,64149,1,0,0:0:0:0:
192,192,64305,1,2,0:0:0:0:
320,192,64618,1,8,0:0:0:0:
192,192,64774,1,2,0:0:0:0:
448,192,64930,128,0,65243:0:0:0:0:
64,192,65243,1,2,0:0:0:0:
320,192,65399,1,0,0:0:0:0:
64,192,65555,1,8,0:0:0:0:
64,192,65868,1,0,0:0:0:0:
320,192,66024,1,8,0:0:0:0:
64,192,66180,128,0,66493:0:0:0:0:
448,192,66493,1,8,0:0:0:0:
192,192,66649,1,0,0:0:0:0:
448,192,66805,1,2,0:0:0:0:
448,192,67118,1,8,0:0:0:0:
192,192,67274,1,2,0:0:0:0:
448,192,67430,128,2,67743:0:0:0:0:
64,192,67743,1,6,0:0:0:0:
320,192,67899,1,0,0:0:0:0:
448,192,68055,1,8,0:0:0:0:
192,192,68368,1,0,0:0:0:0:
320,192,68524,1,8,0:0:0:0:
64,192,68680,128,0,68993:0:0:0:0:
448,192,68993,1,8,0:0:0:0:
192,192,69149,1,0,0:0:0:0:
64,192,69305,1,2,0:0:0:0:
320,192,69618,1,8,0:0:0:0:
192,192,69774,1,2,0:0:0:0:
448,192,69930,128,0,70243:0:0:0:0:
64,192,70243,1,2,0:0:0:0:
320,192,70399,1,0,0:0:0:0:
192,192,70555,1,8,0:0:0:0:
192,192,70868,1,0,0:0:0:0:
320,192,71024,1,8,0:0:0:0:
64,192,71180,128,0,71493:0:0:0:0:
448,192,71493,1,8,0:0:0:0:
192,192,71649,1,0,0:0:0:0:
320,192,71805,1,2,0:0:0:0:
320,192,72118,1,8,0:0:0:0:
192,192,72274,1,2,0:0:0:0:
448,192,72430,128,2,72743:0:0:0:0:
64,192,72743,1,6,0:0:0:0:
192,192,72899,1,0,0:0:0:0:
320,192,73055,1,8,0:0:0:0:
448,192,73368,1,0,0:0:0:0:
320,192,73524,1,8,0:0:0:0:
64,192,73680,128,0,73993:0:0:0:0:
320,192,73993,1,8,0:0:0:0:
192,192,74149,128,0,74305:0:0:0:0:
448,192,74305,1,2,0:0:0:0:
448,192,74618,1,8,0:0:0:0:
320,192,74774,1,2,0:0:0:0:
192,192,74930,128,0,75243:0:0:0:0:
448,192,75243,1,2,0:0:0:0:
64,192,75399,1,0,0:0:0:0:
320,192,75555,128,8,75711:0:0:0:0:
64,192,75868,1,0,0:0:0:0:
448,192,76024,1,8,0:0:0:0:
320,192,76180,128,0,76493:0:0:0:0:
64,192,76493,1,8,0:0:0:0:
192,192,76649,1,0,0:0:0:0:
320,192,76805,1,2,0:0:0:0:
320,192,77118,1,8,0:0:0:0:
192,192,77274,1,2,0:0:0:0:
448,192,77430,128,2,77743:0:0:0:0:
64,192,77743,1,6,0:0:0:0:
192,192,77899,1,0,0:0:0:0:
448,192,78055,1,8,0:0:0:0:
320,192,78368,1,0,0:0:0:0:
64,192,78524,1,8,0:0:0:0:
448,192,78680,128,0,78993:0:0:0:0:
192,192,78993,1,8,0:0:0:0:
64,192,79149,1,0,0:0:0:0:
320,192,79305,1,2,0:0:0:0:
448,192,79618,128,8,79774:0:0:0:0:
192,192,79774,1,2,0:0:0:0:
320,192,79930,128,0,80243:0:0:0:0:
64,192,80243,1,2,0:0:0:0:
192,192,80399,1,0,0:0:0:0:
448,192,80555,1,8,0:0:0:0:
320,192,80868,128,0,81024:0:0:0:0:
64,192,81024,1,8,0:0:0:0:
192,192,81180,128,0,81493:0:0:0:0:
320,192,81493,1,2,0:0:0:0:
448,192,81649,1,0,0:0:0:0:
192,192,81805,1,2,0:0:0:0:
64,192,81961,1,0,0:0:0:0:
320,192,82118,1,2,0:0:0:0:
448,192,82274,128,8,82430:0:0:0:0:
64,192,82430,128,8,82586:0:0:0:0:
192,192,82586,1,2,0:0:0:0:
320,192,82743,1,2,0:0:0:0:
448,192,82743,1,4,0:0:0:0:
320,192,83055,1,0,0:0:0:0:
448,192,83680,1,0,0:0:0:0:
192,192,83836,1,0,0:0:0:0:
64,192,84774,1,0,0:0:0:0:
192,192,84930,1,0,0:0:0:0:
320,192,85086,1,0,0:0:0:0:
320,192,85243,1,0,0:0:0:0:
192,192,85711,1,0,0:0:0:0:
448,192,86180,1,0,0:0:0:0:
320,192,86493,1,0,0:0:0:0:
64,192,86961,1,0,0:0:0:0:
64,192,87430,1,0,0:0:0:0:
448,192,87743,1,0,0:0:0:0:
320,192,88524,1,0,0:0:0:0:
192,192,88680,1,0,0:0:0:0:
64,192,88836,1,0,0:0:0:0:
64,192,89774,1,0,0:0:0:0:
192,192,89930,1,0,0:0:0:0:
320,192,90086,1,0,0:0:0:0:
320,192,90243,1,0,0:0:0:0:
192,192,90711,1,0,0:0:0:0:
448,192,91180,1,0,0:0:0:0:
64,192,91493,1,0,0:0:0:0:
192,192,91961,1,0,0:0:0:0:
192,192,92430,1,0,0:0:0:0:
448,192,92743,1,0,0:0:0:0:
320,192,93993,1,0,0:0:0:0:
64,192,94774,1,0,0:0:0:0:
192,192,94930,1,0,0:0:0:0:
320,192,95086,1,0,0:0:0:0:
320,192,95243,1,0,0:0:0:0:
192,192,95711,1,0,0:0:0:0:
448,192,96180,1,0,0:0:0:0:
64,192,96493,1,0,0:0:0:0:
320,192,96961,1,0,0:0:0:0:
192,192,97430,1,0,0:0:0:0:
448,192,97743,1,0,0:0:0:0:
320,192,98524,1,0,0:0:0:0:
192,192,98680,1,0,0:0:0:0:
64,192,98836,1,0,0:0:0:0:
64,192,99774,1,0,0:0:0:0:
192,192,99930,1,0,0:0:0:0:
320,192,100086,1,0,0:0:0:0:
320,192,100243,1,0,0:0:0:0:
192,192,100711,1,0,0:0:0:0:
448,192,101180,1,0,0:0:0:0:
64,192,101493,1,0,0:0:0:0:
192,192,101961,1,0,0:0:0:0:
64,192,102743,1,2,0:0:0:0:
448,192,102743,1,4,0:0:0:0:
192,192,103055,1,8,0:0:0:0:
320,192,103055,1,0,0:0:0:0:
64,192,103368,1,0,0:0:0:0:
320,192,103680,1,0,0:0:0:0:
448,192,103680,1,0,0:0:0:0:
64,192,103836,1,0,0:0:0:0:
192,192,103836,1,0,0:0:0:0:
448,192,103993,1,8,0:0:0:0:
448,192,104305,1,2,0:0:0:0:
448,192,104618,1,8,0:0:0:0:
64,192,104774,1,2,0:0:0:0:
192,192,104774,1,0,0:0:0:0:
320,192,104930,1,0,0:0:0:0:
64,192,105086,1,8,0:0:0:0:
448,192,105086,1,0,0:0:0:0:
192,192,105243,1,2,0:0:0:0:
320,192,105243,1,0,0:0:0:0:
64,192,105555,1,8,0:0:0:0:
192,192,105711,1,0,0:0:0:0:
448,192,105711,1,0,0:0:0:0:
320,192,105868,1,0,0:0:0:0:
64,192,106180,1,0,0:0:0:0:
192,192,106180,1,0,0:0:0:0:
320,192,106493,1,8,0:0:0:0:
448,192,106493,1,0,0:0:0:0:
192,192,106805,1,2,0:0:0:0:
64,192,106961,1,0,0:0:0:0:
448,192,106961,1,0,0:0:0:0:
320,192,107118,1,8,0:0:0:0:
192,192,107274,1,2,0:0:0:0:
64,192,107430,1,8,0:0:0:0:
192,192,107430,1,0,0:0:0:0:
320,192,107586,1,2,0:0:0:0:
320,192,107743,1,2,0:0:0:0:
448,192,107743,1,4,0:0:0:0:
64,192,108055,1,8,0:0:0:0:
64,192,108368,1,0,0:0:0:0:
320,192,108524,1,8,0:0:0:0:
448,192,108524,1,0,0:0:0:0:
64,192,108680,1,0,0:0:0:0:
192,192,108680,1,0,0:0:0:0:
320,192,108836,1,0,0:0:0:0:
448,192,108836,1,0,0:0:0:0:
192,192,108993,1,8,0:0:0:0:
192,192,109305,1,2,0:0:0:0:
192,192,109618,1,8,0:0:0:0:
64,192,109774,1,2,0:0:0:0:
448,192,109774,1,0,0:0:0:0:
320,192,109930,1,0,0:0:0:0:
64,192,110086,1,8,0:0:0:0:
192,192,110086,1,0,0:0:0:0:
320,192,110243,1,2,0:0:0:0:
448,192,110243,1,0,0:0:0:0:
64,192,110555,1,8,0:0:0:0:
192,192,110711,1,0,0:0:0:0:
448,192,110711,1,0,0:0:0:0:
320,192,110868,1,0,0:0:0:0:
64,192,111180,1,0,0:0:0:0:
192,192,111180,1,0,0:0:0:0:
64,192,111493,1,8,0:0:0:0:
320,192,111493,1,0,0:0:0:0:
192,192,111805,1,2,0:0:0:0:
320,192,111961,1,0,0:0:0:0:
448,192,111961,1,0,0:0:0:0:
64,192,112118,1,8,0:0:0:0:
448,192,112274,1,2,0:0:0:0:
64,192,112430,1,8,0:0:0:0:
448,192,112430,1,0,0:0:0:0:
64,192,112586,1,2,0:0:0:0:
320,192,112743,1,4,0:0:0:0:
448,192,112743,1,2,0:0:0:0:
192,192,113055,1,8,0:0:0:0:
192,192,113368,1,0,0:0:0:0:
192,192,113680,1,0,0:0:0:0:
64,192,113993,1,8,0:0:0:0:
448,192,113993,1,0,0:0:0:0:
320,192,114305,1,2,0:0:0:0:
320,192,114618,1,8,0:0:0:0:
64,192,114774,1,2,0:0:0:0:
192,192,114774,1,0,0:0:0:0:
448,192,114930,1,0,0:0:0:0:
64,192,115086,1,8,0:0:0:0:
320,192,115086,1,0,0:0:0:0:
192,192,115243,1,2,0:0:0:0:
448,192,115243,1,0,0:0:0:0:
320,192,115555,1,8,0:0:0:0:
64,192,115711,1,0,0:0:0:0:
192,192,115711,1,0,0:0:0:0:
320,192,115868,1,0,0:0:0:0:
192,192,116180,1,0,0:0:0:0:
448,192,116180,1,0,0:0:0:0:
64,192,116493,1,8,0:0:0:0:
320,192,116493,1,0,0:0:0:0:
192,192,116805,1,2,0:0:0:0:
320,192,116961,1,0,0:0:0:0:
448,192,116961,1,0,0:0:0:0:
64,192,117118,1,8,0:0:0:0:
320,192,117274,1,2,0:0:0:0:
192,192,117430,1,8,0:0:0:0:
320,192,117430,1,0,0:0:0:0:
192,192,117586,1,2,0:0:0:0:
320,192,117743,1,4,0:0:0:0:
448,192,117743,1,2,0:0:0:0:
192,192,118055,1,8,0:0:0:0:
192,192,118368,1,0,0:0:0:0:
64,192,118524,1,8,0:0:0:0:
320,192,118524,1,0,0:0:0:0:
192,192,118680,1,0,0:0:0:0:
448,192,118680,1,0,0:0:0:0:
64,192,118836,1,0,0:0:0:0:
320,192,118836,1,0,0:0:0:0:
448,192,118993,1,8,0:0:0:0:
448,192,119305,1,2,0:0:0:0:
448,192,119618,1,8,0:0:0:0:
64,192,119774,1,2,0:0:0:0:
320,192,119774,1,0,0:0:0:0:
192,192,119930,1,0,0:0:0:0:
320,192,120086,1,8,0:0:0:0:
448,192,120086,1,0,0:0:0:0:
64,192,120243,1,2,0:0:0:0:
192,192,120243,1,0,0:0:0:0:
448,192,120555,1,8,0:0:0:0:
192,192,120711,1,0,0:0:0:0:
320,192,120711,1,0,0:0:0:0:
64,192,120868,1,0,0:0:0:0:
192,192,121180,1,0,0:0:0:0:
448,192,121180,1,0,0:0:0:0:
64,192,121493,1,8,0:0:0:0:
320,192,121493,1,0,0:0:0:0:
192,192,121805,1,2,0:0:0:0:
64,192,121961,1,0,0:0:0:0:
448,192,121961,1,0,0:0:0:0:
320,192,122118,1,2,0:0:0:0:
192,192,122274,128,8,122586:0:0:0:0:
64,192,122430,128,8,122586:0:0:0:0:
320,192,122586,1,2,0:0:0:0:
448,192,122743,128,6,123993:0:0:0:0:
192,192,123055,1,0,0:0:0:0:
320,192,123680,1,0,0:0:0:0:
192,192,123836,1,0,0:0:0:0:
64,192,123993,128,0,125243:0:0:0:0:
320,192,124774,1,0,0:0:0:0:
192,192,124930,1,0,0:0:0:0:
320,192,125086,1,0,0:0:0:0:
448,192,125243,128,0,126493:0:0:0:0:
320,192,125711,1,0,0:0:0:0:
192,192,126180,1,0,0:0:0:0:
64,192,126493,128,0,127743:0:0:0:0:
320,192,126961,1,0,0:0:0:0:
192,192,127430,1,0,0:0:0:0:
448,192,127743,128,0,128993:0:0:0:0:
64,192,128524,1,0,0:0:0:0:
320,192,128680,1,0,0:0:0:0:
192,192,128836,1,0,0:0:0:0:
64,192,128993,128,0,130243:0:0:0:0:
448,192,129774,1,0,0:0:0:0:
192,192,129930,1,0,0:0:0:0:
320,192,130086,1,0,0:0:0:0:
448,192,130243,128,0,131493:0:0:0:0:
192,192,130711,1,0,0:0:0:0:
64,192,131180,1,0,0:0:0:0:
320,192,131493,128,0,131805:0:0:0:0:
64,192,131961,128,0,132743:0:0:0:0:
320,192,132430,1,0,0:0:0:0:
448,192,132743,128,0,133993:0:0:0:0:
64,192,133993,128,0,135243:0:0:0:0:
448,192,135243,128,0,136493:0:0:0:0:
320,192,136493,128,0,136961:0:0:0:0:
64,192,136961,128,0,137430:0:0:0:0:
192,192,137430,128,0,137743:0:0:0:0:
448,192,137743,128,0,138993:0:0:0:0:
64,192,138993,128,0,140243:0:0:0:0:
448,192,140243,128,0,141493:0:0:0:0:
320,192,141493,128,0,141805:0:0:0:0:
64,192,141961,128,0,142430:0:0:0:0:
448,192,142430,128,0,142586:0:0:0:0:
192,192,142586,128,0,142743:0:0:0:0:
320,192,142743,1,0,0:0:0:0:
