osu file format v14

[General]
AudioFilename: audio.mp3
AudioLeadIn: 0
PreviewTime: 124350
Countdown: 0
SampleSet: Soft
StackLeniency: 0.7
Mode: 3
LetterboxInBreaks: 0
CountdownOffset: 2
SpecialStyle: 0
WidescreenStoryboard: 1

[Editor]
Bookmarks: 88262
DistanceSpacing: 0.8
BeatDivisor: 4
GridSize: 32
TimelineZoom: 1

[Metadata]
Title:Q
TitleUnicode:Q
Artist:Kiryu
ArtistUnicode:Kiryu
Creator:AetherKeys
Version:NOVICE Lv.7
Source:Cytus chapter VIII
Tags:Cytus
BeatmapID:977217
BeatmapSetID:453564

[Difficulty]
HPDrainRate:6
CircleSize:4
OverallDifficulty:7
ApproachRate:7
SliderMultiplier:1
SliderTickRate:1

[Events]
//Background and Video events
0,0,"kiryu HD.jpg",0,0
//Break Periods
//Storyboard Layer 0 (Background)
//Storyboard Layer 1 (Fail)
//Storyboard Layer 2 (Pass)
//Storyboard Layer 3 (Foreground)
//Storyboard Sound Samples

[TimingPoints]
600,312.5,4,2,0,25,1,0
84350,-100,4,2,0,20,0,1
104115,-100,4,2,0,25,0,0
124350,-100,4,2,0,20,0,1
144115,-100,4,2,0,25,0,0
183568,-200,4,2,0,25,0,0

[HitObjects]
64,192,600,5,2,0:0:0:0:
192,192,600,128,4,912:0:0:0:0:
320,192,912,1,0,0:0:0:0:
192,192,1381,1,2,0:0:0:0:
64,192,1537,1,0,0:0:0:0:
192,192,1693,1,2,0:0:0:0:
448,192,1850,128,4,2631:0:0:0:0:
320,192,1850,1,0,0:0:0:0:
320,192,2631,1,4,0:0:0:0:
192,192,2787,1,2,0:0:0:0:
64,192,2943,1,0,0:0:0:0:
320,192,3100,1,4,0:0:0:0:
448,192,3100,1,4,0:0:0:0:
320,192,3568,1,0,0:0:0:0:
64,192,4037,1,2,0:0:0:0:
448,192,4350,1,4,0:0:0:0:
64,192,4818,1,4,0:0:0:0:
320,192,4818,1,2,0:0:0:0:
192,192,5287,1,2,0:0:0:0:
320,192,5287,1,4,0:0:0:0:
448,192,5600,128,0,6381:0:0:0:0:
320,192,6381,1,0,0:0:0:0:
192,192,6537,1,2,0:0:0:0:
64,192,6693,1,2,0:0:0:0:
320,192,6850,128,4,7631:0:0:0:0:
192,192,6850,1,0,0:0:0:0:
448,192,7318,1,0,0:0:0:0:
192,192,7631,1,4,0:0:0:0:
64,192,7787,1,2,0:0:0:0:
192,192,7943,1,0,0:0:0:0:
320,192,8100,1,0,0:0:0:0:
448,192,8100,1,4,0:0:0:0:
192,192,8568,1,4,0:0:0:0:
320,192,9037,1,4,0:0:0:0:
64,192,9350,1,2,0:0:0:0:
192,192,9350,1,0,0:0:0:0:
320,192,9818,1,0,0:0:0:0:
192,192,10287,1,2,0:0:0:0:
320,192,10600,1,0,0:0:0:0:
448,192,10600,1,4,0:0:0:0:
192,192,11381,1,4,0:0:0:0:
320,192,11537,1,2,0:0:0:0:
448,192,11693,1,0,0:0:0:0:
320,192,11850,1,0,0:0:0:0:
192,192,11850,128,4,12631:0:0:0:0:
448,192,12318,1,0,0:0:0:0:
64,192,12631,1,4,0:0:0:0:
192,192,12787,1,2,0:0:0:0:
320,192,12943,1,0,0:0:0:0:
448,192,13100,1,4,0:0:0:0:
192,192,13100,1,4,0:0:0:0:
320,192,13568,1,0,0:0:0:0:
192,192,14037,1,2,0:0:0:0:
320,192,14350,1,4,0:0:0:0:
448,192,14350,1,4,0:0:0:0:
64,192,14818,1,0,0:0:0:0:
192,192,14818,1,0,0:0:0:0:
448,192,15287,1,4,0:0:0:0:
192,192,15600,1,0,0:0:0:0:
320,192,15600,128,4,16381:0:0:0:0:
64,192,16381,1,0,0:0:0:0:
192,192,16537,1,2,0:0:0:0:
320,192,16693,1,4,0:0:0:0:
448,192,16850,1,0,0:0:0:0:
192,192,16850,1,0,0:0:0:0:
320,192,17318,1,2,0:0:0:0:
192,192,17631,1,4,0:0:0:0:
64,192,17787,1,2,0:0:0:0:
320,192,17943,1,0,0:0:0:0:
192,192,18100,1,0,0:0:0:0:
448,192,18100,1,4,0:0:0:0:
320,192,18568,1,4,0:0:0:0:
64,192,19037,1,0,0:0:0:0:
192,192,19193,1,2,0:0:0:0:
320,192,19350,1,4,0:0:0:0:
448,192,19350,1,4,0:0:0:0:
192,192,19818,128,0,21850:0:0:0:0:
320,192,19818,128,4,21850:0:0:0:0:
64,192,21850,1,4,0:0:0:0:
192,192,22006,1,2,0:0:0:0:
320,192,22162,1,0,0:0:0:0:
448,192,22162,1,0,0:0:0:0:
64,192,22474,1,2,0:0:0:0:
192,192,22631,1,0,0:0:0:0:
320,192,22631,1,0,0:0:0:0:
448,192,22865,1,2,0:0:0:0:
192,192,23100,1,4,0:0:0:0:
320,192,23100,1,0,0:0:0:0:
64,192,23412,1,2,0:0:0:0:
320,192,23568,1,0,0:0:0:0:
448,192,23568,1,0,0:0:0:0:
192,192,23881,1,2,0:0:0:0:
320,192,24037,1,0,0:0:0:0:
448,192,24037,1,0,0:0:0:0:
64,192,24350,1,4,0:0:0:0:
192,192,24350,1,4,0:0:0:0:
320,192,24662,1,2,0:0:0:0:
192,192,24818,1,0,0:0:0:0:
448,192,24818,1,0,0:0:0:0:
64,192,25131,1,2,0:0:0:0:
192,192,25287,1,0,0:0:0:0:
448,192,25287,1,0,0:0:0:0:
320,192,25600,1,4,0:0:0:0:
64,192,25600,1,4,0:0:0:0:
192,192,25912,1,2,0:0:0:0:
320,192,26068,1,0,0:0:0:0:
448,192,26068,1,0,0:0:0:0:
64,192,26381,1,2,0:0:0:0:
320,192,26537,1,0,0:0:0:0:
448,192,26537,1,0,0:0:0:0:
64,192,26850,1,4,0:0:0:0:
320,192,26850,1,4,0:0:0:0:
448,192,27162,1,2,0:0:0:0:
64,192,27318,1,0,0:0:0:0:
192,192,27318,1,0,0:0:0:0:
320,192,27631,1,2,0:0:0:0:
64,192,27787,1,0,0:0:0:0:
192,192,27787,1,0,0:0:0:0:
320,192,28100,1,4,0:0:0:0:
448,192,28100,1,4,0:0:0:0:
192,192,28412,1,2,0:0:0:0:
64,192,28568,1,0,0:0:0:0:
320,192,28568,1,0,0:0:0:0:
320,192,28881,1,2,0:0:0:0:
192,192,29037,1,0,0:0:0:0:
448,192,29037,1,0,0:0:0:0:
192,192,29350,1,4,0:0:0:0:
320,192,29350,1,4,0:0:0:0:
64,192,29662,1,2,0:0:0:0:
448,192,29818,1,0,0:0:0:0:
320,192,29818,1,0,0:0:0:0:
192,192,30131,1,2,0:0:0:0:
448,192,30287,1,0,0:0:0:0:
320,192,30287,1,0,0:0:0:0:
192,192,30600,1,4,0:0:0:0:
64,192,30600,1,4,0:0:0:0:
320,192,30912,1,2,0:0:0:0:
448,192,31068,1,0,0:0:0:0:
192,192,31068,1,0,0:0:0:0:
64,192,31381,1,2,0:0:0:0:
448,192,31537,1,0,0:0:0:0:
192,192,31537,1,0,0:0:0:0:
64,192,31850,1,4,0:0:0:0:
320,192,31850,1,4,0:0:0:0:
192,192,32162,1,2,0:0:0:0:
448,192,32318,1,0,0:0:0:0:
320,192,32318,1,0,0:0:0:0:
64,192,32631,1,2,0:0:0:0:
448,192,32787,1,0,0:0:0:0:
320,192,32787,1,0,0:0:0:0:
320,192,33100,1,4,0:0:0:0:
64,192,33100,1,4,0:0:0:0:
448,192,33412,1,2,0:0:0:0:
192,192,33568,1,0,0:0:0:0:
64,192,33568,1,0,0:0:0:0:
320,192,33881,1,2,0:0:0:0:
192,192,34037,1,0,0:0:0:0:
64,192,34037,1,0,0:0:0:0:
448,192,34350,1,4,0:0:0:0:
320,192,34350,1,4,0:0:0:0:
192,192,34662,1,2,0:0:0:0:
320,192,34818,1,0,0:0:0:0:
64,192,34818,1,0,0:0:0:0:
320,192,35131,1,2,0:0:0:0:
448,192,35287,1,0,0:0:0:0:
192,192,35287,1,0,0:0:0:0:
320,192,35600,1,4,0:0:0:0:
192,192,35600,1,4,0:0:0:0:
64,192,35912,1,2,0:0:0:0:
320,192,36068,1,0,0:0:0:0:
448,192,36068,1,0,0:0:0:0:
192,192,36381,1,2,0:0:0:0:
320,192,36537,1,0,0:0:0:0:
448,192,36537,1,0,0:0:0:0:
64,192,36850,1,4,0:0:0:0:
192,192,36850,1,4,0:0:0:0:
320,192,37162,1,2,0:0:0:0:
192,192,37318,1,0,0:0:0:0:
448,192,37318,1,0,0:0:0:0:
64,192,37631,1,2,0:0:0:0:
192,192,37787,1,0,0:0:0:0:
448,192,37787,1,0,0:0:0:0:
320,192,38100,1,4,0:0:0:0:
64,192,38100,1,4,0:0:0:0:
192,192,38412,1,2,0:0:0:0:
320,192,38568,1,0,0:0:0:0:
448,192,38568,1,0,0:0:0:0:
64,192,38881,1,0,0:0:0:0:
320,192,39037,1,0,0:0:0:0:
448,192,39037,1,0,0:0:0:0:
64,192,39350,1,4,0:0:0:0:
320,192,39350,1,4,0:0:0:0:
448,192,39662,1,2,0:0:0:0:
64,192,39818,1,0,0:0:0:0:
192,192,39818,1,0,0:0:0:0:
320,192,40131,1,2,0:0:0:0:
64,192,40287,1,0,0:0:0:0:
192,192,40287,1,0,0:0:0:0:
320,192,40600,1,4,0:0:0:0:
448,192,40600,1,4,0:0:0:0:
192,192,40912,1,2,0:0:0:0:
64,192,41068,1,0,0:0:0:0:
320,192,41068,1,0,0:0:0:0:
320,192,41381,1,2,0:0:0:0:
192,192,41537,1,0,0:0:0:0:
448,192,41537,1,0,0:0:0:0:
320,192,41850,1,4,0:0:0:0:
192,192,41850,1,4,0:0:0:0:
192,192,42162,128,0,42787:0:0:0:0:
64,192,42787,1,0,0:0:0:0:
192,192,42943,1,0,0:0:0:0:
320,192,43100,128,0,43881:0:0:0:0:
192,192,43881,1,0,0:0:0:0:
64,192,44037,1,0,0:0:0:0:
192,192,44193,1,0,0:0:0:0:
320,192,44350,128,0,44818:0:0:0:0:
192,192,44818,1,0,0:0:0:0:
64,192,45287,1,0,0:0:0:0:
320,192,45600,1,0,0:0:0:0:
448,192,45600,1,0,0:0:0:0:
64,192,46068,1,0,0:0:0:0:
320,192,46068,1,0,0:0:0:0:
192,192,46537,1,0,0:0:0:0:
448,192,46537,1,0,0:0:0:0:
320,192,46850,128,0,47631:0:0:0:0:
192,192,47631,1,0,0:0:0:0:
448,192,47787,1,0,0:0:0:0:
320,192,47943,1,0,0:0:0:0:
192,192,48100,128,0,48881:0:0:0:0:
448,192,48881,1,0,0:0:0:0:
320,192,49037,1,0,0:0:0:0:
192,192,49193,1,0,0:0:0:0:
64,192,49350,128,0,49818:0:0:0:0:
192,192,49818,1,0,0:0:0:0:
320,192,50287,1,0,0:0:0:0:
64,192,50600,128,0,51068:0:0:0:0:
192,192,51068,128,0,51850:0:0:0:0:
448,192,51537,1,0,0:0:0:0:
320,192,51850,128,0,53100:0:0:0:0:
448,192,53100,128,0,53881:0:0:0:0:
64,192,53881,1,0,0:0:0:0:
192,192,54037,1,0,0:0:0:0:
320,192,54193,1,0,0:0:0:0:
448,192,54350,128,0,54818:0:0:0:0:
320,192,54818,1,0,0:0:0:0:
64,192,55287,1,0,0:0:0:0:
192,192,55287,1,0,0:0:0:0:
320,192,55600,128,0,56068:0:0:0:0:
448,192,56068,128,0,56537:0:0:0:0:
192,192,56537,1,0,0:0:0:0:
64,192,56850,128,0,57631:0:0:0:0:
448,192,57631,1,0,0:0:0:0:
320,192,57787,1,0,0:0:0:0:
192,192,57943,1,0,0:0:0:0:
448,192,58100,128,0,58881:0:0:0:0:
64,192,58881,1,0,0:0:0:0:
192,192,59037,1,0,0:0:0:0:
320,192,59193,1,0,0:0:0:0:
192,192,59350,128,0,59818:0:0:0:0:
320,192,59818,128,0,60287:0:0:0:0:
64,192,60287,1,0,0:0:0:0:
192,192,60600,128,0,61068:0:0:0:0:
320,192,61068,128,0,61850:0:0:0:0:
64,192,61850,128,0,62162:0:0:0:0:
320,192,62162,128,0,62787:0:0:0:0:
448,192,62787,1,0,0:0:0:0:
320,192,62943,1,0,0:0:0:0:
192,192,63100,128,0,63881:0:0:0:0:
64,192,63881,1,0,0:0:0:0:
192,192,64037,1,0,0:0:0:0:
320,192,64193,1,0,0:0:0:0:
448,192,64350,128,0,64818:0:0:0:0:
320,192,64818,128,0,65287:0:0:0:0:
192,192,65287,128,0,65600:0:0:0:0:
64,192,65600,128,0,66068:0:0:0:0:
192,192,66068,128,0,66537:0:0:0:0:
320,192,66537,128,0,66850:0:0:0:0:
448,192,66850,128,0,67631:0:0:0:0:
320,192,67631,1,0,0:0:0:0:
192,192,67787,1,0,0:0:0:0:
64,192,67943,1,0,0:0:0:0:
192,192,68100,128,0,68881:0:0:0:0:
320,192,68881,1,0,0:0:0:0:
192,192,69037,1,0,0:0:0:0:
64,192,69193,1,0,0:0:0:0:
320,192,69350,128,0,69818:0:0:0:0:
448,192,69818,128,0,70287:0:0:0:0:
320,192,70287,128,0,70600:0:0:0:0:
192,192,70600,128,0,71068:0:0:0:0:
64,192,71068,128,0,71850:0:0:0:0:
320,192,71537,1,0,0:0:0:0:
448,192,71850,128,0,73100:0:0:0:0:
320,192,73100,128,0,73881:0:0:0:0:
64,192,73881,1,0,0:0:0:0:
192,192,74037,1,0,0:0:0:0:
320,192,74193,1,0,0:0:0:0:
192,192,74350,128,0,74818:0:0:0:0:
320,192,74818,128,0,75287:0:0:0:0:
448,192,75287,128,0,75600:0:0:0:0:
192,192,75600,128,0,76068:0:0:0:0:
448,192,76068,128,0,76537:0:0:0:0:
320,192,76537,128,0,76850:0:0:0:0:
64,192,76850,128,0,77631:0:0:0:0:
192,192,77631,1,0,0:0:0:0:
320,192,77787,1,0,0:0:0:0:
448,192,77943,1,0,0:0:0:0:
192,192,78100,128,0,78881:0:0:0:0:
64,192,78881,1,0,0:0:0:0:
192,192,79037,1,0,0:0:0:0:
320,192,79193,1,0,0:0:0:0:
448,192,79350,128,0,79818:0:0:0:0:
320,192,79818,128,0,80287:0:0:0:0:
192,192,80287,128,0,80600:0:0:0:0:
320,192,80600,128,0,81068:0:0:0:0:
448,192,80600,128,0,81068:0:0:0:0:
192,192,81068,128,0,81850:0:0:0:0:
64,192,81068,128,0,81850:0:0:0:0:
448,192,84350,5,2,0:0:0:0:
320,192,84506,1,2,0:0:0:0:
64,192,84662,1,0,0:0:0:0:
192,192,84662,1,0,0:0:0:0:
320,192,84896,1,2,0:0:0:0:
448,192,85131,1,0,0:0:0:0:
192,192,85131,1,0,0:0:0:0:
320,192,85365,1,2,0:0:0:0:
192,192,85600,1,0,0:0:0:0:
64,192,85600,1,0,0:0:0:0:
320,192,85912,1,2,0:0:0:0:
448,192,86068,1,4,0:0:0:0:
64,192,86225,1,8,0:0:0:0:
192,192,86225,1,8,0:0:0:0:
64,192,86537,1,8,0:0:0:0:
192,192,86537,1,8,0:0:0:0:
448,192,86850,5,2,0:0:0:0:
320,192,87006,1,2,0:0:0:0:
64,192,87162,1,0,0:0:0:0:
192,192,87162,1,0,0:0:0:0:
192,192,87396,1,2,0:0:0:0:
64,192,87631,1,0,0:0:0:0:
320,192,87631,1,0,0:0:0:0:
192,192,87865,1,0,0:0:0:0:
320,192,88100,1,0,0:0:0:0:
448,192,88100,1,0,0:0:0:0:
64,192,88412,1,2,0:0:0:0:
192,192,88412,1,2,0:0:0:0:
64,192,88568,1,4,0:0:0:0:
320,192,88725,1,8,0:0:0:0:
448,192,88725,1,8,0:0:0:0:
320,192,89037,1,8,0:0:0:0:
448,192,89037,1,8,0:0:0:0:
64,192,89350,5,2,0:0:0:0:
192,192,89506,1,2,0:0:0:0:
320,192,89662,1,0,0:0:0:0:
448,192,89662,1,0,0:0:0:0:
320,192,89896,1,2,0:0:0:0:
448,192,90131,1,0,0:0:0:0:
192,192,90131,1,0,0:0:0:0:
320,192,90365,1,2,0:0:0:0:
192,192,90600,1,0,0:0:0:0:
64,192,90600,1,0,0:0:0:0:
448,192,90912,1,2,0:0:0:0:
320,192,90912,1,2,0:0:0:0:
448,192,91068,1,4,0:0:0:0:
64,192,91225,1,8,0:0:0:0:
192,192,91225,1,8,0:0:0:0:
64,192,91537,1,0,0:0:0:0:
192,192,91537,1,8,0:0:0:0:
448,192,91850,5,2,0:0:0:0:
320,192,92006,1,2,0:0:0:0:
64,192,92162,1,0,0:0:0:0:
192,192,92162,1,0,0:0:0:0:
192,192,92396,1,2,0:0:0:0:
64,192,92631,1,0,0:0:0:0:
320,192,92631,1,0,0:0:0:0:
192,192,92865,1,2,0:0:0:0:
320,192,93100,1,0,0:0:0:0:
448,192,93100,1,0,0:0:0:0:
64,192,93412,1,2,0:0:0:0:
192,192,93412,1,2,0:0:0:0:
64,192,93568,1,4,0:0:0:0:
320,192,93725,1,8,0:0:0:0:
448,192,93725,1,8,0:0:0:0:
320,192,94037,1,8,0:0:0:0:
448,192,94037,1,8,0:0:0:0:
64,192,94350,5,2,0:0:0:0:
192,192,94506,1,2,0:0:0:0:
448,192,94662,1,0,0:0:0:0:
320,192,94662,1,0,0:0:0:0:
320,192,94896,1,2,0:0:0:0:
192,192,95131,1,0,0:0:0:0:
448,192,95131,1,0,0:0:0:0:
320,192,95365,1,2,0:0:0:0:
64,192,95600,1,0,0:0:0:0:
192,192,95600,1,0,0:0:0:0:
448,192,95912,1,2,0:0:0:0:
320,192,95912,1,2,0:0:0:0:
448,192,96068,1,4,0:0:0:0:
192,192,96225,1,8,0:0:0:0:
64,192,96225,1,8,0:0:0:0:
192,192,96537,1,8,0:0:0:0:
64,192,96537,1,8,0:0:0:0:
448,192,96850,5,2,0:0:0:0:
320,192,97006,1,2,0:0:0:0:
192,192,97162,1,0,0:0:0:0:
64,192,97162,1,0,0:0:0:0:
192,192,97396,1,2,0:0:0:0:
320,192,97631,1,0,0:0:0:0:
64,192,97631,1,0,0:0:0:0:
192,192,97865,1,2,0:0:0:0:
448,192,98100,1,0,0:0:0:0:
320,192,98100,1,0,0:0:0:0:
64,192,98412,1,2,0:0:0:0:
192,192,98412,1,2,0:0:0:0:
64,192,98568,1,4,0:0:0:0:
448,192,98725,1,8,0:0:0:0:
320,192,98725,1,8,0:0:0:0:
448,192,99037,1,8,0:0:0:0:
320,192,99037,1,8,0:0:0:0:
64,192,99350,5,2,0:0:0:0:
192,192,99506,1,2,0:0:0:0:
320,192,99662,1,0,0:0:0:0:
448,192,99662,1,0,0:0:0:0:
320,192,99896,1,2,0:0:0:0:
448,192,100131,1,0,0:0:0:0:
192,192,100131,1,0,0:0:0:0:
320,192,100365,1,2,0:0:0:0:
192,192,100600,1,0,0:0:0:0:
64,192,100600,1,0,0:0:0:0:
448,192,100912,1,2,0:0:0:0:
320,192,100912,1,2,0:0:0:0:
448,192,101068,1,4,0:0:0:0:
64,192,101225,1,8,0:0:0:0:
192,192,101225,1,8,0:0:0:0:
64,192,101537,1,8,0:0:0:0:
192,192,101537,1,8,0:0:0:0:
448,192,101850,5,2,0:0:0:0:
320,192,102006,1,2,0:0:0:0:
64,192,102162,1,0,0:0:0:0:
192,192,102162,1,0,0:0:0:0:
192,192,102396,1,2,0:0:0:0:
64,192,102631,1,0,0:0:0:0:
320,192,102631,1,0,0:0:0:0:
192,192,102865,1,2,0:0:0:0:
320,192,103100,1,0,0:0:0:0:
448,192,103100,1,0,0:0:0:0:
64,192,103412,1,2,0:0:0:0:
192,192,103412,1,2,0:0:0:0:
64,192,103568,1,4,0:0:0:0:
320,192,103725,1,8,0:0:0:0:
448,192,103725,1,8,0:0:0:0:
320,192,104037,1,8,0:0:0:0:
448,192,104037,1,8,0:0:0:0:
64,192,104350,5,0,0:0:0:0:
192,192,104350,128,0,104662:0:0:0:0:
320,192,104662,1,0,0:0:0:0:
192,192,105131,1,4,0:0:0:0:
64,192,105287,1,2,0:0:0:0:
192,192,105443,1,0,0:0:0:0:
448,192,105600,128,12,106381:0:0:0:0:
320,192,105600,1,4,0:0:0:0:
320,192,106381,1,4,0:0:0:0:
192,192,106537,1,2,0:0:0:0:
64,192,106693,1,0,0:0:0:0:
320,192,106850,1,4,0:0:0:0:
448,192,106850,1,4,0:0:0:0:
320,192,107318,1,4,0:0:0:0:
64,192,107787,1,2,0:0:0:0:
448,192,108100,1,4,0:0:0:0:
64,192,108568,1,2,0:0:0:0:
320,192,108568,1,4,0:0:0:0:
192,192,109037,1,4,0:0:0:0:
320,192,109037,1,4,0:0:0:0:
448,192,109350,128,0,110131:0:0:0:0:
320,192,110131,1,0,0:0:0:0:
192,192,110287,1,2,0:0:0:0:
64,192,110443,1,4,0:0:0:0:
448,192,110600,1,4,0:0:0:0:
320,192,110600,128,4,111381:0:0:0:0:
192,192,111381,1,4,0:0:0:0:
64,192,111537,1,2,0:0:0:0:
192,192,111693,1,0,0:0:0:0:
320,192,111850,1,4,0:0:0:0:
448,192,111850,1,4,0:0:0:0:
192,192,112318,1,2,0:0:0:0:
320,192,112787,1,4,0:0:0:0:
64,192,113100,1,4,0:0:0:0:
192,192,113100,1,4,0:0:0:0:
320,192,113568,1,2,0:0:0:0:
192,192,114037,1,4,0:0:0:0:
320,192,114350,1,0,0:0:0:0:
448,192,114350,1,4,0:0:0:0:
192,192,115131,1,6,0:0:0:0:
320,192,115287,1,4,0:0:0:0:
448,192,115443,1,4,0:0:0:0:
320,192,115600,1,4,0:0:0:0:
192,192,115600,128,4,116381:0:0:0:0:
64,192,116381,1,4,0:0:0:0:
192,192,116537,1,2,0:0:0:0:
320,192,116693,1,0,0:0:0:0:
448,192,116850,1,0,0:0:0:0:
192,192,116850,1,4,0:0:0:0:
320,192,117318,1,0,0:0:0:0:
192,192,117787,1,2,0:0:0:0:
320,192,118100,1,4,0:0:0:0:
448,192,118100,1,4,0:0:0:0:
64,192,118568,1,0,0:0:0:0:
192,192,118568,1,0,0:0:0:0:
448,192,119037,1,2,0:0:0:0:
192,192,119350,1,0,0:0:0:0:
320,192,119350,128,4,120131:0:0:0:0:
64,192,120131,1,0,0:0:0:0:
192,192,120287,1,2,0:0:0:0:
320,192,120443,1,4,0:0:0:0:
448,192,120600,1,4,0:0:0:0:
192,192,120600,1,4,0:0:0:0:
320,192,121068,1,4,0:0:0:0:
192,192,121381,1,4,0:0:0:0:
64,192,121537,1,2,0:0:0:0:
320,192,121693,1,4,0:0:0:0:
192,192,121850,1,4,0:0:0:0:
448,192,121850,1,0,0:0:0:0:
320,192,122318,1,2,0:0:0:0:
64,192,122787,1,0,0:0:0:0:
192,192,122943,1,2,0:0:0:0:
320,192,123100,1,4,0:0:0:0:
448,192,123100,1,2,0:0:0:0:
192,192,123568,128,0,124350:0:0:0:0:
320,192,123568,128,0,124350:0:0:0:0:
64,192,124350,5,2,0:0:0:0:
192,192,124506,1,2,0:0:0:0:
320,192,124662,1,0,0:0:0:0:
448,192,124662,1,0,0:0:0:0:
320,192,124974,1,2,0:0:0:0:
448,192,125131,1,0,0:0:0:0:
192,192,125131,1,0,0:0:0:0:
320,192,125443,1,2,0:0:0:0:
192,192,125600,1,0,0:0:0:0:
64,192,125600,1,0,0:0:0:0:
320,192,125912,1,2,0:0:0:0:
448,192,126068,1,4,0:0:0:0:
64,192,126225,1,8,0:0:0:0:
192,192,126225,1,8,0:0:0:0:
64,192,126537,1,8,0:0:0:0:
192,192,126537,1,8,0:0:0:0:
448,192,126850,5,2,0:0:0:0:
320,192,127006,1,2,0:0:0:0:
64,192,127162,1,0,0:0:0:0:
192,192,127162,1,0,0:0:0:0:
192,192,127474,1,2,0:0:0:0:
64,192,127631,1,0,0:0:0:0:
320,192,127631,1,0,0:0:0:0:
192,192,127943,1,0,0:0:0:0:
320,192,128100,1,0,0:0:0:0:
448,192,128100,1,0,0:0:0:0:
192,192,128412,1,2,0:0:0:0:
64,192,128568,1,4,0:0:0:0:
320,192,128725,1,8,0:0:0:0:
448,192,128725,1,8,0:0:0:0:
320,192,129037,1,8,0:0:0:0:
448,192,129037,1,8,0:0:0:0:
64,192,129350,5,2,0:0:0:0:
192,192,129506,1,2,0:0:0:0:
320,192,129662,1,0,0:0:0:0:
448,192,129662,1,0,0:0:0:0:
320,192,129974,1,2,0:0:0:0:
448,192,130131,1,0,0:0:0:0:
192,192,130131,1,0,0:0:0:0:
320,192,130443,1,2,0:0:0:0:
192,192,130600,1,0,0:0:0:0:
64,192,130600,1,0,0:0:0:0:
320,192,130912,1,2,0:0:0:0:
448,192,131068,1,4,0:0:0:0:
64,192,131225,1,8,0:0:0:0:
192,192,131225,1,8,0:0:0:0:
64,192,131537,1,0,0:0:0:0:
192,192,131537,1,8,0:0:0:0:
448,192,131850,5,2,0:0:0:0:
320,192,132006,1,2,0:0:0:0:
64,192,132162,1,0,0:0:0:0:
192,192,132162,1,0,0:0:0:0:
192,192,132474,1,2,0:0:0:0:
64,192,132631,1,0,0:0:0:0:
320,192,132631,1,0,0:0:0:0:
192,192,132943,1,2,0:0:0:0:
320,192,133100,1,0,0:0:0:0:
448,192,133100,1,0,0:0:0:0:
192,192,133412,1,2,0:0:0:0:
64,192,133568,1,4,0:0:0:0:
320,192,133725,1,8,0:0:0:0:
448,192,133725,1,8,0:0:0:0:
320,192,134037,1,8,0:0:0:0:
448,192,134037,1,8,0:0:0:0:
64,192,134350,5,2,0:0:0:0:
192,192,134506,1,2,0:0:0:0:
448,192,134662,1,0,0:0:0:0:
320,192,134662,1,0,0:0:0:0:
320,192,134974,1,2,0:0:0:0:
192,192,135131,1,0,0:0:0:0:
448,192,135131,1,0,0:0:0:0:
320,192,135443,1,2,0:0:0:0:
64,192,135600,1,0,0:0:0:0:
192,192,135600,1,0,0:0:0:0:
320,192,135912,1,2,0:0:0:0:
448,192,136068,1,4,0:0:0:0:
192,192,136225,1,8,0:0:0:0:
64,192,136225,1,8,0:0:0:0:
192,192,136537,1,8,0:0:0:0:
64,192,136537,1,8,0:0:0:0:
448,192,136850,5,2,0:0:0:0:
320,192,137006,1,2,0:0:0:0:
192,192,137162,1,0,0:0:0:0:
64,192,137162,1,0,0:0:0:0:
192,192,137474,1,2,0:0:0:0:
320,192,137631,1,0,0:0:0:0:
64,192,137631,1,0,0:0:0:0:
192,192,137943,1,2,0:0:0:0:
448,192,138100,1,0,0:0:0:0:
320,192,138100,1,0,0:0:0:0:
192,192,138412,1,2,0:0:0:0:
64,192,138568,1,4,0:0:0:0:
448,192,138725,1,8,0:0:0:0:
320,192,138725,1,8,0:0:0:0:
448,192,139037,1,8,0:0:0:0:
320,192,139037,1,8,0:0:0:0:
64,192,139350,5,2,0:0:0:0:
192,192,139506,1,2,0:0:0:0:
320,192,139662,1,0,0:0:0:0:
448,192,139662,1,0,0:0:0:0:
320,192,139974,1,2,0:0:0:0:
448,192,140131,1,0,0:0:0:0:
192,192,140131,1,0,0:0:0:0:
320,192,140443,1,2,0:0:0:0:
192,192,140600,1,0,0:0:0:0:
64,192,140600,1,0,0:0:0:0:
320,192,140912,1,2,0:0:0:0:
448,192,141068,1,4,0:0:0:0:
64,192,141225,1,8,0:0:0:0:
192,192,141225,1,8,0:0:0:0:
64,192,141537,1,8,0:0:0:0:
192,192,141537,1,8,0:0:0:0:
448,192,141850,5,2,0:0:0:0:
320,192,142006,1,2,0:0:0:0:
64,192,142162,1,0,0:0:0:0:
192,192,142162,1,0,0:0:0:0:
192,192,142474,1,2,0:0:0:0:
64,192,142631,1,0,0:0:0:0:
320,192,142631,1,0,0:0:0:0:
192,192,142943,1,2,0:0:0:0:
320,192,143100,1,0,0:0:0:0:
448,192,143100,1,0,0:0:0:0:
192,192,143412,1,2,0:0:0:0:
64,192,143568,1,4,0:0:0:0:
320,192,143725,1,8,0:0:0:0:
448,192,143725,1,8,0:0:0:0:
320,192,144037,1,8,0:0:0:0:
448,192,144037,1,8,0:0:0:0:
64,192,144350,1,0,0:0:0:0:
192,192,144350,1,0,0:0:0:0:
320,192,144662,128,0,145287:0:0:0:0:
448,192,145287,1,0,0:0:0:0:
320,192,145443,1,0,0:0:0:0:
192,192,145600,128,0,146381:0:0:0:0:
64,192,146381,1,0,0:0:0:0:
192,192,146537,1,0,0:0:0:0:
320,192,146693,1,0,0:0:0:0:
448,192,146850,128,0,147318:0:0:0:0:
320,192,147318,128,0,147787:0:0:0:0:
192,192,147787,128,0,148100:0:0:0:0:
64,192,148100,128,0,148568:0:0:0:0:
192,192,148568,128,0,149037:0:0:0:0:
320,192,149037,128,0,149350:0:0:0:0:
448,192,149350,128,0,150131:0:0:0:0:
320,192,150131,1,0,0:0:0:0:
192,192,150287,1,0,0:0:0:0:
64,192,150443,1,0,0:0:0:0:
192,192,150600,128,0,151381:0:0:0:0:
320,192,151381,1,0,0:0:0:0:
192,192,151537,1,0,0:0:0:0:
64,192,151693,1,0,0:0:0:0:
320,192,151850,128,0,152318:0:0:0:0:
448,192,152318,128,0,152787:0:0:0:0:
320,192,152787,128,0,153100:0:0:0:0:
192,192,153100,128,0,153568:0:0:0:0:
64,192,153568,128,0,154350:0:0:0:0:
320,192,154037,1,0,0:0:0:0:
448,192,154350,128,0,155600:0:0:0:0:
320,192,155600,128,0,156381:0:0:0:0:
64,192,156381,1,0,0:0:0:0:
192,192,156537,1,0,0:0:0:0:
320,192,156693,1,0,0:0:0:0:
192,192,156850,128,0,157318:0:0:0:0:
320,192,157318,128,0,157787:0:0:0:0:
448,192,157787,128,0,158100:0:0:0:0:
192,192,158100,128,0,158568:0:0:0:0:
448,192,158568,128,0,159037:0:0:0:0:
320,192,159037,128,0,159350:0:0:0:0:
64,192,159350,128,0,160131:0:0:0:0:
192,192,160131,1,0,0:0:0:0:
320,192,160287,1,0,0:0:0:0:
448,192,160443,1,0,0:0:0:0:
192,192,160600,128,0,161381:0:0:0:0:
64,192,161381,1,0,0:0:0:0:
192,192,161537,1,0,0:0:0:0:
320,192,161693,1,0,0:0:0:0:
448,192,161850,128,0,162318:0:0:0:0:
320,192,162318,128,0,162787:0:0:0:0:
192,192,162787,128,0,163100:0:0:0:0:
320,192,163100,128,0,163568:0:0:0:0:
448,192,163100,128,0,163568:0:0:0:0:
192,192,163568,128,0,164350:0:0:0:0:
64,192,163568,128,0,164350:0:0:0:0:
320,192,164350,1,4,0:0:0:0:
448,192,164350,1,4,0:0:0:0:
192,192,164662,1,0,0:0:0:0:
64,192,165287,1,0,0:0:0:0:
192,192,165443,1,2,0:0:0:0:
320,192,165600,1,4,0:0:0:0:
448,192,165600,1,2,0:0:0:0:
448,192,166381,1,4,0:0:0:0:
320,192,166537,1,2,0:0:0:0:
192,192,166693,1,0,0:0:0:0:
64,192,166850,1,0,0:0:0:0:
320,192,166850,1,4,0:0:0:0:
320,192,167318,1,4,0:0:0:0:
192,192,167787,1,2,0:0:0:0:
64,192,167943,1,4,0:0:0:0:
192,192,168021,1,4,0:0:0:0:
320,192,168100,1,6,0:0:0:0:
448,192,168100,1,6,0:0:0:0:
64,192,168568,1,2,0:0:0:0:
448,192,169037,1,2,0:0:0:0:
192,192,169350,1,0,0:0:0:0:
320,192,169350,1,0,0:0:0:0:
64,192,170131,1,0,0:0:0:0:
192,192,170287,1,2,0:0:0:0:
320,192,170443,1,4,0:0:0:0:
192,192,170600,1,4,0:0:0:0:
64,192,170600,1,4,0:0:0:0:
448,192,171381,1,4,0:0:0:0:
320,192,171537,1,2,0:0:0:0:
192,192,171693,1,0,0:0:0:0:
320,192,171850,1,4,0:0:0:0:
448,192,171850,1,4,0:0:0:0:
192,192,172318,1,2,0:0:0:0:
320,192,172787,1,2,0:0:0:0:
448,192,172943,1,4,0:0:0:0:
320,192,173021,1,4,0:0:0:0:
192,192,173100,1,6,0:0:0:0:
64,192,173100,1,6,0:0:0:0:
448,192,173568,1,0,0:0:0:0:
64,192,174037,1,4,0:0:0:0:
192,192,174350,1,2,0:0:0:0:
448,192,174350,1,2,0:0:0:0:
64,192,175600,1,2,0:0:0:0:
320,192,175600,1,2,0:0:0:0:
192,192,176381,1,2,0:0:0:0:
320,192,176537,1,2,0:0:0:0:
192,192,176693,1,0,0:0:0:0:
64,192,176850,1,0,0:0:0:0:
448,192,176850,1,4,0:0:0:0:
320,192,177318,1,2,0:0:0:0:
448,192,177787,1,0,0:0:0:0:
64,192,178100,1,6,0:0:0:0:
192,192,178100,1,4,0:0:0:0:
64,192,178568,1,0,0:0:0:0:
448,192,179037,1,6,0:0:0:0:
192,192,179350,1,0,0:0:0:0:
320,192,179350,1,4,0:0:0:0:
192,192,180131,1,0,0:0:0:0:
320,192,180287,1,2,0:0:0:0:
192,192,180443,1,4,0:0:0:0:
64,192,180600,1,4,0:0:0:0:
448,192,180600,1,4,0:0:0:0:
192,192,181381,1,6,0:0:0:0:
320,192,181537,1,6,0:0:0:0:
64,192,181693,1,0,0:0:0:0:
192,192,181850,1,0,0:0:0:0:
448,192,181850,1,4,0:0:0:0:
320,192,182318,1,0,0:0:0:0:
192,192,182787,1,0,0:0:0:0:
64,192,183100,1,6,0:0:0:0:
448,192,183100,1,6,0:0:0:0:
320,192,183568,128,0,196771:0:0:0:0:
192,192,183568,128,0,196771:0:0:0:0:
