osu file format v14

[General]
AudioFilename: audio.mp3
AudioLeadIn: 0
PreviewTime: 124350
Countdown: 0
SampleSet: Soft
StackLeniency: 0.7
Mode: 3
LetterboxInBreaks: 0
SpecialStyle: 0
WidescreenStoryboard: 0

[Editor]
Bookmarks: 88262
DistanceSpacing: 0.8
BeatDivisor: 8
GridSize: 32
TimelineZoom: 1

[Metadata]
Title:Q
TitleUnicode:Q
Artist:Kiryu
ArtistUnicode:Kiryu
Creator:AetherKeys
Version:EXHAUST Lv.14
Source:Cytus chapter VIII
Tags:Cytus
BeatmapID:972599
BeatmapSetID:453564

[Difficulty]
HPDrainRate:7
CircleSize:4
OverallDifficulty:8
ApproachRate:7
SliderMultiplier:1
SliderTickRate:1

[Events]
//Background and Video events
0,0,"kiryu HD.jpg",0,0
//Break Periods
//Storyboard Layer 0 (Background)
//Storyboard Layer 1 (Fail)
//Storyboard Layer 2 (Pass)
//Storyboard Layer 3 (Foreground)
//Storyboard Sound Samples

[TimingPoints]
600,312.5,4,2,0,25,1,0
84350,-100,4,2,0,20,0,1
104428,-100,4,2,0,25,0,0
124350,-100,4,2,0,20,0,1
144271,-100,4,2,0,25,0,0
183100,-100,4,2,0,10,0,0
183178,-100,4,2,0,10,0,0

[HitObjects]
192,192,600,128,4,912:0:0:0:0:
64,192,600,128,0,1850:0:0:0:0:
448,192,912,1,6,0:0:0:0:
320,192,912,1,0,0:0:0:0:
192,192,1537,1,2,0:0:0:0:
448,192,1537,1,0,0:0:0:0:
320,192,1693,1,0,0:0:0:0:
192,192,1850,1,6,0:0:0:0:
448,192,1850,128,2,3100:0:0:0:0:
64,192,2631,1,0,0:0:0:0:
320,192,2631,1,0,0:0:0:0:
192,192,2787,1,0,0:0:0:0:
64,192,2943,1,0,0:0:0:0:
192,192,3100,1,6,0:0:0:0:
320,192,3100,128,2,4350:0:0:0:0:
64,192,3568,128,0,4037:0:0:0:0:
192,192,3568,1,0,0:0:0:0:
448,192,4037,1,6,0:0:0:0:
192,192,4037,1,6,0:0:0:0:
448,192,4350,1,6,0:0:0:0:
192,192,4350,128,0,5600:0:0:0:0:
320,192,4857,128,0,5287:0:0:0:0:
448,192,4857,1,0,0:0:0:0:
448,192,5287,1,6,0:0:0:0:
64,192,5287,1,6,0:0:0:0:
320,192,5600,1,6,0:0:0:0:
64,192,5600,128,0,6850:0:0:0:0:
448,192,6381,1,0,0:0:0:0:
320,192,6381,1,2,0:0:0:0:
192,192,6537,1,0,0:0:0:0:
320,192,6693,1,2,0:0:0:0:
192,192,6850,1,4,0:0:0:0:
448,192,6850,128,4,8100:0:0:0:0:
320,192,7631,1,2,0:0:0:0:
64,192,7631,1,0,0:0:0:0:
192,192,7787,1,0,0:0:0:0:
64,192,7943,1,2,0:0:0:0:
192,192,8100,1,2,0:0:0:0:
320,192,8100,128,0,9350:0:0:0:0:
192,192,8568,128,0,9037:0:0:0:0:
64,192,8568,1,0,0:0:0:0:
448,192,9037,1,2,0:0:0:0:
192,192,9350,128,4,10600:0:0:0:0:
64,192,9350,128,4,9818:0:0:0:0:
320,192,9818,1,6,0:0:0:0:
448,192,9818,1,4,0:0:0:0:
448,192,10287,1,2,0:0:0:0:
320,192,10600,1,4,0:0:0:0:
64,192,10600,128,0,11850:0:0:0:0:
192,192,11381,1,0,0:0:0:0:
448,192,11381,1,4,0:0:0:0:
320,192,11537,1,4,0:0:0:0:
448,192,11693,1,6,0:0:0:0:
320,192,11850,1,0,0:0:0:0:
192,192,11850,128,0,13100:0:0:0:0:
448,192,12318,1,0,0:0:0:0:
320,192,12631,1,2,0:0:0:0:
64,192,12631,1,0,0:0:0:0:
448,192,12787,1,0,0:0:0:0:
64,192,12943,1,0,0:0:0:0:
320,192,13100,1,4,0:0:0:0:
448,192,13100,128,4,14350:0:0:0:0:
320,192,13568,1,4,0:0:0:0:
192,192,13568,1,6,0:0:0:0:
192,192,14037,1,2,0:0:0:0:
64,192,14037,1,0,0:0:0:0:
320,192,14193,1,0,0:0:0:0:
64,192,14350,128,4,15600:0:0:0:0:
192,192,14350,1,4,0:0:0:0:
192,192,14818,1,2,0:0:0:0:
448,192,14818,1,0,0:0:0:0:
320,192,14818,128,0,15287:0:0:0:0:
448,192,15287,128,0,15600:0:0:0:0:
192,192,15600,128,0,16850:0:0:0:0:
320,192,15600,1,0,0:0:0:0:
448,192,16381,1,2,0:0:0:0:
320,192,16381,1,0,0:0:0:0:
64,192,16537,1,0,0:0:0:0:
448,192,16693,1,0,0:0:0:0:
320,192,16850,128,4,18100:0:0:0:0:
448,192,16850,1,4,0:0:0:0:
64,192,16850,128,0,17318:0:0:0:0:
192,192,17318,1,2,0:0:0:0:
448,192,17631,1,0,0:0:0:0:
64,192,17631,1,0,0:0:0:0:
192,192,17787,1,2,0:0:0:0:
448,192,17943,1,0,0:0:0:0:
192,192,18100,1,4,0:0:0:0:
64,192,18100,128,4,19350:0:0:0:0:
192,192,18568,128,2,19037:0:0:0:0:
320,192,18568,1,2,0:0:0:0:
448,192,18568,1,2,0:0:0:0:
448,192,19037,1,4,0:0:0:0:
320,192,19193,1,0,0:0:0:0:
448,192,19271,1,0,0:0:0:0:
192,192,19350,1,4,0:0:0:0:
320,192,19350,128,6,21654:0:0:0:0:
64,192,19818,128,4,21654:0:0:0:0:
192,192,19818,128,4,21654:0:0:0:0:
320,192,21850,1,0,0:0:0:0:
448,192,21850,1,0,0:0:0:0:
320,192,22006,1,0,0:0:0:0:
448,192,22006,1,0,0:0:0:0:
64,192,22162,1,0,0:0:0:0:
192,192,22162,1,0,0:0:0:0:
320,192,22162,1,0,0:0:0:0:
448,192,22240,1,0,0:0:0:0:
320,192,22357,1,0,0:0:0:0:
192,192,22475,1,0,0:0:0:0:
320,192,22631,1,0,0:0:0:0:
448,192,22631,1,0,0:0:0:0:
64,192,22787,1,0,0:0:0:0:
192,192,22865,1,0,0:0:0:0:
320,192,22943,1,0,0:0:0:0:
448,192,22943,1,0,0:0:0:0:
64,192,23100,1,0,0:0:0:0:
192,192,23100,1,0,0:0:0:0:
64,192,23256,1,0,0:0:0:0:
192,192,23256,1,0,0:0:0:0:
192,192,23412,1,0,0:0:0:0:
320,192,23412,1,0,0:0:0:0:
448,192,23412,1,0,0:0:0:0:
64,192,23490,1,0,0:0:0:0:
192,192,23607,1,0,0:0:0:0:
320,192,23725,1,0,0:0:0:0:
64,192,23881,1,0,0:0:0:0:
192,192,23881,1,0,0:0:0:0:
448,192,24037,1,0,0:0:0:0:
320,192,24115,1,0,0:0:0:0:
192,192,24193,1,0,0:0:0:0:
64,192,24193,1,0,0:0:0:0:
320,192,24350,1,0,0:0:0:0:
448,192,24350,1,0,0:0:0:0:
320,192,24506,1,0,0:0:0:0:
448,192,24506,1,0,0:0:0:0:
64,192,24662,1,0,0:0:0:0:
192,192,24662,1,0,0:0:0:0:
320,192,24662,1,0,0:0:0:0:
448,192,24740,1,0,0:0:0:0:
320,192,24857,1,0,0:0:0:0:
192,192,24975,1,0,0:0:0:0:
320,192,25131,1,0,0:0:0:0:
448,192,25131,1,0,0:0:0:0:
64,192,25287,1,0,0:0:0:0:
192,192,25365,1,0,0:0:0:0:
320,192,25443,1,0,0:0:0:0:
448,192,25443,1,0,0:0:0:0:
64,192,25600,1,0,0:0:0:0:
192,192,25600,1,0,0:0:0:0:
64,192,25756,1,0,0:0:0:0:
192,192,25756,1,0,0:0:0:0:
192,192,25912,1,0,0:0:0:0:
320,192,25912,1,0,0:0:0:0:
448,192,25912,1,0,0:0:0:0:
64,192,25990,1,0,0:0:0:0:
192,192,26107,1,0,0:0:0:0:
320,192,26225,1,0,0:0:0:0:
64,192,26381,1,0,0:0:0:0:
192,192,26381,1,0,0:0:0:0:
448,192,26537,1,0,0:0:0:0:
320,192,26615,1,0,0:0:0:0:
192,192,26693,1,0,0:0:0:0:
64,192,26693,1,0,0:0:0:0:
320,192,26850,1,0,0:0:0:0:
448,192,26850,1,0,0:0:0:0:
320,192,27006,1,0,0:0:0:0:
448,192,27006,1,0,0:0:0:0:
64,192,27162,1,0,0:0:0:0:
192,192,27162,1,0,0:0:0:0:
320,192,27162,1,0,0:0:0:0:
448,192,27240,1,0,0:0:0:0:
320,192,27357,1,0,0:0:0:0:
192,192,27475,1,0,0:0:0:0:
320,192,27631,1,0,0:0:0:0:
448,192,27631,1,0,0:0:0:0:
64,192,27787,1,0,0:0:0:0:
192,192,27865,1,0,0:0:0:0:
320,192,27943,1,0,0:0:0:0:
448,192,27943,1,0,0:0:0:0:
448,192,28100,1,0,0:0:0:0:
320,192,28100,1,0,0:0:0:0:
448,192,28256,1,0,0:0:0:0:
320,192,28256,1,0,0:0:0:0:
320,192,28412,1,0,0:0:0:0:
192,192,28412,1,0,0:0:0:0:
64,192,28412,1,0,0:0:0:0:
448,192,28490,1,0,0:0:0:0:
320,192,28607,1,0,0:0:0:0:
192,192,28725,1,0,0:0:0:0:
448,192,28881,1,0,0:0:0:0:
320,192,28881,1,0,0:0:0:0:
64,192,29037,1,0,0:0:0:0:
192,192,29115,1,0,0:0:0:0:
448,192,29193,1,0,0:0:0:0:
320,192,29193,1,0,0:0:0:0:
192,192,29350,1,0,0:0:0:0:
64,192,29350,1,0,0:0:0:0:
192,192,29506,1,0,0:0:0:0:
64,192,29506,1,0,0:0:0:0:
448,192,29662,1,0,0:0:0:0:
320,192,29662,1,0,0:0:0:0:
192,192,29662,1,0,0:0:0:0:
64,192,29740,1,0,0:0:0:0:
192,192,29857,1,0,0:0:0:0:
320,192,29975,1,0,0:0:0:0:
192,192,30131,1,0,0:0:0:0:
64,192,30131,1,0,0:0:0:0:
448,192,30287,1,0,0:0:0:0:
320,192,30365,1,0,0:0:0:0:
64,192,30443,1,0,0:0:0:0:
192,192,30443,1,0,0:0:0:0:
448,192,30600,1,0,0:0:0:0:
320,192,30600,1,0,0:0:0:0:
448,192,30756,1,0,0:0:0:0:
320,192,30756,1,0,0:0:0:0:
320,192,30912,1,0,0:0:0:0:
192,192,30912,1,0,0:0:0:0:
64,192,30912,1,0,0:0:0:0:
448,192,30990,1,0,0:0:0:0:
320,192,31107,1,0,0:0:0:0:
192,192,31225,1,0,0:0:0:0:
448,192,31381,1,0,0:0:0:0:
320,192,31381,1,0,0:0:0:0:
64,192,31537,1,0,0:0:0:0:
192,192,31615,1,0,0:0:0:0:
448,192,31693,1,0,0:0:0:0:
320,192,31693,1,0,0:0:0:0:
320,192,31850,1,0,0:0:0:0:
448,192,31850,1,0,0:0:0:0:
320,192,32006,1,0,0:0:0:0:
448,192,32006,1,0,0:0:0:0:
64,192,32162,1,0,0:0:0:0:
192,192,32162,1,0,0:0:0:0:
320,192,32162,1,0,0:0:0:0:
448,192,32240,1,0,0:0:0:0:
320,192,32357,1,0,0:0:0:0:
192,192,32475,1,0,0:0:0:0:
320,192,32631,1,0,0:0:0:0:
448,192,32631,1,0,0:0:0:0:
64,192,32787,1,0,0:0:0:0:
192,192,32865,1,0,0:0:0:0:
320,192,32943,1,0,0:0:0:0:
448,192,32943,1,0,0:0:0:0:
64,192,33100,1,0,0:0:0:0:
192,192,33100,1,0,0:0:0:0:
64,192,33256,1,0,0:0:0:0:
192,192,33256,1,0,0:0:0:0:
192,192,33412,1,0,0:0:0:0:
320,192,33412,1,0,0:0:0:0:
448,192,33412,1,0,0:0:0:0:
64,192,33490,1,0,0:0:0:0:
192,192,33607,1,0,0:0:0:0:
320,192,33725,1,0,0:0:0:0:
64,192,33881,1,0,0:0:0:0:
192,192,33881,1,0,0:0:0:0:
448,192,34037,1,0,0:0:0:0:
320,192,34115,1,0,0:0:0:0:
192,192,34193,1,0,0:0:0:0:
64,192,34193,1,0,0:0:0:0:
320,192,34350,1,0,0:0:0:0:
448,192,34350,1,0,0:0:0:0:
320,192,34506,1,0,0:0:0:0:
448,192,34506,1,0,0:0:0:0:
64,192,34662,1,0,0:0:0:0:
192,192,34662,1,0,0:0:0:0:
320,192,34662,1,0,0:0:0:0:
448,192,34740,1,0,0:0:0:0:
320,192,34857,1,0,0:0:0:0:
192,192,34975,1,0,0:0:0:0:
320,192,35131,1,0,0:0:0:0:
448,192,35131,1,0,0:0:0:0:
64,192,35287,1,0,0:0:0:0:
192,192,35365,1,0,0:0:0:0:
320,192,35443,1,0,0:0:0:0:
448,192,35443,1,0,0:0:0:0:
64,192,35600,1,0,0:0:0:0:
192,192,35600,1,0,0:0:0:0:
64,192,35756,1,0,0:0:0:0:
192,192,35756,1,0,0:0:0:0:
192,192,35912,1,0,0:0:0:0:
320,192,35912,1,0,0:0:0:0:
448,192,35912,1,0,0:0:0:0:
64,192,35990,1,0,0:0:0:0:
192,192,36107,1,0,0:0:0:0:
320,192,36225,1,0,0:0:0:0:
64,192,36381,1,0,0:0:0:0:
192,192,36381,1,0,0:0:0:0:
448,192,36537,1,0,0:0:0:0:
320,192,36615,1,0,0:0:0:0:
192,192,36693,1,0,0:0:0:0:
64,192,36693,1,0,0:0:0:0:
320,192,36850,1,0,0:0:0:0:
448,192,36850,1,0,0:0:0:0:
320,192,37006,1,0,0:0:0:0:
448,192,37006,1,0,0:0:0:0:
64,192,37162,1,0,0:0:0:0:
192,192,37162,1,0,0:0:0:0:
320,192,37162,1,0,0:0:0:0:
448,192,37240,1,0,0:0:0:0:
320,192,37357,1,0,0:0:0:0:
192,192,37475,1,0,0:0:0:0:
320,192,37631,1,0,0:0:0:0:
448,192,37631,1,0,0:0:0:0:
64,192,37787,1,0,0:0:0:0:
192,192,37865,1,0,0:0:0:0:
320,192,37943,1,0,0:0:0:0:
448,192,37943,1,0,0:0:0:0:
192,192,38100,1,0,0:0:0:0:
64,192,38100,1,0,0:0:0:0:
192,192,38256,1,0,0:0:0:0:
64,192,38256,1,0,0:0:0:0:
448,192,38412,1,0,0:0:0:0:
320,192,38412,1,0,0:0:0:0:
192,192,38412,1,0,0:0:0:0:
64,192,38490,1,0,0:0:0:0:
192,192,38607,1,0,0:0:0:0:
320,192,38725,1,0,0:0:0:0:
192,192,38881,1,0,0:0:0:0:
64,192,38881,1,0,0:0:0:0:
448,192,39037,1,0,0:0:0:0:
320,192,39115,1,0,0:0:0:0:
192,192,39193,1,0,0:0:0:0:
64,192,39193,1,0,0:0:0:0:
64,192,39350,1,0,0:0:0:0:
320,192,39350,1,0,0:0:0:0:
448,192,39350,1,0,0:0:0:0:
64,192,39506,1,0,0:0:0:0:
320,192,39506,1,0,0:0:0:0:
448,192,39506,1,0,0:0:0:0:
64,192,39662,1,0,0:0:0:0:
192,192,39662,1,0,0:0:0:0:
320,192,39662,1,0,0:0:0:0:
448,192,39662,1,0,0:0:0:0:
64,192,39779,1,0,0:0:0:0:
192,192,39896,1,0,0:0:0:0:
320,192,40014,1,0,0:0:0:0:
64,192,40131,1,0,0:0:0:0:
192,192,40131,1,0,0:0:0:0:
448,192,40131,1,0,0:0:0:0:
320,192,40248,1,0,0:0:0:0:
192,192,40365,1,0,0:0:0:0:
320,192,40482,1,0,0:0:0:0:
64,192,40600,128,2,41850:0:0:0:0:
192,192,40600,1,0,0:0:0:0:
448,192,40600,1,0,0:0:0:0:
320,192,41225,1,0,0:0:0:0:
448,192,41225,1,0,0:0:0:0:
192,192,41381,1,0,0:0:0:0:
320,192,41537,1,0,0:0:0:0:
448,192,41693,1,0,0:0:0:0:
320,192,41850,128,0,42162:0:0:0:0:
448,192,41850,128,0,42162:0:0:0:0:
192,192,42162,128,0,43100:0:0:0:0:
64,192,42162,1,0,0:0:0:0:
320,192,42748,128,0,43100:0:0:0:0:
448,192,42904,128,0,43100:0:0:0:0:
64,192,43100,128,0,43881:0:0:0:0:
192,192,43881,128,0,44037:0:0:0:0:
320,192,43881,1,0,0:0:0:0:
320,192,44037,128,0,44193:0:0:0:0:
448,192,44037,1,0,0:0:0:0:
448,192,44193,128,0,44350:0:0:0:0:
192,192,44350,128,0,44818:0:0:0:0:
64,192,44350,1,0,0:0:0:0:
320,192,44350,1,0,0:0:0:0:
320,192,44818,128,0,45600:0:0:0:0:
448,192,44818,1,0,0:0:0:0:
448,192,45287,128,0,45600:0:0:0:0:
192,192,45600,128,0,46850:0:0:0:0:
64,192,46068,128,0,46537:0:0:0:0:
320,192,46068,1,0,0:0:0:0:
448,192,46537,128,0,46850:0:0:0:0:
320,192,46537,128,0,46850:0:0:0:0:
64,192,46850,128,0,47631:0:0:0:0:
192,192,47631,128,0,47787:0:0:0:0:
320,192,47631,1,0,0:0:0:0:
320,192,47787,128,0,47943:0:0:0:0:
448,192,47787,1,0,0:0:0:0:
448,192,47943,128,0,48100:0:0:0:0:
192,192,48100,128,0,49350:0:0:0:0:
320,192,48100,1,0,0:0:0:0:
64,192,48100,128,0,48881:0:0:0:0:
320,192,48881,128,0,49037:0:0:0:0:
448,192,49037,128,0,49193:0:0:0:0:
320,192,49193,128,0,49350:0:0:0:0:
64,192,49350,128,0,50600:0:0:0:0:
192,192,49818,128,0,50600:0:0:0:0:
320,192,49818,1,0,0:0:0:0:
320,192,50248,128,0,50600:0:0:0:0:
448,192,50248,1,0,0:0:0:0:
448,192,50600,128,0,51850:0:0:0:0:
192,192,51068,128,0,51537:0:0:0:0:
64,192,51068,128,0,51537:0:0:0:0:
320,192,51537,128,0,51850:0:0:0:0:
192,192,51850,128,0,53100:0:0:0:0:
64,192,51850,128,0,53100:0:0:0:0:
320,192,53100,1,0,0:0:0:0:
448,192,53100,128,0,53881:0:0:0:0:
320,192,53881,128,0,54037:0:0:0:0:
192,192,53881,1,0,0:0:0:0:
192,192,54037,128,0,54193:0:0:0:0:
64,192,54037,1,0,0:0:0:0:
64,192,54193,128,0,54350:0:0:0:0:
320,192,54350,128,0,55600:0:0:0:0:
448,192,54350,128,0,54818:0:0:0:0:
64,192,54818,128,0,55287:0:0:0:0:
192,192,54818,1,0,0:0:0:0:
192,192,55287,128,0,55600:0:0:0:0:
448,192,55287,1,0,0:0:0:0:
64,192,55600,128,0,56850:0:0:0:0:
192,192,56068,128,0,56850:0:0:0:0:
320,192,56068,1,0,0:0:0:0:
448,192,56068,1,0,0:0:0:0:
320,192,56537,128,0,56850:0:0:0:0:
448,192,56537,1,0,0:0:0:0:
448,192,56850,128,0,57631:0:0:0:0:
320,192,57631,128,0,57787:0:0:0:0:
192,192,57631,1,0,0:0:0:0:
192,192,57787,128,0,57943:0:0:0:0:
64,192,57787,1,0,0:0:0:0:
64,192,57943,128,0,58881:0:0:0:0:
192,192,58100,128,0,59037:0:0:0:0:
320,192,58100,1,0,0:0:0:0:
448,192,58100,1,0,0:0:0:0:
448,192,58881,128,0,59037:0:0:0:0:
320,192,59037,128,0,59193:0:0:0:0:
192,192,59193,128,0,59350:0:0:0:0:
320,192,59350,1,0,0:0:0:0:
64,192,59350,128,0,60600:0:0:0:0:
192,192,59857,128,0,60287:0:0:0:0:
448,192,59857,128,0,60287:0:0:0:0:
320,192,59857,1,0,0:0:0:0:
320,192,60287,128,0,60600:0:0:0:0:
192,192,60600,1,0,0:0:0:0:
448,192,60600,128,0,61850:0:0:0:0:
192,192,61068,128,0,61850:0:0:0:0:
64,192,61068,1,0,0:0:0:0:
320,192,61068,1,0,0:0:0:0:
64,192,61850,128,0,63100:0:0:0:0:
320,192,61850,128,0,62162:0:0:0:0:
192,192,62162,128,0,62787:0:0:0:0:
448,192,62162,128,0,62787:0:0:0:0:
320,192,62787,128,0,62943:0:0:0:0:
192,192,62943,128,0,63100:0:0:0:0:
448,192,63100,128,0,64350:0:0:0:0:
320,192,63100,128,0,63725:0:0:0:0:
192,192,63725,128,0,63881:0:0:0:0:
64,192,63725,1,0,0:0:0:0:
64,192,63881,128,0,64037:0:0:0:0:
320,192,63881,1,0,0:0:0:0:
192,192,64037,128,0,64193:0:0:0:0:
320,192,64193,128,0,64350:0:0:0:0:
64,192,64350,128,0,64818:0:0:0:0:
192,192,64350,128,0,65600:0:0:0:0:
448,192,64818,128,0,65287:0:0:0:0:
320,192,64818,1,0,0:0:0:0:
320,192,65287,128,0,65600:0:0:0:0:
448,192,65600,128,0,66068:0:0:0:0:
64,192,65600,128,0,66850:0:0:0:0:
192,192,66068,128,0,66537:0:0:0:0:
320,192,66068,128,0,66537:0:0:0:0:
448,192,66537,128,0,66850:0:0:0:0:
320,192,66850,128,0,67631:0:0:0:0:
192,192,66850,128,0,68100:0:0:0:0:
64,192,67631,128,0,67787:0:0:0:0:
448,192,67631,1,0,0:0:0:0:
320,192,67787,128,0,67943:0:0:0:0:
448,192,67787,1,0,0:0:0:0:
448,192,67943,128,0,68100:0:0:0:0:
64,192,68100,128,0,68881:0:0:0:0:
320,192,68100,128,0,69350:0:0:0:0:
192,192,68881,128,0,69037:0:0:0:0:
448,192,68881,1,0,0:0:0:0:
64,192,69037,128,0,69193:0:0:0:0:
448,192,69037,1,0,0:0:0:0:
448,192,69193,128,0,69350:0:0:0:0:
192,192,69350,128,0,70600:0:0:0:0:
64,192,69350,128,0,69818:0:0:0:0:
320,192,69818,128,0,70287:0:0:0:0:
448,192,69818,1,0,0:0:0:0:
448,192,70287,128,0,70600:0:0:0:0:
64,192,70287,1,0,0:0:0:0:
320,192,70600,128,0,71068:0:0:0:0:
64,192,70600,128,0,71850:0:0:0:0:
192,192,71068,128,0,71850:0:0:0:0:
448,192,71068,1,0,0:0:0:0:
448,192,71537,1,0,0:0:0:0:
320,192,71537,1,0,0:0:0:0:
320,192,71850,128,0,73100:0:0:0:0:
448,192,71850,128,0,73100:0:0:0:0:
64,192,73100,128,0,74350:0:0:0:0:
192,192,73100,128,0,73881:0:0:0:0:
320,192,73881,128,0,74037:0:0:0:0:
448,192,73881,1,0,0:0:0:0:
448,192,74037,128,0,74193:0:0:0:0:
192,192,74037,1,0,0:0:0:0:
320,192,74193,128,0,74350:0:0:0:0:
192,192,74350,128,0,74818:0:0:0:0:
448,192,74350,128,0,75600:0:0:0:0:
64,192,74818,128,0,75287:0:0:0:0:
320,192,74818,1,0,0:0:0:0:
192,192,75287,128,0,75600:0:0:0:0:
320,192,75287,1,0,0:0:0:0:
320,192,75600,128,0,76850:0:0:0:0:
64,192,75600,128,0,76107:0:0:0:0:
192,192,76107,128,0,76537:0:0:0:0:
448,192,76107,1,0,0:0:0:0:
64,192,76537,128,0,76850:0:0:0:0:
448,192,76537,1,0,0:0:0:0:
192,192,76850,128,0,78100:0:0:0:0:
448,192,76850,128,0,77631:0:0:0:0:
320,192,77631,128,0,77787:0:0:0:0:
64,192,77631,1,0,0:0:0:0:
64,192,77787,128,0,77943:0:0:0:0:
448,192,77787,1,0,0:0:0:0:
320,192,77943,128,0,78100:0:0:0:0:
448,192,78100,128,0,78881:0:0:0:0:
64,192,78100,128,0,79350:0:0:0:0:
320,192,78881,128,0,79037:0:0:0:0:
192,192,78881,1,0,0:0:0:0:
192,192,79037,128,0,79193:0:0:0:0:
448,192,79037,1,0,0:0:0:0:
320,192,79193,128,0,79350:0:0:0:0:
192,192,79350,128,0,79818:0:0:0:0:
448,192,79350,1,0,0:0:0:0:
64,192,79818,128,0,81850:0:0:0:0:
320,192,79818,1,0,0:0:0:0:
448,192,79818,1,0,0:0:0:0:
192,192,80287,128,0,81850:0:0:0:0:
320,192,80287,1,0,0:0:0:0:
448,192,80287,1,0,0:0:0:0:
320,192,80600,128,0,81850:0:0:0:0:
448,192,80600,1,0,0:0:0:0:
448,192,81068,128,0,81850:0:0:0:0:
320,192,84350,1,4,2:2:0:0:
448,192,84350,1,4,2:2:0:0:
192,192,84350,1,0,0:0:0:0:
64,192,84467,1,2,0:0:0:0:
192,192,84545,1,2,0:0:0:0:
64,192,84662,1,0,0:0:0:0:
320,192,84662,1,0,0:0:0:0:
448,192,84662,1,0,0:0:0:0:
192,192,84779,1,0,0:0:0:0:
320,192,84896,1,2,0:0:0:0:
448,192,85014,1,2,0:0:0:0:
320,192,85131,1,4,0:0:0:0:
192,192,85131,1,4,0:0:0:0:
64,192,85131,1,4,0:0:0:0:
320,192,85287,1,0,0:0:0:0:
192,192,85287,1,0,0:0:0:0:
64,192,85404,1,2,0:0:0:0:
192,192,85482,1,2,0:0:0:0:
320,192,85600,1,0,0:0:0:0:
448,192,85600,1,0,0:0:0:0:
320,192,85756,1,0,0:0:0:0:
448,192,85756,1,0,0:0:0:0:
192,192,85912,1,0,0:0:0:0:
64,192,85912,1,0,0:0:0:0:
192,192,86029,1,0,0:0:0:0:
448,192,86107,1,0,0:0:0:0:
320,192,86107,1,0,0:0:0:0:
192,192,86225,1,0,0:0:0:0:
64,192,86225,1,0,0:0:0:0:
448,192,86381,1,4,0:0:0:0:
320,192,86381,1,4,0:0:0:0:
64,192,86498,1,0,0:0:0:0:
192,192,86576,1,0,0:0:0:0:
320,192,86693,1,0,0:0:0:0:
448,192,86693,1,0,0:0:0:0:
192,192,86850,1,4,0:0:0:0:
64,192,86850,1,4,0:0:0:0:
448,192,86967,1,2,0:0:0:0:
320,192,87045,1,2,0:0:0:0:
64,192,87162,1,0,0:0:0:0:
192,192,87162,1,0,0:0:0:0:
448,192,87162,1,0,0:0:0:0:
320,192,87279,1,2,0:0:0:0:
192,192,87396,1,2,0:0:0:0:
64,192,87514,1,2,0:0:0:0:
448,192,87631,1,4,0:0:0:0:
192,192,87631,1,4,0:0:0:0:
320,192,87631,1,4,0:0:0:0:
320,192,87787,1,0,0:0:0:0:
192,192,87787,1,0,0:0:0:0:
448,192,87904,1,2,0:0:0:0:
320,192,87982,1,2,0:0:0:0:
64,192,88100,1,0,0:0:0:0:
192,192,88100,1,0,0:0:0:0:
192,192,88256,1,0,0:0:0:0:
64,192,88256,1,0,0:0:0:0:
320,192,88412,1,0,0:0:0:0:
448,192,88412,1,0,0:0:0:0:
320,192,88529,1,0,0:0:0:0:
64,192,88607,1,0,0:0:0:0:
192,192,88607,1,0,0:0:0:0:
448,192,88725,1,0,0:0:0:0:
64,192,88881,1,4,0:0:0:0:
192,192,88881,1,4,0:0:0:0:
320,192,88881,1,0,0:0:0:0:
192,192,89037,1,0,0:0:0:0:
64,192,89037,1,0,0:0:0:0:
320,192,89037,1,0,0:0:0:0:
192,192,89193,1,0,0:0:0:0:
64,192,89193,1,0,0:0:0:0:
320,192,89193,1,0,0:0:0:0:
64,192,89350,1,4,2:2:0:0:
192,192,89350,1,4,2:2:0:0:
320,192,89350,1,0,0:0:0:0:
448,192,89467,1,2,0:0:0:0:
320,192,89545,1,2,0:0:0:0:
64,192,89662,1,0,0:0:0:0:
192,192,89662,1,0,0:0:0:0:
448,192,89662,1,0,0:0:0:0:
320,192,89779,1,0,0:0:0:0:
192,192,89896,1,2,0:0:0:0:
64,192,90014,1,2,0:0:0:0:
320,192,90131,1,4,0:0:0:0:
192,192,90131,1,4,0:0:0:0:
448,192,90131,1,4,0:0:0:0:
320,192,90287,1,0,0:0:0:0:
192,192,90287,1,0,0:0:0:0:
448,192,90404,1,2,0:0:0:0:
320,192,90482,1,2,0:0:0:0:
64,192,90600,1,0,0:0:0:0:
192,192,90600,1,0,0:0:0:0:
64,192,90756,1,0,0:0:0:0:
192,192,90756,1,0,0:0:0:0:
448,192,90912,1,0,0:0:0:0:
320,192,90912,1,0,0:0:0:0:
320,192,91029,1,0,0:0:0:0:
192,192,91107,1,0,0:0:0:0:
64,192,91107,1,0,0:0:0:0:
448,192,91225,1,0,0:0:0:0:
320,192,91225,1,0,0:0:0:0:
192,192,91381,1,4,0:0:0:0:
64,192,91381,1,4,0:0:0:0:
448,192,91498,1,0,0:0:0:0:
320,192,91576,1,0,0:0:0:0:
64,192,91693,1,0,0:0:0:0:
192,192,91693,1,0,0:0:0:0:
448,192,91850,1,4,0:0:0:0:
320,192,91850,1,4,0:0:0:0:
64,192,91967,1,2,0:0:0:0:
192,192,92045,1,2,0:0:0:0:
64,192,92162,1,0,0:0:0:0:
320,192,92162,1,0,0:0:0:0:
448,192,92162,1,0,0:0:0:0:
192,192,92279,1,2,0:0:0:0:
320,192,92396,1,2,0:0:0:0:
448,192,92514,1,2,0:0:0:0:
64,192,92631,1,4,0:0:0:0:
192,192,92631,1,4,0:0:0:0:
320,192,92631,1,4,0:0:0:0:
320,192,92787,1,0,0:0:0:0:
192,192,92787,1,0,0:0:0:0:
64,192,92904,1,2,0:0:0:0:
192,192,92982,1,2,0:0:0:0:
320,192,93100,1,0,0:0:0:0:
448,192,93100,1,0,0:0:0:0:
448,192,93256,1,0,0:0:0:0:
320,192,93256,1,0,0:0:0:0:
64,192,93412,1,0,0:0:0:0:
192,192,93412,1,0,0:0:0:0:
192,192,93529,1,0,0:0:0:0:
320,192,93607,1,0,0:0:0:0:
448,192,93607,1,0,0:0:0:0:
64,192,93725,1,0,0:0:0:0:
192,192,93881,1,4,0:0:0:0:
320,192,93881,1,4,0:0:0:0:
448,192,93881,1,0,0:0:0:0:
320,192,94037,1,0,0:0:0:0:
192,192,94037,1,0,0:0:0:0:
448,192,94037,1,0,0:0:0:0:
320,192,94193,1,0,0:0:0:0:
192,192,94193,1,0,0:0:0:0:
448,192,94193,1,0,0:0:0:0:
320,192,94350,1,4,2:2:0:0:
448,192,94350,1,4,2:2:0:0:
192,192,94350,1,0,0:0:0:0:
64,192,94467,1,2,0:0:0:0:
192,192,94545,1,2,0:0:0:0:
64,192,94662,1,0,0:0:0:0:
320,192,94662,1,0,0:0:0:0:
448,192,94662,1,0,0:0:0:0:
192,192,94779,1,0,0:0:0:0:
320,192,94896,1,2,0:0:0:0:
448,192,95014,1,2,0:0:0:0:
320,192,95131,1,4,0:0:0:0:
192,192,95131,1,4,0:0:0:0:
64,192,95131,1,4,0:0:0:0:
320,192,95287,1,0,0:0:0:0:
192,192,95287,1,0,0:0:0:0:
64,192,95404,1,2,0:0:0:0:
192,192,95482,1,2,0:0:0:0:
320,192,95600,1,0,0:0:0:0:
448,192,95600,1,0,0:0:0:0:
320,192,95756,1,0,0:0:0:0:
448,192,95756,1,0,0:0:0:0:
192,192,95912,1,0,0:0:0:0:
64,192,95912,1,0,0:0:0:0:
192,192,96029,1,0,0:0:0:0:
448,192,96107,1,0,0:0:0:0:
320,192,96107,1,0,0:0:0:0:
192,192,96225,1,0,0:0:0:0:
64,192,96225,1,0,0:0:0:0:
448,192,96381,1,4,0:0:0:0:
320,192,96381,1,4,0:0:0:0:
64,192,96498,1,0,0:0:0:0:
192,192,96576,1,0,0:0:0:0:
320,192,96693,1,0,0:0:0:0:
448,192,96693,1,0,0:0:0:0:
192,192,96850,1,4,0:0:0:0:
64,192,96850,1,4,0:0:0:0:
448,192,96967,1,2,0:0:0:0:
320,192,97045,1,2,0:0:0:0:
64,192,97162,1,0,0:0:0:0:
192,192,97162,1,0,0:0:0:0:
448,192,97162,1,0,0:0:0:0:
320,192,97279,1,2,0:0:0:0:
192,192,97396,1,2,0:0:0:0:
64,192,97514,1,2,0:0:0:0:
448,192,97631,1,4,0:0:0:0:
192,192,97631,1,4,0:0:0:0:
320,192,97631,1,4,0:0:0:0:
320,192,97787,1,0,0:0:0:0:
192,192,97787,1,0,0:0:0:0:
448,192,97904,1,2,0:0:0:0:
320,192,97982,1,2,0:0:0:0:
64,192,98100,1,0,0:0:0:0:
192,192,98100,1,0,0:0:0:0:
192,192,98256,1,0,0:0:0:0:
64,192,98256,1,0,0:0:0:0:
320,192,98412,1,0,0:0:0:0:
448,192,98412,1,0,0:0:0:0:
320,192,98529,1,0,0:0:0:0:
64,192,98607,1,0,0:0:0:0:
192,192,98607,1,0,0:0:0:0:
448,192,98725,1,0,0:0:0:0:
64,192,98881,1,4,0:0:0:0:
192,192,98881,1,4,0:0:0:0:
320,192,98881,1,0,0:0:0:0:
192,192,99037,1,0,0:0:0:0:
64,192,99037,1,0,0:0:0:0:
320,192,99037,1,0,0:0:0:0:
192,192,99193,1,0,0:0:0:0:
64,192,99193,1,0,0:0:0:0:
320,192,99193,1,0,0:0:0:0:
64,192,99350,1,4,2:2:0:0:
192,192,99350,1,4,2:2:0:0:
320,192,99350,1,0,0:0:0:0:
448,192,99467,1,2,0:0:0:0:
320,192,99545,1,2,0:0:0:0:
64,192,99662,1,0,0:0:0:0:
192,192,99662,1,0,0:0:0:0:
448,192,99662,1,0,0:0:0:0:
320,192,99779,1,0,0:0:0:0:
192,192,99896,1,2,0:0:0:0:
64,192,100014,1,2,0:0:0:0:
320,192,100131,1,4,0:0:0:0:
192,192,100131,1,4,0:0:0:0:
448,192,100131,1,4,0:0:0:0:
320,192,100287,1,0,0:0:0:0:
192,192,100287,1,0,0:0:0:0:
448,192,100404,1,2,0:0:0:0:
320,192,100482,1,2,0:0:0:0:
64,192,100600,1,0,0:0:0:0:
192,192,100600,1,0,0:0:0:0:
64,192,100756,1,0,0:0:0:0:
192,192,100756,1,0,0:0:0:0:
448,192,100912,1,0,0:0:0:0:
320,192,100912,1,0,0:0:0:0:
320,192,101029,1,0,0:0:0:0:
192,192,101107,1,0,0:0:0:0:
64,192,101107,1,0,0:0:0:0:
448,192,101225,1,0,0:0:0:0:
320,192,101225,1,0,0:0:0:0:
192,192,101381,1,4,0:0:0:0:
64,192,101381,1,4,0:0:0:0:
448,192,101498,1,0,0:0:0:0:
320,192,101576,1,0,0:0:0:0:
64,192,101693,1,0,0:0:0:0:
192,192,101693,1,0,0:0:0:0:
448,192,101850,1,4,0:0:0:0:
320,192,101850,1,4,0:0:0:0:
64,192,101967,1,2,0:0:0:0:
192,192,102045,1,2,0:0:0:0:
64,192,102162,1,0,0:0:0:0:
320,192,102162,1,0,0:0:0:0:
448,192,102162,1,0,0:0:0:0:
192,192,102279,1,2,0:0:0:0:
320,192,102396,1,2,0:0:0:0:
448,192,102514,1,2,0:0:0:0:
64,192,102631,1,4,0:0:0:0:
192,192,102631,1,4,0:0:0:0:
320,192,102631,1,4,0:0:0:0:
320,192,102787,1,0,0:0:0:0:
192,192,102787,1,0,0:0:0:0:
64,192,102904,1,2,0:0:0:0:
192,192,102982,1,2,0:0:0:0:
320,192,103100,1,0,0:0:0:0:
448,192,103100,1,0,0:0:0:0:
448,192,103256,1,0,0:0:0:0:
320,192,103256,1,0,0:0:0:0:
64,192,103412,1,0,0:0:0:0:
192,192,103412,1,0,0:0:0:0:
192,192,103529,5,0,0:0:0:0:
320,192,103607,1,0,0:0:0:0:
448,192,103607,1,0,0:0:0:0:
64,192,103725,1,0,0:0:0:0:
192,192,103725,1,0,0:0:0:0:
192,192,103881,1,4,0:0:0:0:
320,192,103881,1,4,0:0:0:0:
448,192,103881,1,0,0:0:0:0:
64,192,103959,1,0,0:0:0:0:
320,192,104037,1,0,0:0:0:0:
192,192,104037,1,0,0:0:0:0:
448,192,104037,1,0,0:0:0:0:
64,192,104115,1,0,0:0:0:0:
320,192,104193,1,0,0:0:0:0:
192,192,104193,1,0,0:0:0:0:
448,192,104193,1,0,0:0:0:0:
64,192,104271,1,0,0:0:0:0:
192,192,104350,128,4,104662:0:0:0:0:
320,192,104350,1,0,0:0:0:0:
448,192,104350,1,0,0:0:0:0:
320,192,104662,128,0,105287:0:0:0:0:
64,192,104662,128,0,105287:0:0:0:0:
448,192,104662,1,0,0:0:0:0:
192,192,105287,128,0,105443:0:0:0:0:
448,192,105287,1,0,0:0:0:0:
64,192,105443,128,2,105600:0:0:0:0:
320,192,105600,128,4,106850:0:0:0:0:
192,192,105600,1,0,0:0:0:0:
448,192,105600,128,4,106381:0:0:0:0:
192,192,106381,1,4,0:0:0:0:
64,192,106381,1,2,0:0:0:0:
448,192,106537,1,2,0:0:0:0:
64,192,106693,1,0,0:0:0:0:
448,192,106850,128,4,108100:0:0:0:0:
64,192,106850,128,4,107318:0:0:0:0:
192,192,106850,1,0,0:0:0:0:
192,192,107318,128,0,107787:0:0:0:0:
320,192,107318,1,0,0:0:0:0:
320,192,107787,128,2,108100:0:0:0:0:
64,192,107787,1,0,0:0:0:0:
192,192,108100,128,4,109350:0:0:0:0:
64,192,108100,128,4,108568:0:0:0:0:
320,192,108568,128,2,109037:0:0:0:0:
448,192,108568,1,0,0:0:0:0:
448,192,109037,128,4,109350:0:0:0:0:
64,192,109037,1,0,0:0:0:0:
320,192,109350,128,4,110600:0:0:0:0:
64,192,109350,128,0,110131:0:0:0:0:
192,192,110131,1,0,0:0:0:0:
448,192,110131,1,0,0:0:0:0:
64,192,110287,1,2,0:0:0:0:
64,192,110443,1,4,0:0:0:0:
448,192,110600,128,4,111850:0:0:0:0:
192,192,110600,128,4,111381:0:0:0:0:
64,192,111381,1,4,0:0:0:0:
320,192,111381,1,4,0:0:0:0:
192,192,111537,1,2,0:0:0:0:
320,192,111693,1,0,0:0:0:0:
64,192,111850,128,0,113100:0:0:0:0:
192,192,111850,128,4,112318:0:0:0:0:
320,192,111850,1,0,0:0:0:0:
320,192,112318,128,6,112787:0:0:0:0:
448,192,112318,1,0,0:0:0:0:
448,192,112787,128,4,113100:0:0:0:0:
192,192,112787,1,0,0:0:0:0:
192,192,113100,128,4,114350:0:0:0:0:
320,192,113100,128,6,113568:0:0:0:0:
64,192,113568,128,4,114037:0:0:0:0:
448,192,113568,1,0,0:0:0:0:
448,192,114037,128,4,114350:0:0:0:0:
320,192,114037,1,0,0:0:0:0:
320,192,114350,128,0,115600:0:0:0:0:
64,192,114350,128,0,115600:0:0:0:0:
448,192,115600,128,4,116850:0:0:0:0:
192,192,115600,128,4,116381:0:0:0:0:
64,192,116381,128,4,116537:0:0:0:0:
320,192,116381,1,0,0:0:0:0:
192,192,116537,128,2,116693:0:0:0:0:
320,192,116537,1,0,0:0:0:0:
320,192,116693,128,0,116850:0:0:0:0:
64,192,116850,128,4,118100:0:0:0:0:
192,192,116850,128,4,117318:0:0:0:0:
320,192,117318,128,4,117787:0:0:0:0:
448,192,117318,1,0,0:0:0:0:
448,192,117787,128,6,118100:0:0:0:0:
192,192,117787,1,0,0:0:0:0:
192,192,118100,128,4,119350:0:0:0:0:
320,192,118100,128,6,118568:0:0:0:0:
64,192,118568,128,0,119037:0:0:0:0:
448,192,118568,1,0,0:0:0:0:
320,192,119037,128,2,119350:0:0:0:0:
448,192,119037,1,0,0:0:0:0:
448,192,119350,128,4,120600:0:0:0:0:
64,192,119350,128,0,120131:0:0:0:0:
192,192,120131,128,0,120287:0:0:0:0:
320,192,120131,1,0,0:0:0:0:
320,192,120287,128,2,120443:0:0:0:0:
64,192,120287,1,0,0:0:0:0:
192,192,120443,128,4,120600:0:0:0:0:
320,192,120600,128,4,121850:0:0:0:0:
64,192,120600,128,4,121381:0:0:0:0:
192,192,121381,128,4,121537:0:0:0:0:
448,192,121381,1,0,0:0:0:0:
448,192,121537,128,2,121693:0:0:0:0:
64,192,121537,1,0,0:0:0:0:
64,192,121693,128,0,121850:0:0:0:0:
192,192,121850,128,0,123100:0:0:0:0:
448,192,121850,128,4,122318:0:0:0:0:
320,192,122318,128,4,122787:0:0:0:0:
64,192,122318,1,0,0:0:0:0:
448,192,122787,128,2,123100:0:0:0:0:
64,192,122787,1,0,0:0:0:0:
320,192,123100,128,4,123568:0:0:0:0:
64,192,123100,128,4,124350:0:0:0:0:
192,192,123568,128,0,124350:0:0:0:0:
448,192,123568,1,0,0:0:0:0:
320,192,124350,1,4,2:2:0:0:
448,192,124350,1,4,2:2:0:0:
64,192,124467,1,2,0:0:0:0:
192,192,124545,1,2,0:0:0:0:
64,192,124662,1,0,0:0:0:0:
320,192,124662,1,0,0:0:0:0:
448,192,124662,1,0,0:0:0:0:
192,192,124779,1,0,0:0:0:0:
320,192,124896,1,2,0:0:0:0:
448,192,125014,1,2,0:0:0:0:
320,192,125131,1,4,0:0:0:0:
192,192,125131,1,4,0:0:0:0:
64,192,125131,1,4,0:0:0:0:
320,192,125287,1,0,0:0:0:0:
192,192,125287,1,0,0:0:0:0:
64,192,125404,1,2,0:0:0:0:
192,192,125482,1,2,0:0:0:0:
320,192,125600,1,0,0:0:0:0:
448,192,125600,1,0,0:0:0:0:
320,192,125756,1,0,0:0:0:0:
448,192,125756,1,0,0:0:0:0:
192,192,125912,1,0,0:0:0:0:
64,192,125912,1,0,0:0:0:0:
192,192,126029,1,0,0:0:0:0:
448,192,126107,1,0,0:0:0:0:
320,192,126107,1,0,0:0:0:0:
192,192,126225,1,0,0:0:0:0:
64,192,126225,1,0,0:0:0:0:
448,192,126381,1,4,0:0:0:0:
320,192,126381,1,4,0:0:0:0:
64,192,126498,1,0,0:0:0:0:
192,192,126576,1,0,0:0:0:0:
320,192,126693,1,0,0:0:0:0:
448,192,126693,1,0,0:0:0:0:
192,192,126850,1,4,0:0:0:0:
64,192,126850,1,4,0:0:0:0:
448,192,126967,1,2,0:0:0:0:
320,192,127045,1,2,0:0:0:0:
64,192,127162,1,0,0:0:0:0:
192,192,127162,1,0,0:0:0:0:
448,192,127162,1,0,0:0:0:0:
320,192,127279,1,2,0:0:0:0:
192,192,127396,1,2,0:0:0:0:
64,192,127514,1,2,0:0:0:0:
448,192,127631,1,4,0:0:0:0:
192,192,127631,1,4,0:0:0:0:
320,192,127631,1,4,0:0:0:0:
320,192,127787,1,0,0:0:0:0:
192,192,127787,1,0,0:0:0:0:
448,192,127904,1,2,0:0:0:0:
320,192,127982,1,2,0:0:0:0:
64,192,128100,1,0,0:0:0:0:
192,192,128100,1,0,0:0:0:0:
192,192,128256,1,0,0:0:0:0:
64,192,128256,1,0,0:0:0:0:
320,192,128412,1,0,0:0:0:0:
448,192,128412,1,0,0:0:0:0:
320,192,128529,1,0,0:0:0:0:
64,192,128607,1,0,0:0:0:0:
192,192,128607,1,0,0:0:0:0:
448,192,128725,1,0,0:0:0:0:
64,192,128881,1,4,0:0:0:0:
192,192,128881,1,4,0:0:0:0:
320,192,128881,1,0,0:0:0:0:
192,192,129037,1,0,0:0:0:0:
64,192,129037,1,0,0:0:0:0:
320,192,129037,1,0,0:0:0:0:
192,192,129193,1,0,0:0:0:0:
64,192,129193,1,0,0:0:0:0:
320,192,129193,1,0,0:0:0:0:
64,192,129350,1,4,2:2:0:0:
192,192,129350,1,4,2:2:0:0:
320,192,129350,1,0,0:0:0:0:
448,192,129467,1,2,0:0:0:0:
320,192,129545,1,2,0:0:0:0:
64,192,129662,1,0,0:0:0:0:
192,192,129662,1,0,0:0:0:0:
448,192,129662,1,0,0:0:0:0:
320,192,129779,1,0,0:0:0:0:
192,192,129896,1,2,0:0:0:0:
64,192,130014,1,2,0:0:0:0:
320,192,130131,1,4,0:0:0:0:
192,192,130131,1,4,0:0:0:0:
448,192,130131,1,4,0:0:0:0:
320,192,130287,1,0,0:0:0:0:
192,192,130287,1,0,0:0:0:0:
448,192,130404,1,2,0:0:0:0:
320,192,130482,1,2,0:0:0:0:
64,192,130600,1,0,0:0:0:0:
192,192,130600,1,0,0:0:0:0:
64,192,130756,1,0,0:0:0:0:
192,192,130756,1,0,0:0:0:0:
448,192,130912,1,0,0:0:0:0:
320,192,130912,1,0,0:0:0:0:
320,192,131029,1,0,0:0:0:0:
192,192,131107,1,0,0:0:0:0:
64,192,131107,1,0,0:0:0:0:
448,192,131225,1,0,0:0:0:0:
320,192,131225,1,0,0:0:0:0:
192,192,131381,1,4,0:0:0:0:
64,192,131381,1,4,0:0:0:0:
448,192,131498,1,0,0:0:0:0:
320,192,131576,1,0,0:0:0:0:
64,192,131693,1,0,0:0:0:0:
192,192,131693,1,0,0:0:0:0:
448,192,131850,1,4,0:0:0:0:
320,192,131850,1,4,0:0:0:0:
64,192,131967,1,2,0:0:0:0:
192,192,132045,1,2,0:0:0:0:
64,192,132162,1,0,0:0:0:0:
320,192,132162,1,0,0:0:0:0:
448,192,132162,1,0,0:0:0:0:
192,192,132279,1,2,0:0:0:0:
320,192,132396,1,2,0:0:0:0:
448,192,132514,1,2,0:0:0:0:
64,192,132631,1,4,0:0:0:0:
192,192,132631,1,4,0:0:0:0:
320,192,132631,1,4,0:0:0:0:
320,192,132787,1,0,0:0:0:0:
192,192,132787,1,0,0:0:0:0:
64,192,132904,1,2,0:0:0:0:
192,192,132982,1,2,0:0:0:0:
320,192,133100,1,0,0:0:0:0:
448,192,133100,1,0,0:0:0:0:
448,192,133256,1,0,0:0:0:0:
320,192,133256,1,0,0:0:0:0:
64,192,133412,1,0,0:0:0:0:
192,192,133412,1,0,0:0:0:0:
192,192,133529,1,0,0:0:0:0:
320,192,133607,1,0,0:0:0:0:
448,192,133607,1,0,0:0:0:0:
64,192,133725,1,0,0:0:0:0:
192,192,133881,1,4,0:0:0:0:
320,192,133881,1,4,0:0:0:0:
448,192,133881,1,0,0:0:0:0:
320,192,134037,1,0,0:0:0:0:
192,192,134037,1,0,0:0:0:0:
448,192,134037,1,0,0:0:0:0:
320,192,134193,1,0,0:0:0:0:
192,192,134193,1,0,0:0:0:0:
448,192,134193,1,0,0:0:0:0:
320,192,134350,1,4,2:2:0:0:
448,192,134350,1,4,2:2:0:0:
192,192,134350,1,0,0:0:0:0:
64,192,134467,1,2,0:0:0:0:
192,192,134545,1,2,0:0:0:0:
64,192,134662,1,0,0:0:0:0:
320,192,134662,1,0,0:0:0:0:
448,192,134662,1,0,0:0:0:0:
192,192,134779,1,0,0:0:0:0:
320,192,134896,1,2,0:0:0:0:
448,192,135014,1,2,0:0:0:0:
320,192,135131,1,4,0:0:0:0:
192,192,135131,1,4,0:0:0:0:
64,192,135131,1,4,0:0:0:0:
320,192,135287,1,0,0:0:0:0:
192,192,135287,1,0,0:0:0:0:
64,192,135404,1,2,0:0:0:0:
192,192,135482,1,2,0:0:0:0:
320,192,135600,1,0,0:0:0:0:
448,192,135600,1,0,0:0:0:0:
320,192,135756,1,0,0:0:0:0:
448,192,135756,1,0,0:0:0:0:
192,192,135912,1,0,0:0:0:0:
64,192,135912,1,0,0:0:0:0:
192,192,136029,1,0,0:0:0:0:
448,192,136107,1,0,0:0:0:0:
320,192,136107,1,0,0:0:0:0:
192,192,136225,1,0,0:0:0:0:
64,192,136225,1,0,0:0:0:0:
448,192,136381,1,4,0:0:0:0:
320,192,136381,1,4,0:0:0:0:
64,192,136498,1,0,0:0:0:0:
192,192,136576,1,0,0:0:0:0:
320,192,136693,1,0,0:0:0:0:
448,192,136693,1,0,0:0:0:0:
192,192,136850,1,4,0:0:0:0:
64,192,136850,1,4,0:0:0:0:
448,192,136967,1,2,0:0:0:0:
320,192,137045,1,2,0:0:0:0:
64,192,137162,1,0,0:0:0:0:
192,192,137162,1,0,0:0:0:0:
448,192,137162,1,0,0:0:0:0:
320,192,137279,1,2,0:0:0:0:
192,192,137396,1,2,0:0:0:0:
64,192,137514,1,2,0:0:0:0:
448,192,137631,1,4,0:0:0:0:
192,192,137631,1,4,0:0:0:0:
320,192,137631,1,4,0:0:0:0:
320,192,137787,1,0,0:0:0:0:
192,192,137787,1,0,0:0:0:0:
448,192,137904,1,2,0:0:0:0:
320,192,137982,1,2,0:0:0:0:
64,192,138100,1,0,0:0:0:0:
192,192,138100,1,0,0:0:0:0:
192,192,138256,1,0,0:0:0:0:
64,192,138256,1,0,0:0:0:0:
320,192,138412,1,0,0:0:0:0:
448,192,138412,1,0,0:0:0:0:
320,192,138529,1,0,0:0:0:0:
64,192,138607,1,0,0:0:0:0:
192,192,138607,1,0,0:0:0:0:
448,192,138725,1,0,0:0:0:0:
64,192,138881,1,4,0:0:0:0:
192,192,138881,1,4,0:0:0:0:
320,192,138881,1,0,0:0:0:0:
192,192,139037,1,0,0:0:0:0:
64,192,139037,1,0,0:0:0:0:
320,192,139037,1,0,0:0:0:0:
192,192,139193,1,0,0:0:0:0:
64,192,139193,1,0,0:0:0:0:
320,192,139193,1,0,0:0:0:0:
64,192,139350,1,4,2:2:0:0:
192,192,139350,1,4,2:2:0:0:
320,192,139350,1,0,0:0:0:0:
448,192,139467,1,2,0:0:0:0:
320,192,139545,1,2,0:0:0:0:
64,192,139662,1,0,0:0:0:0:
192,192,139662,1,0,0:0:0:0:
448,192,139662,1,0,0:0:0:0:
320,192,139779,1,0,0:0:0:0:
192,192,139896,1,2,0:0:0:0:
64,192,140014,1,2,0:0:0:0:
320,192,140131,1,4,0:0:0:0:
192,192,140131,1,4,0:0:0:0:
448,192,140131,1,4,0:0:0:0:
320,192,140287,1,0,0:0:0:0:
192,192,140287,1,0,0:0:0:0:
448,192,140404,1,2,0:0:0:0:
320,192,140482,1,2,0:0:0:0:
64,192,140600,1,0,0:0:0:0:
192,192,140600,1,0,0:0:0:0:
64,192,140756,1,0,0:0:0:0:
192,192,140756,1,0,0:0:0:0:
448,192,140912,1,0,0:0:0:0:
320,192,140912,1,0,0:0:0:0:
320,192,141029,1,0,0:0:0:0:
192,192,141107,1,0,0:0:0:0:
64,192,141107,1,0,0:0:0:0:
448,192,141225,1,0,0:0:0:0:
320,192,141225,1,0,0:0:0:0:
192,192,141381,1,4,0:0:0:0:
64,192,141381,1,4,0:0:0:0:
448,192,141498,1,0,0:0:0:0:
320,192,141576,1,0,0:0:0:0:
64,192,141693,1,0,0:0:0:0:
192,192,141693,1,0,0:0:0:0:
448,192,141850,1,4,0:0:0:0:
320,192,141850,1,4,0:0:0:0:
64,192,141967,1,2,0:0:0:0:
192,192,142045,1,2,0:0:0:0:
64,192,142162,1,0,0:0:0:0:
320,192,142162,1,0,0:0:0:0:
448,192,142162,1,0,0:0:0:0:
192,192,142279,1,2,0:0:0:0:
320,192,142396,1,2,0:0:0:0:
448,192,142514,1,2,0:0:0:0:
64,192,142631,1,4,0:0:0:0:
192,192,142631,1,4,0:0:0:0:
320,192,142631,1,4,0:0:0:0:
320,192,142787,1,0,0:0:0:0:
192,192,142787,1,0,0:0:0:0:
64,192,142904,1,2,0:0:0:0:
192,192,142982,1,2,0:0:0:0:
320,192,143100,1,0,0:0:0:0:
448,192,143100,1,0,0:0:0:0:
448,192,143256,1,0,0:0:0:0:
320,192,143256,1,0,0:0:0:0:
64,192,143412,1,0,0:0:0:0:
192,192,143412,1,0,0:0:0:0:
192,192,143529,5,0,0:0:0:0:
320,192,143607,1,0,0:0:0:0:
448,192,143607,1,0,0:0:0:0:
64,192,143725,1,0,0:0:0:0:
192,192,143725,1,0,0:0:0:0:
320,192,143725,1,0,0:0:0:0:
448,192,143842,1,0,0:0:0:0:
320,192,143881,1,0,0:0:0:0:
192,192,143920,1,0,0:0:0:0:
64,192,143959,1,0,0:0:0:0:
448,192,144037,1,0,0:0:0:0:
192,192,144037,1,0,0:0:0:0:
320,192,144037,1,0,0:0:0:0:
192,192,144193,1,0,0:0:0:0:
320,192,144193,1,0,0:0:0:0:
448,192,144193,1,0,0:0:0:0:
320,192,144350,128,0,144662:0:0:0:0:
64,192,144350,128,0,145600:0:0:0:0:
448,192,144662,128,0,145287:0:0:0:0:
192,192,144662,128,0,145287:0:0:0:0:
320,192,145287,128,0,145443:0:0:0:0:
192,192,145443,128,0,145600:0:0:0:0:
320,192,145600,128,0,146225:0:0:0:0:
448,192,145600,128,0,146850:0:0:0:0:
192,192,146225,128,0,146381:0:0:0:0:
64,192,146225,1,0,0:0:0:0:
64,192,146381,128,0,146537:0:0:0:0:
192,192,146537,128,0,146693:0:0:0:0:
320,192,146693,128,0,146850:0:0:0:0:
192,192,146850,128,0,148100:0:0:0:0:
64,192,146850,128,0,147318:0:0:0:0:
448,192,147318,128,0,147787:0:0:0:0:
320,192,147318,1,0,0:0:0:0:
320,192,147787,128,0,148100:0:0:0:0:
64,192,148100,128,0,149350:0:0:0:0:
448,192,148100,128,0,148568:0:0:0:0:
320,192,148568,128,0,149037:0:0:0:0:
192,192,148568,128,0,149037:0:0:0:0:
448,192,149037,128,0,149350:0:0:0:0:
192,192,149350,128,0,150600:0:0:0:0:
320,192,149350,128,0,150131:0:0:0:0:
64,192,150131,128,0,150287:0:0:0:0:
448,192,150131,1,0,0:0:0:0:
320,192,150287,128,0,150443:0:0:0:0:
448,192,150443,128,0,150600:0:0:0:0:
64,192,150600,128,0,151342:0:0:0:0:
320,192,150600,128,0,151850:0:0:0:0:
192,192,151342,128,0,151537:0:0:0:0:
448,192,151342,1,0,0:0:0:0:
64,192,151537,128,0,151693:0:0:0:0:
448,192,151693,128,0,151850:0:0:0:0:
192,192,151850,128,0,153100:0:0:0:0:
64,192,151850,128,0,152318:0:0:0:0:
320,192,152318,128,0,152748:0:0:0:0:
448,192,152318,1,0,0:0:0:0:
448,192,152748,128,0,153100:0:0:0:0:
64,192,153100,128,0,154350:0:0:0:0:
320,192,153100,128,0,153568:0:0:0:0:
192,192,153568,128,0,154350:0:0:0:0:
320,192,154037,1,0,0:0:0:0:
448,192,154037,1,0,0:0:0:0:
448,192,154350,128,0,155600:0:0:0:0:
320,192,154350,128,0,155600:0:0:0:0:
64,192,155600,128,0,156850:0:0:0:0:
192,192,155600,128,0,156381:0:0:0:0:
320,192,156381,128,0,156537:0:0:0:0:
448,192,156381,1,0,0:0:0:0:
448,192,156537,128,0,156693:0:0:0:0:
320,192,156693,128,0,156850:0:0:0:0:
448,192,156850,128,0,158100:0:0:0:0:
192,192,156850,128,0,157318:0:0:0:0:
64,192,157318,128,0,157787:0:0:0:0:
320,192,157318,1,0,0:0:0:0:
192,192,157787,128,0,158100:0:0:0:0:
320,192,158100,128,0,159350:0:0:0:0:
64,192,158100,128,0,158568:0:0:0:0:
192,192,158568,128,0,159037:0:0:0:0:
448,192,158568,1,0,0:0:0:0:
64,192,159037,128,0,159350:0:0:0:0:
192,192,159350,128,0,160600:0:0:0:0:
448,192,159350,128,0,160131:0:0:0:0:
320,192,160131,128,0,160287:0:0:0:0:
64,192,160131,1,0,0:0:0:0:
64,192,160287,128,0,160443:0:0:0:0:
320,192,160443,128,0,160600:0:0:0:0:
448,192,160600,128,0,161381:0:0:0:0:
64,192,160600,128,0,161850:0:0:0:0:
320,192,161381,128,0,161537:0:0:0:0:
192,192,161381,1,0,0:0:0:0:
192,192,161537,128,0,161693:0:0:0:0:
320,192,161693,128,0,161850:0:0:0:0:
448,192,161850,1,0,0:0:0:0:
192,192,161850,128,0,162357:0:0:0:0:
64,192,162357,128,0,164271:0:0:0:0:
320,192,162357,1,4,0:0:0:0:
448,192,162357,1,4,0:0:0:0:
192,192,162787,128,0,164271:0:0:0:0:
320,192,162787,1,4,0:0:0:0:
448,192,162787,1,4,0:0:0:0:
320,192,163100,128,0,164271:0:0:0:0:
448,192,163100,1,4,0:0:0:0:
448,192,163568,128,0,164271:0:0:0:0:
448,192,164389,1,0,0:0:0:0:
320,192,164389,1,4,0:0:0:0:
192,192,164389,1,4,0:0:0:0:
64,192,164389,1,0,0:0:0:0:
448,192,164662,1,4,0:0:0:0:
192,192,164662,1,4,0:0:0:0:
64,192,165287,1,0,0:0:0:0:
320,192,165287,1,0,0:0:0:0:
192,192,165443,1,2,0:0:0:0:
448,192,165443,1,2,0:0:0:0:
192,192,165600,1,4,0:0:0:0:
320,192,165600,1,4,0:0:0:0:
448,192,165600,1,4,0:0:0:0:
192,192,166381,1,2,0:0:0:0:
64,192,166381,1,2,0:0:0:0:
320,192,166537,1,2,0:0:0:0:
448,192,166537,1,2,0:0:0:0:
64,192,166693,1,4,0:0:0:0:
192,192,166693,1,0,0:0:0:0:
320,192,166693,1,4,0:0:0:0:
192,192,166850,1,0,0:0:0:0:
320,192,166850,1,0,0:0:0:0:
448,192,166850,1,0,0:0:0:0:
64,192,167318,1,4,0:0:0:0:
320,192,167318,1,4,0:0:0:0:
448,192,167318,1,4,0:0:0:0:
448,192,167787,1,4,0:0:0:0:
192,192,167787,1,4,0:0:0:0:
64,192,167787,1,0,0:0:0:0:
192,192,167943,1,2,0:0:0:0:
64,192,168021,1,2,0:0:0:0:
192,192,168100,1,0,0:0:0:0:
320,192,168100,1,0,0:0:0:0:
448,192,168100,1,0,0:0:0:0:
64,192,168568,1,0,0:0:0:0:
320,192,168568,1,4,0:0:0:0:
192,192,168568,1,4,0:0:0:0:
192,192,169037,1,0,0:0:0:0:
320,192,169037,1,4,0:0:0:0:
448,192,169037,1,4,0:0:0:0:
448,192,169271,1,2,0:0:0:0:
64,192,169350,1,0,0:0:0:0:
192,192,169350,1,0,0:0:0:0:
320,192,169350,1,0,0:0:0:0:
64,192,170131,1,0,0:0:0:0:
192,192,170131,1,8,0:0:0:0:
192,192,170287,1,2,0:0:0:0:
320,192,170287,1,0,0:0:0:0:
320,192,170443,1,0,0:0:0:0:
448,192,170443,1,4,0:0:0:0:
320,192,170600,1,0,0:0:0:0:
192,192,170600,1,0,0:0:0:0:
64,192,170600,1,0,0:0:0:0:
320,192,171381,1,2,0:0:0:0:
448,192,171381,1,0,0:0:0:0:
64,192,171537,1,0,0:0:0:0:
192,192,171537,1,2,0:0:0:0:
192,192,171693,1,4,0:0:0:0:
320,192,171693,1,0,0:0:0:0:
448,192,171693,1,4,0:0:0:0:
192,192,171850,1,0,0:0:0:0:
320,192,171850,1,0,0:0:0:0:
64,192,171850,1,0,0:0:0:0:
64,192,172318,1,2,0:0:0:0:
192,192,172318,1,4,0:0:0:0:
320,192,172318,1,4,0:0:0:0:
448,192,172318,1,2,0:0:0:0:
192,192,172787,1,0,0:0:0:0:
320,192,172787,1,4,0:0:0:0:
64,192,172943,1,2,0:0:0:0:
448,192,173021,1,2,0:0:0:0:
192,192,173100,1,0,0:0:0:0:
320,192,173100,1,0,0:0:0:0:
192,192,173568,1,2,0:0:0:0:
320,192,173568,1,4,0:0:0:0:
448,192,173568,1,4,0:0:0:0:
64,192,174037,1,0,0:0:0:0:
192,192,174037,1,4,0:0:0:0:
448,192,174193,1,2,0:0:0:0:
320,192,174271,1,2,0:0:0:0:
192,192,174350,1,0,0:0:0:0:
64,192,174350,1,0,0:0:0:0:
192,192,175600,1,0,0:0:0:0:
320,192,175600,1,4,0:0:0:0:
448,192,175600,1,4,0:0:0:0:
192,192,176381,1,4,0:0:0:0:
64,192,176381,1,2,0:0:0:0:
320,192,176537,1,2,0:0:0:0:
448,192,176537,1,4,0:0:0:0:
64,192,176693,1,4,0:0:0:0:
192,192,176693,1,4,0:0:0:0:
320,192,176693,1,0,0:0:0:0:
192,192,176850,1,0,0:0:0:0:
320,192,176850,1,4,0:0:0:0:
448,192,176850,1,0,0:0:0:0:
320,192,177318,1,2,0:0:0:0:
64,192,177318,1,0,0:0:0:0:
448,192,177318,1,2,0:0:0:0:
64,192,177787,1,0,0:0:0:0:
192,192,177787,1,0,0:0:0:0:
320,192,177787,1,0,0:0:0:0:
320,192,178100,1,2,0:0:0:0:
64,192,178100,1,0,0:0:0:0:
448,192,178100,1,2,0:0:0:0:
448,192,178568,1,0,0:0:0:0:
192,192,178568,1,0,0:0:0:0:
64,192,178568,1,0,0:0:0:0:
192,192,179037,1,0,0:0:0:0:
320,192,179037,1,2,0:0:0:0:
448,192,179037,1,2,0:0:0:0:
64,192,179350,1,0,0:0:0:0:
192,192,179350,1,0,0:0:0:0:
448,192,179350,1,0,0:0:0:0:
320,192,180131,1,4,0:0:0:0:
192,192,180131,1,4,0:0:0:0:
448,192,180131,1,0,0:0:0:0:
64,192,180287,1,0,0:0:0:0:
192,192,180287,1,2,0:0:0:0:
320,192,180443,1,2,0:0:0:0:
448,192,180443,1,0,0:0:0:0:
320,192,180600,1,0,0:0:0:0:
64,192,180600,1,0,0:0:0:0:
192,192,180600,1,0,0:0:0:0:
64,192,181381,1,0,0:0:0:0:
320,192,181381,1,4,0:0:0:0:
448,192,181381,1,4,0:0:0:0:
192,192,181537,1,0,0:0:0:0:
448,192,181537,1,2,0:0:0:0:
64,192,181693,1,2,0:0:0:0:
320,192,181693,1,0,0:0:0:0:
64,192,181850,1,0,0:0:0:0:
192,192,181850,1,0,0:0:0:0:
448,192,181850,1,0,0:0:0:0:
64,192,182318,1,2,0:0:0:0:
448,192,182318,1,2,0:0:0:0:
192,192,182787,1,2,0:0:0:0:
320,192,182787,1,2,0:0:0:0:
64,192,183100,1,2,0:0:0:0:
192,192,183100,1,4,0:0:0:0:
320,192,183100,1,4,0:0:0:0:
448,192,183100,1,2,0:0:0:0:
192,192,183568,128,4,196850:0:0:0:0:
320,192,183568,128,4,196850:0:0:0:0:
