osu file format v14

[General]
AudioFilename: Kiryu - EVE.mp3
AudioLeadIn: 0
PreviewTime:94270
Countdown: 0
SampleSet: Soft
StackLeniency: 0.7
Mode: 0
LetterboxInBreaks: 1
WidescreenStoryboard: 1

[Editor]
DistanceSpacing: 0.4
BeatDivisor: 4
GridSize: 4
TimelineZoom: 1

[Metadata]
Title:EVE
TitleUnicode:EVE
Artist:Kiryu
ArtistUnicode:桐生
Creator:Flower
Version:Hyper
Source:
Tags:NNI drum and bass dnb dahkjdas z1085684963
BeatmapID:853771
BeatmapSetID:213434

[Difficulty]
HPDrainRate:6
CircleSize:4
OverallDifficulty:7
ApproachRate:9
SliderMultiplier:1.6
SliderTickRate:1

[Events]
//Background and Video events
0,0,"370275.jpg",0,0
//Break Periods
2,73954,83589
//Storyboard Layer 0 (Background)
//Storyboard Layer 1 (Fail)
//Storyboard Layer 2 (Pass)
//Storyboard Layer 3 (Foreground)
//Storyboard Layer 4 (Overlay)
//Storyboard Sound Samples

[TimingPoints]
711,326.086956521739,4,2,0,30,1,0
711,-133.333333333333,4,2,0,30,0,0
18971,-100,4,2,1,70,0,0
32015,-100,4,2,1,70,0,1
32096,-100,4,2,1,70,0,0
84189,-133.333333333333,4,2,0,40,0,0
89406,-133.333333333333,4,2,2,40,0,0
93971,-100,4,2,1,40,0,0
94624,-100,4,2,1,70,0,1
115493,-100,4,2,1,70,0,0
127884,-100,4,2,1,20,0,0

[Colours]
Combo1 : 153,221,251
Combo2 : 56,96,139
Combo3 : 53,155,210

[HitObjects]
100,304,711,5,2,0:0:0:0:
100,304,874,2,0,B|116:328|116:328|176:328|176:328|196:304|196:304,1,120.000004577637,0|2,0:0|0:0,0:0:0:0:
256,192,1281,12,0,2667,0:0:0:0:
256,248,2993,5,0,0:0:0:0:
412,304,3319,1,2,0:0:0:0:
412,304,3482,2,0,B|396:328|396:328|336:328|336:328|316:304|316:304,1,120.000004577637,0|2,0:0|0:0,0:0:0:0:
256,192,3890,12,0,5276,0:0:0:0:
256,88,5602,5,0,0:0:0:0:
256,88,5928,2,0,B|220:64|220:64|132:64|132:64|80:28,3,180.000006866455,2|0|2|0,0:0|0:0|0:0|0:0,0:0:0:0:
24,192,7884,5,2,0:0:0:0:
24,192,8047,1,0,0:0:0:0:
100,192,8210,1,0,0:0:0:0:
100,192,8374,1,0,0:0:0:0:
152,248,8537,6,0,B|176:272|176:272|268:272|268:272|296:304|296:304|384:304|384:304|312:220,1,360.000013732911
152,96,9841,6,0,B|72:96|72:96|104:132,1,120.000004577637,2|0,0:0|0:0,0:0:0:0:
156,176,10330,2,0,L|276:176,1,120.000004577637
340,136,10819,2,0,P|380:128|408:136,1,60.0000022888184,2|0,0:0|0:0,0:0:0:0:
464,176,11145,6,0,B|488:204|488:204|488:308|488:308|516:344,2,180.000006866455,2|0|2,0:0|0:0|0:0,0:0:0:0:
400,224,12450,6,0,L|280:224,1,120.000004577637,2|0,0:0|0:0,0:0:0:0:
280,224,12939,2,0,P|256:248|284:324,1,120.000004577637
352,320,13428,2,0,L|412:320,1,60.0000022888184,2|0,0:0|0:0,0:0:0:0:
200,344,13754,6,0,B|172:344|172:344|120:368|120:368|84:368,1,120.000004577637,2|0,0:0|0:0,0:0:0:0:
28,324,14243,2,0,P|8:284|32:208,1,120.000004577637,2|0,0:0|0:0,0:0:0:0:
96,184,14732,2,0,L|204:184,1,90.0000034332277,2|0,0:0|0:0,0:0:0:0:
196,200,15058,6,0,B|220:224|220:224|316:224,1,120.000004577637,2|0,0:0|0:0,0:0:0:0:
380,224,15547,2,0,P|408:192|388:104,1,120.000004577637,2|0,0:0|0:0,0:0:0:0:
340,68,16037,2,0,B|300:68|300:68|268:92|268:92|220:92,1,120.000004577637,0|2,0:0|0:0,0:0:0:0:
152,92,16526,5,0,0:0:0:0:
76,92,16689,1,0,0:0:0:0:
76,92,16852,2,0,P|52:128|88:200,1,120.000004577637,2|0,0:0|0:0,0:0:0:0:
152,196,17341,2,0,L|224:196,1,60.0000022888184,2|0,0:0|0:0,0:0:0:0:
288,196,17667,5,2,0:0:0:0:
288,196,17830,1,0,0:0:0:0:
364,196,17993,1,0,0:0:0:0:
424,244,18156,2,0,P|444:284|400:352,1,120.000004577637,2|0,0:0|0:0,0:0:0:0:
336,348,18645,1,0,0:0:0:0:
336,348,18971,6,0,L|296:268,1,80,2|0,0:0|0:0,0:0:0:0:
256,192,19297,12,0,21172,0:0:0:0:
144,244,21580,6,0,P|160:200|148:164,1,80,2|0,0:0|0:0,0:0:0:0:
208,288,21906,2,0,L|296:276,1,80,8|0,0:0|0:0,0:0:0:0:
84,200,22232,2,0,L|0:196,1,80,0|2,0:0|0:0,0:0:0:0:
112,276,22558,1,8,0:0:0:0:
220,208,22721,1,0,0:0:0:0:
160,156,22884,6,0,P|144:116|152:76,1,80,2|2,0:0|0:0,0:0:0:0:
224,52,23210,2,0,L|304:64,1,80,8|0,0:0|0:0,0:0:0:0:
303,63,23455,2,0,P|320:112|312:140,1,80,8|0,0:0|0:0,0:0:0:0:
284,168,23700,1,2,0:0:0:0:
404,124,23863,2,0,L|504:112,1,80,8|0,0:0|0:0,0:0:0:0:
228,232,24189,6,0,P|212:268|224:312,1,80,2|0,0:0|0:0,0:0:0:0:
296,276,24515,1,8,0:0:0:0:
156,348,24678,1,0,0:0:0:0:
156,348,24759,1,0,0:0:0:0:
156,348,24841,1,0,0:0:0:0:
164,188,25004,1,2,0:0:0:0:
296,276,25167,2,0,L|392:272,1,80,8|0,0:0|0:0,0:0:0:0:
388,288,25412,1,0,0:0:0:0:
400,303,25493,6,0,P|380:253|389:218,1,80,2|2,0:0|0:0,0:0:0:0:
464,248,25819,1,8,0:0:0:0:
336,348,25982,2,0,L|256:356,1,80,4|8,0:0|0:0,0:0:0:0:
176,360,26308,1,2,0:0:0:0:
176,360,26390,1,0,0:0:0:0:
176,360,26471,1,8,0:0:0:0:
312,240,26634,1,4,0:0:0:0:
152,176,26797,6,0,P|140:140|152:88,1,80,2|0,0:0|0:0,0:0:0:0:
220,128,27124,2,0,L|312:136,1,80,8|0,0:0|0:0,0:0:0:0:
228,272,27450,1,0,0:0:0:0:
152,176,27613,1,2,0:0:0:0:
220,128,27776,6,0,P|240:88|236:48,1,80,8|0,0:0|0:0,0:0:0:0:
228,272,28102,2,0,L|316:280,1,80,2|2,0:0|0:0,0:0:0:0:
152,176,28428,2,0,L|52:192,1,80,8|0,0:0|0:0,0:0:0:0:
40,212,28672,2,0,P|24:248|40:296,1,80
64,308,28917,1,2,0:0:0:0:
236,236,29080,1,8,0:0:0:0:
96,112,29243,1,0,0:0:0:0:
96,112,29325,1,0,0:0:0:0:
96,112,29406,6,0,P|144:96|188:104,1,80,2|0,0:0|0:0,0:0:0:0:
344,180,29732,1,8,0:0:0:0:
276,140,29895,1,0,0:0:0:0:
276,140,29977,1,0,0:0:0:0:
276,140,30058,2,0,L|256:52,1,80,0|2,0:0|0:0,0:0:0:0:
236,244,30384,2,0,L|253:322,1,80,8|0,0:0|0:0,0:0:0:0:
344,180,30710,1,6,0:0:0:0:
344,180,31037,5,8,0:0:0:0:
344,180,31200,2,0,L|160:192,1,160,4|2,0:0|0:0,0:0:0:0:
128,248,31689,1,8,0:0:0:0:
132,256,31770,1,0,0:0:0:0:
136,264,31852,1,0,0:0:0:0:
140,272,31933,1,0,0:0:0:0:
144,280,32015,6,0,L|128:108,1,160,6|8,0:1|0:0,0:0:0:0:
200,80,32504,1,0,0:0:0:0:
64,252,32667,2,0,L|56:344,1,80,4|2,0:0|0:0,0:0:0:0:
57,331,32993,1,8,0:0:0:0:
200,256,33156,6,0,P|244:248|284:256,1,80,4|2,0:0|0:0,0:0:0:0:
364,320,33482,1,2,0:0:0:0:
364,320,33564,1,0,0:0:0:0:
364,320,33645,1,12,0:0:0:0:
268,172,33808,1,0,0:0:0:0:
364,320,33971,2,0,L|280:332,1,80,0|2,0:0|0:0,0:0:0:0:
120,200,34297,2,0,L|220:220,1,80,8|0,0:0|0:0,0:0:0:0:
400,224,34624,6,0,P|440:164|400:80,1,160,2|12,0:0|0:0,0:0:0:0:
328,112,35113,1,0,0:0:0:0:
328,112,35194,1,0,0:0:0:0:
328,112,35276,2,0,L|316:204,1,80,0|6,0:0|0:0,0:0:0:0:
304,272,35602,1,8,0:0:0:0:
164,160,35765,1,4,0:0:0:0:
164,160,35928,6,0,P|216:152|248:164,1,80,2|6,0:0|0:0,0:0:0:0:
304,272,36254,2,0,L|392:268,1,80,8|0,0:0|0:0,0:0:0:0:
383,268,36499,1,0,0:0:0:0:
383,268,36580,1,8,0:0:0:0:
296,104,36743,1,2,0:0:0:0:
176,240,36906,1,8,0:0:0:0:
180,248,36988,1,0,0:0:0:0:
184,256,37069,1,0,0:0:0:0:
188,264,37151,1,0,0:0:0:0:
192,272,37232,6,0,B|228:240|228:240|296:240|296:240|348:200,1,160,6|8,0:1|0:0,0:0:0:0:
396,164,37721,1,0,0:0:0:0:
256,164,37884,1,4,0:0:0:0:
408,248,38047,1,2,0:0:0:0:
256,164,38210,1,8,0:0:0:0:
396,164,38374,6,0,P|412:124|400:80,1,80,4|2,0:0|0:0,0:0:0:0:
256,164,38700,1,2,0:0:0:0:
408,248,38863,2,0,L|504:240,1,80,12|0,0:0|0:0,0:0:0:0:
487,241,39107,1,8,0:0:0:0:
487,241,39189,1,0,0:0:0:0:
308,344,39352,1,2,0:0:0:0:
256,164,39515,6,0,L|272:32,1,120,12|0,0:0|0:0,0:0:0:0:
260,36,39841,5,6,0:0:0:0:
336,152,40004,1,0,0:0:0:0:
200,216,40167,1,12,0:0:0:0:
344,72,40330,2,0,L|472:68,1,120
463,68,40656,2,0,P|487:115|479:159,1,80,6|8,0:0|0:0,0:0:0:0:
376,228,40982,1,4,0:0:0:0:
376,228,41064,1,0,0:0:0:0:
376,228,41145,6,0,L|460:224,1,80,2|6,0:0|0:0,0:0:0:0:
300,188,41471,2,0,L|216:192,1,80,8|0,0:0|0:0,0:0:0:0:
220,191,41716,1,8,0:0:0:0:
220,191,41797,1,0,0:0:0:0:
304,272,41960,1,2,0:0:0:0:
364,136,42124,1,8,0:0:0:0:
360,128,42205,1,0,0:0:0:0:
356,120,42287,1,0,0:0:0:0:
352,112,42368,1,0,0:0:0:0:
348,104,42450,6,0,P|400:96|448:196,1,160,6|8,0:1|0:0,0:0:0:0:
400,232,42939,1,0,0:0:0:0:
192,139,43102,2,0,L|272:136,1,80,4|2,0:0|0:0,0:0:0:0:
272,136,43428,1,8,0:0:0:0:
136,200,43591,6,0,P|112:156|116:116,1,80,4|2,0:0|0:0,0:0:0:0:
276,56,43917,1,2,0:0:0:0:
276,56,43999,1,0,0:0:0:0:
276,56,44080,1,12,0:0:0:0:
252,228,44243,1,0,0:0:0:0:
116,128,44406,2,0,L|216:120,1,80,4|2,0:0|0:0,0:0:0:0:
368,152,44732,2,0,P|320:164|272:148,1,80,8|0,0:0|0:0,0:0:0:0:
280,144,44977,1,0,0:0:0:0:
272,132,45058,6,0,L|284:212,1,80,2|4,0:0|0:0,0:0:0:0:
292,292,45384,1,8,0:0:0:0:
200,176,45547,2,0,P|188:132|197:95,1,80,4|0,0:0|0:0,0:0:0:0:
368,152,45874,2,0,L|448:144,1,80,6|8,0:0|0:0,0:0:0:0:
256,272,46200,1,4,0:0:0:0:
256,272,46281,1,0,0:0:0:0:
256,272,46363,5,2,0:0:0:0:
368,152,46526,1,2,0:0:0:0:
428,308,46689,1,12,0:0:0:0:
256,272,46852,1,0,0:0:0:0:
368,152,47015,2,0,P|380:112|372:72,1,80,8|2,0:0|0:0,0:0:0:0:
204,112,47341,1,8,0:0:0:0:
196,108,47422,1,0,0:0:0:0:
188,104,47504,1,0,0:0:0:0:
180,100,47585,1,0,0:0:0:0:
172,96,47667,6,0,L|192:256,1,160,6|8,0:1|0:0,0:0:0:0:
288,164,48156,1,0,0:0:0:0:
288,164,48238,1,0,0:0:0:0:
288,164,48319,1,4,0:0:0:0:
128,300,48482,1,2,0:0:0:0:
268,244,48645,1,8,0:0:0:0:
164,172,48808,6,0,L|68:164,1,80,4|2,0:0|0:0,0:0:0:0:
268,244,49134,1,6,0:0:0:0:
224,60,49297,1,12,0:0:0:0:
80,188,49460,1,0,0:0:0:0:
80,188,49542,1,8,0:0:0:0:
80,188,49624,1,0,0:0:0:0:
228,152,49787,1,2,0:0:0:0:
136,24,49950,6,0,L|144:164,1,120,8|0,0:0|0:0,0:0:0:0:
152,160,50276,6,0,P|200:164|228:180,1,80,2|4,0:0|0:0,0:0:0:0:
348,132,50602,1,8,0:0:0:0:
176,244,50765,1,4,0:0:0:0:
180,264,50846,1,0,0:0:0:0:
184,284,50928,1,0,0:0:0:0:
324,212,51091,1,6,0:0:0:0:
240,104,51254,2,0,L|232:24,1,80,8|4,0:0|0:0,0:0:0:0:
324,212,51580,5,2,0:0:0:0:
324,212,51743,1,12,0:0:0:0:
168,136,51906,1,8,0:0:0:0:
168,136,52069,1,4,0:0:0:0:
312,52,52232,1,8,0:0:0:0:
312,52,52395,1,0,0:0:0:0:
232,192,52558,1,8,0:0:0:0:
248,188,52640,1,4,0:0:0:0:
264,184,52721,1,12,0:0:0:0:
280,180,52803,1,0,0:0:0:0:
296,176,52884,6,0,B|284:224|284:224|301:287|301:287|290:332,1,160,6|8,0:1|0:0,0:0:0:0:
220,292,53374,2,0,L|120:304,1,80,2|0,0:0|0:0,0:0:0:0:
60,312,53700,1,2,0:0:0:0:
100,152,53863,2,0,P|106:191|94:229,1,80,8|0,0:0|0:0,0:0:0:0:
94,228,54107,1,0,0:0:0:0:
94,228,54189,6,0,L|252:208,1,160,2|8,0:0|0:0,0:0:0:0:
320,260,54678,2,0,P|336:216|328:180,1,80
272,120,55004,1,2,0:0:0:0:
112,96,55167,2,0,L|191:99,1,80,8|0,0:0|0:0,0:0:0:0:
191,99,55412,1,0,0:0:0:0:
191,99,55493,6,0,B|180:144|180:144|204:176|212:208|212:208|200:264,1,160,2|8,0:0|0:0,0:0:0:0:
124,212,55982,2,0,L|24:220,1,80,2|0,0:0|0:0,0:0:0:0:
272,284,56308,1,0,0:0:0:0:
272,284,56471,2,0,L|360:296,1,80,8|0,0:0|0:0,0:0:0:0:
351,294,56716,1,0,0:0:0:0:
351,294,56797,5,2,0:0:0:0:
456,200,56960,1,2,0:0:0:0:
456,200,57124,1,4,0:0:0:0:
316,152,57287,1,0,0:0:0:0:
316,152,57450,1,12,0:0:0:0:
351,294,57613,1,2,0:0:0:0:
351,294,57694,1,0,0:0:0:0:
351,294,57776,2,0,L|372:200,1,80,8|0,0:0|0:0,0:0:0:0:
256,32,58102,6,0,P|216:88|240:172,1,160,6|8,0:0|0:0,0:0:0:0:
316,152,58591,2,0,L|404:144,1,80,2|0,0:0|0:0,0:0:0:0:
236,248,58917,2,0,L|148:240,1,80,6|8,0:0|0:0,0:0:0:0:
284,316,59243,1,0,0:0:0:0:
284,316,59325,1,0,0:0:0:0:
284,316,59406,6,0,P|316:272|280:176,1,160,2|8,0:0|0:0,0:0:0:0:
212,144,59895,1,4,0:0:0:0:
212,144,59977,1,8,0:0:0:0:
212,144,60058,1,0,0:0:0:0:
152,200,60221,5,2,0:0:0:0:
288,100,60384,1,8,0:0:0:0:
136,28,60547,1,4,0:0:0:0:
212,144,60710,6,0,P|232:188|228:224,1,80,2|0,0:0|0:0,0:0:0:0:
128,324,61037,2,0,L|48:320,1,80,8|2,0:0|0:0,0:0:0:0:
48,320,61281,1,0,0:0:0:0:
48,320,61363,1,0,0:0:0:0:
208,292,61526,1,2,0:0:0:0:
140,112,61689,2,0,L|124:192,1,80,8|0,0:0|0:0,0:0:0:0:
132,204,61933,1,0,0:0:0:0:
140,220,62015,6,0,P|196:208|232:216,1,80,2|2,0:0|0:0,0:0:0:0:
372,168,62341,2,0,L|276:176,1,80,8|0,0:0|0:0,0:0:0:0:
280,164,62585,1,0,0:0:0:0:
268,152,62667,2,0,L|280:64,1,80,12|2,0:0|0:0,0:0:0:0:
284,252,62993,2,0,P|296:292|284:328,1,80,12|0,0:0|0:0,0:0:0:0:
65,246,63319,6,0,B|185:234|185:234|229:202,1,160,6|8,0:1|0:0,0:0:0:0:
160,156,63808,1,6,0:0:0:0:
160,156,63890,1,0,0:0:0:0:
160,156,63971,1,0,0:0:0:0:
296,208,64134,1,2,0:0:0:0:
192,352,64297,2,0,P|176:316|184:268,1,80,8|0,0:0|0:0,0:0:0:0:
296,208,64624,6,0,L|464:216,1,160,6|8,0:0|0:0,0:0:0:0:
496,300,65113,1,4,0:0:0:0:
496,300,65194,1,8,0:0:0:0:
496,300,65276,1,0,0:0:0:0:
360,352,65439,1,2,0:0:0:0:
441,137,65602,2,0,L|456:216,1,80,12|0,0:0|0:0,0:0:0:0:
448,228,65846,1,0,0:0:0:0:
440,240,65928,6,0,P|396:240|360:260,1,80,2|0,0:0|0:0,0:0:0:0:
292,220,66254,1,8,0:0:0:0:
340,36,66417,1,6,0:0:0:0:
340,36,66499,1,0,0:0:0:0:
340,36,66580,1,0,0:0:0:0:
400,88,66743,2,0,L|388:172,1,80,2|8,0:0|0:0,0:0:0:0:
292,220,67069,1,0,0:0:0:0:
292,220,67151,1,0,0:0:0:0:
292,220,67232,5,6,0:0:0:0:
400,88,67395,1,2,0:0:0:0:
464,196,67558,1,12,0:0:0:0:
320,136,67721,6,0,L|132:144,1,160,0|2,0:0|0:0,0:0:0:0:
160,142,68129,1,0,0:0:0:0:
160,142,68210,2,0,L|208:212,1,80,12|0,0:0|0:0,0:0:0:0:
320,136,68537,6,0,P|332:84|312:40,1,80,2|0,0:0|0:0,0:0:0:0:
248,40,68863,1,8,0:0:0:0:
376,192,69026,1,6,0:0:0:0:
376,192,69107,1,0,0:0:0:0:
376,192,69189,2,0,L|368:276,1,80,0|2,0:0|0:0,0:0:0:0:
172,184,69515,2,0,P|240:176|268:184,1,80,8|0,0:0|0:0,0:0:0:0:
308,328,69841,6,0,L|212:304,1,80,2|2,0:0|0:0,0:0:0:0:
152,292,70167,1,8,0:0:0:0:
250,178,70330,1,4,0:0:0:0:
250,178,70412,1,8,0:0:0:0:
250,178,70493,1,0,0:0:0:0:
152,292,70656,1,2,0:0:0:0:
316,228,70819,2,0,L|400:220,1,80,8|0,0:0|0:0,0:0:0:0:
250,178,71145,6,0,P|224:128|248:56,1,120,6|0,0:0|0:0,0:0:0:0:
237,68,71471,2,0,L|328:84,1,80,8|4,0:0|0:0,0:0:0:0:
316,82,71716,1,0,0:0:0:0:
316,82,71797,1,0,0:0:0:0:
184,228,71960,1,2,0:0:0:0:
132,48,72124,1,8,0:0:0:0:
250,178,72287,1,0,0:0:0:0:
250,178,72368,1,0,0:0:0:0:
250,178,72450,6,0,P|266:224|257:265,1,80,2|2,0:0|0:0,0:0:0:0:
96,220,72776,2,0,L|80:128,1,80,12|0,0:0|0:0,0:0:0:0:
82,141,73020,2,0,P|144:148|180:132,1,80,8|0,0:0|0:0,0:0:0:0:
196,124,73265,1,2,0:0:0:0:
280,308,73428,2,0,L|192:316,1,80,8|0,0:0|0:0,0:0:0:0:
120,320,73754,1,4,0:1:0:0:
172,328,84189,6,0,B|252:324|252:324|272:332|272:332|364:328,2,180.000006866455,4|2|2,0:1|0:0|0:0,0:0:0:0:
36,196,85493,6,0,P|92:164|152:176,1,120.000004577637
204,216,85982,2,0,L|340:224,1,120.000004577637,2|0,0:0|0:0,0:0:0:0:
323,223,86471,1,2,0:0:0:0:
323,223,86634,1,0,0:0:0:0:
396,192,86797,6,0,B|420:176|420:176|440:144|436:112|420:76,1,120.000004577637
360,52,87287,2,0,L|220:68,1,120.000004577637,2|0,0:0|0:0,0:0:0:0:
184,112,87776,2,0,P|172:144|180:176,1,60.0000022888184,2|0,0:0|0:0,0:0:0:0:
240,208,88102,5,2,0:0:0:0:
312,188,88265,1,0,0:0:0:0:
384,168,88428,1,0,0:0:0:0:
444,124,88591,2,0,P|460:176|416:236,1,120.000004577637,2|2,0:0|0:0,0:0:0:0:
364,268,89080,2,0,L|288:264,1,60.0000022888184,0|2,0:0|0:0,0:0:0:0:
236,236,89406,6,0,P|212:200|212:164,1,60.0000022888184
316,36,89732,2,0,L|304:108,1,60.0000022888184,8|0,0:0|0:0,0:0:0:0:
320,120,89977,2,0,L|412:128,1,90.0000034332277,8|0,0:0|0:0,0:0:0:0:
456,208,90384,2,0,L|388:202,1,60.0000022888184,8|0,0:0|0:0,0:0:0:0:
388,216,90629,1,0,0:0:0:0:
380,228,90710,6,0,P|400:260|400:300,1,60.0000022888184
256,352,91037,2,0,L|188:344,1,60.0000022888184,8|0,0:0|0:0,0:0:0:0:
176,324,91281,2,0,P|156:288|168:232,1,90.0000034332277,8|0,0:0|0:0,0:0:0:0:
288,116,91689,2,0,L|276:184,1,60.0000022888184,8|0,0:0|0:0,0:0:0:0:
284,188,91933,1,0,0:0:0:0:
292,200,92015,6,0,L|280:280,1,60.0000022888184
120,348,92341,2,0,P|172:328|200:332,1,60.0000022888184,8|0,0:0|0:0,0:0:0:0:
196,340,92585,2,0,L|292:348,1,90.0000034332277,8|0,0:0|0:0,0:0:0:0:
412,316,92993,2,0,P|428:284|420:240,1,60.0000022888184,8|0,0:0|0:0,0:0:0:0:
400,180,93319,5,0,0:0:0:0:
400,180,93482,1,8,0:0:0:0:
340,124,93645,1,8,0:0:0:0:
340,124,93808,1,0,0:0:0:0:
256,108,93971,1,2,0:0:0:0:
120,280,94297,5,0,0:0:0:0:
124,288,94379,1,0,0:0:0:0:
128,296,94460,1,0,0:0:0:0:
132,304,94542,1,0,0:0:0:0:
136,308,94624,6,0,L|164:128,1,160,6|8,0:1|0:0,0:0:0:0:
244,208,95113,1,0,0:0:0:0:
244,208,95276,2,0,L|231:287,1,80,4|2,0:0|0:0,0:0:0:0:
64,344,95602,1,8,0:0:0:0:
260,264,95765,6,0,L|272:184,1,80,4|2,0:0|0:0,0:0:0:0:
288,44,96091,1,2,0:0:0:0:
288,44,96172,1,0,0:0:0:0:
288,44,96254,2,0,P|312:88|304:132,1,80,12|0,0:0|0:0,0:0:0:0:
92,216,96580,2,0,L|188:208,1,80,0|2,0:0|0:0,0:0:0:0:
416,200,96906,2,0,L|328:188,1,80,8|0,0:0|0:0,0:0:0:0:
336,189,97151,1,0,0:0:0:0:
336,189,97232,6,0,P|304:228|336:328,1,160,2|12,0:0|0:0,0:0:0:0:
408,300,97721,1,0,0:0:0:0:
408,300,97803,1,0,0:0:0:0:
408,300,97884,1,0,0:0:0:0:
252,352,98047,2,0,L|160:356,1,80,6|8,0:0|0:0,0:0:0:0:
348,224,98374,1,4,0:0:0:0:
348,224,98537,6,0,P|332:184|336:140,1,80,2|2,0:0|0:0,0:0:0:0:
396,96,98863,1,12,0:0:0:0:
256,228,99026,1,0,0:0:0:0:
256,228,99107,1,0,0:0:0:0:
256,228,99189,1,8,0:0:0:0:
212,40,99352,1,2,0:0:0:0:
396,96,99515,1,8,0:0:0:0:
400,104,99596,1,0,0:0:0:0:
404,112,99678,1,0,0:0:0:0:
408,120,99759,1,0,0:0:0:0:
412,128,99841,6,0,L|248:116,1,160,6|8,0:1|0:0,0:0:0:0:
172,108,100330,1,0,0:0:0:0:
328,200,100493,1,4,0:0:0:0:
328,200,100575,1,0,0:0:0:0:
328,200,100656,1,2,0:0:0:0:
172,108,100819,2,0,L|180:192,1,80,8|4,0:0|0:0,0:0:0:0:
179,187,101064,1,0,0:0:0:0:
179,187,101145,5,2,0:0:0:0:
116,240,101308,1,2,0:0:0:0:
256,128,101471,1,12,0:0:0:0:
88,40,101634,1,0,0:0:0:0:
88,40,101716,1,8,0:0:0:0:
88,40,101797,2,0,P|76:88|92:120,1,80,0|2,0:0|0:0,0:0:0:0:
256,128,102124,2,0,L|392:112,1,120,12|0,0:0|0:0,0:0:0:0:
400,128,102450,6,0,P|416:168|408:212,1,80,6|0,0:0|0:0,0:0:0:0:
256,128,102776,1,8,0:0:0:0:
352,264,102939,1,0,0:0:0:0:
352,264,103020,1,0,0:0:0:0:
352,264,103102,1,0,0:0:0:0:
484,156,103265,1,6,0:0:0:0:
284,208,103428,2,0,L|196:208,1,80,8|4,0:0|0:0,0:0:0:0:
424,224,103754,6,0,P|436:264|420:308,1,80,2|6,0:0|0:0,0:0:0:0:
364,352,104080,1,8,0:0:0:0:
504,340,104243,1,0,0:0:0:0:
504,340,104325,1,8,0:0:0:0:
504,340,104406,1,0,0:0:0:0:
424,224,104569,1,2,0:0:0:0:
300,296,104732,1,8,0:0:0:0:
304,288,104813,1,0,0:0:0:0:
308,280,104895,1,0,0:0:0:0:
312,272,104976,1,0,0:0:0:0:
316,264,105058,6,0,L|148:288,1,160,6|8,0:1|0:0,0:0:0:0:
80,300,105547,1,0,0:0:0:0:
80,300,105629,1,0,0:0:0:0:
80,300,105710,1,4,0:0:0:0:
208,204,105874,1,2,0:0:0:0:
64,60,106037,2,0,P|52:84|68:144,1,80,8|4,0:0|0:0,0:0:0:0:
272,92,106363,6,0,L|180:104,1,80,2|2,0:0|0:0,0:0:0:0:
20,212,106689,2,0,L|104:220,1,80,12|0,0:0|0:0,0:0:0:0:
109,231,106933,1,8,0:0:0:0:
119,243,107015,1,0,0:0:0:0:
276,196,107178,1,2,0:0:0:0:
164,72,107341,1,8,0:0:0:0:
276,196,107504,1,0,0:0:0:0:
276,196,107585,1,0,0:0:0:0:
276,196,107667,6,0,L|264:288,1,80,2|4,0:0|0:0,0:0:0:0:
256,356,107993,1,8,0:0:0:0:
116,220,108156,2,0,P|164:216|200:236,1,80,4|0,0:0|0:0,0:0:0:0:
436,160,108482,2,0,P|400:184|352:180,1,80,6|8,0:0|0:0,0:0:0:0:
304,124,108808,6,0,L|296:44,1,80,4|2,0:0|0:0,0:0:0:0:
296,44,109134,1,2,0:0:0:0:
436,160,109297,2,0,P|436:212|399:251,1,80,12|0,0:0|0:0,0:0:0:0:
421,234,109542,1,8,0:0:0:0:
421,234,109624,2,0,L|504:228,1,80,0|2,0:0|0:0,0:0:0:0:
272,296,109950,1,8,0:0:0:0:
264,292,110031,1,0,0:0:0:0:
256,288,110113,1,0,0:0:0:0:
248,284,110194,1,0,0:0:0:0:
240,280,110276,6,0,L|216:112,1,160,6|8,0:1|0:0,0:0:0:0:
140,212,110765,1,0,0:0:0:0:
300,80,110928,2,0,L|311:159,1,80,4|2,0:0|0:0,0:0:0:0:
140,212,111254,1,8,0:0:0:0:
385,181,111417,6,0,P|351:161|312:160,1,80,4|2,0:0|0:0,0:0:0:0:
328,240,111743,1,2,0:0:0:0:
460,140,111906,1,12,0:0:0:0:
328,28,112069,1,0,0:0:0:0:
328,28,112151,1,8,0:0:0:0:
328,28,112232,1,0,0:0:0:0:
460,140,112395,1,2,0:0:0:0:
252,68,112558,6,0,L|260:160,1,80,8|0,0:0|0:0,0:0:0:0:
258,147,112803,1,0,0:0:0:0:
258,147,112884,6,0,P|208:132|180:132,1,80,2|4,0:0|0:0,0:0:0:0:
116,180,113210,1,8,0:0:0:0:
284,224,113374,2,0,L|368:228,1,80,4|0,0:0|0:0,0:0:0:0:
363,227,113700,1,6,0:0:0:0:
221,326,113863,1,8,0:0:0:0:
116,180,114026,1,4,0:0:0:0:
116,180,114107,1,0,0:0:0:0:
116,180,114189,6,0,L|128:264,1,80,2|2,0:0|0:0,0:0:0:0:
176,108,114515,2,0,P|228:96|264:108,1,80,8|0,0:0|0:0,0:0:0:0:
260,116,114759,1,8,0:0:0:0:
268,129,114841,2,0,L|256:211,1,80
248,231,115085,2,0,L|340:215,1,80,2|0,0:0|0:0,0:0:0:0:
361,206,115330,1,0,0:0:0:0:
361,206,115412,1,0,0:0:0:0:
361,206,115493,6,0,L|337:286,1,80,6|0,0:1|0:0,0:0:0:0:
448,224,115819,2,0,P|472:176|444:104,1,120,8|0,0:0|0:0,0:0:0:0:
432,100,116145,2,0,L|348:112,1,80,0|2,0:0|0:0,0:0:0:0:
208,176,116471,2,0,L|287:164,1,80,8|0,0:0|0:0,0:0:0:0:
352,111,116797,6,0,P|368:64|356:28,1,80,2|2,0:0|0:0,0:0:0:0:
208,176,117124,2,0,L|220:256,1,80,8|0,0:0|0:0,0:0:0:0:
219,255,117368,1,8,0:0:0:0:
219,255,117450,1,0,0:0:0:0:
364,188,117613,1,2,0:0:0:0:
232,96,117776,1,8,0:0:0:0:
288,216,117939,1,4,0:0:0:0:
288,216,118020,1,0,0:0:0:0:
288,216,118102,6,0,P|298:250|279:309,1,80,2|0,0:0|0:0,0:0:0:0:
32,184,118428,2,0,L|168:172,1,120,8|0,0:0|0:0,0:0:0:0:
151,173,118754,2,0,P|176:128|172:88,1,80,0|2,0:0|0:0,0:0:0:0:
32,184,119080,2,0,P|48:232|48:280,1,80,8|0,0:0|0:0,0:0:0:0:
248,252,119406,6,0,L|152:252,1,80,2|2,0:0|0:0,0:0:0:0:
112,312,119732,1,8,0:0:0:0:
248,252,119895,2,0,P|300:248|368:324,1,160,4|2,0:0|0:0,0:0:0:0:
375,330,120303,1,0,0:0:0:0:
375,330,120384,2,0,L|455:323,1,80,8|4,0:0|0:0,0:0:0:0:
463,335,120629,1,0,0:0:0:0:
475,347,120710,6,0,L|459:251,1,80,2|0,0:0|0:0,0:0:0:0:
336,214,121037,2,0,P|380:202|416:208,1,80,8|0,0:0|0:0,0:0:0:0:
273,265,121363,2,0,P|229:277|193:271,1,80,0|2,0:0|0:0,0:0:0:0:
343,134,121689,2,0,L|336:214,1,80,8|0,0:0|0:0,0:0:0:0:
348,292,122015,6,0,L|440:304,1,80,2|2,0:0|0:0,0:0:0:0:
480,240,122341,1,8,0:0:0:0:
284,344,122504,1,4,0:0:0:0:
284,344,122585,1,8,0:0:0:0:
284,344,122667,2,0,L|200:340,1,80,0|2,0:0|0:0,0:0:0:0:
324,192,122993,1,8,0:0:0:0:
364,320,123156,1,0,0:0:0:0:
364,320,123238,1,0,0:0:0:0:
364,320,123319,6,0,P|416:324|440:344,1,80,2|0,0:0|0:0,0:0:0:0:
244,232,123645,2,0,L|236:152,1,80,8|0,0:0|0:0,0:0:0:0:
236,152,123890,1,0,0:0:0:0:
236,152,123971,2,0,P|284:160|320:152,1,80,0|2,0:0|0:0,0:0:0:0:
176,280,124297,2,0,L|88:292,1,80,8|0,0:0|0:0,0:0:0:0:
256,336,124624,5,2,0:0:0:0:
256,336,124787,1,12,0:0:0:0:
96,290,124950,1,2,0:0:0:0:
96,290,125113,2,0,L|76:126,1,160,12|2,0:0|0:0,0:0:0:0:
76,131,125520,1,2,0:0:0:0:
76,131,125602,1,12,0:0:0:0:
67,51,125765,1,8,0:0:0:0:
256,192,125928,12,0,127884,0:0:0:0:
