osu file format v14

[General]
AudioFilename: audio.mp3
AudioLeadIn: 0
PreviewTime: 13547
Countdown: 0
SampleSet: Normal
StackLeniency: 0.7
Mode: 2
LetterboxInBreaks: 0
WidescreenStoryboard: 1

[Editor]
DistanceSpacing: 1.3
BeatDivisor: 2
GridSize: 4
TimelineZoom: 2.3

[Metadata]
Title:We Will Be Heroes (TV Size)
TitleUnicode:We Will Be Heroes (TV Size)
Artist:Kirsten Price
ArtistUnicode:Kirsten Price
Creator:Dako
Version:Salad
Source:Pokémon: DP Battle Dimension
Tags:John Loeffler David Wolfert pokemon diamond and pearl opening
BeatmapID:2164976
BeatmapSetID:1035466

[Difficulty]
HPDrainRate:4
CircleSize:3
OverallDifficulty:6.5
ApproachRate:6.5
SliderMultiplier:1.4
SliderTickRate:1

[Events]
//Background and Video events
0,0,"1243490-pokemon-diamond-and-pearl-wallpaper-1920x1080-for-htc.jpg",0,0
//Break Periods
//Storyboard Layer 0 (Background)
//Storyboard Layer 1 (Fail)
//Storyboard Layer 2 (Pass)
//Storyboard Layer 3 (Foreground)
//Storyboard Layer 4 (Overlay)
//Storyboard Sound Samples

[TimingPoints]
-108,413.793103448276,4,1,1,40,1,0
12305,-100,4,1,1,40,0,0
13133,-100,4,1,1,60,0,0
30305,-100,4,1,1,50,0,0
30926,-100,4,1,1,40,0,0
31754,-100,4,1,1,30,0,0
33409,-100,4,1,1,5,0,0

[Colours]
Combo1 : 128,128,255
Combo2 : 0,128,255
Combo3 : 255,128,192
Combo4 : 192,192,192

[HitObjects]
255,260,305,6,0,L|155:261,1,70,8|0,0:0|0:0,0:0:0:0:
313,257,719,2,0,P|358:214|308:170,1,140,10|8,0:0|0:0,0:0:0:0:
185,260,1340,6,0,L|43:193,2,140,2|0|2,0:0|0:0|0:0,0:0:0:0:
258,312,2374,1,8,0:0:0:0:
438,310,2788,1,8,0:0:0:0:
307,211,3202,5,10,0:0:0:0:
205,212,3409,2,0,P|159:168|201:118,1,140,2|0,0:0|0:0,0:0:0:0:
404,142,4236,1,0,0:0:0:0:
241,127,4650,6,0,L|103:74,2,140,2|0|2,0:0|0:0|0:0,0:0:0:0:
312,136,5685,1,8,0:0:0:0:
409,176,6098,1,8,0:0:0:0:
96,190,6512,6,0,P|52:141|112:122,1,140,10|8,0:0|0:0,0:0:0:0:
207,270,7133,2,0,L|66:240,1,140,2|0,0:0|0:0,0:0:0:0:
224,164,7960,1,0,0:0:0:0:
417,176,8167,6,0,P|467:140|406:103,1,140,10|8,0:0|0:0,0:0:0:0:
325,336,8788,2,0,L|404:336,1,70,2|8,0:0|0:0,0:0:0:0:
478,265,9202,2,0,L|328:265,1,140,2|0,0:0|0:0,0:0:0:0:
134,180,9823,6,0,P|86:151|146:128,1,140,10|8,0:0|0:0,0:0:0:0:
230,253,10443,2,0,L|152:255,1,70,2|8,0:0|0:0,0:0:0:0:
68,329,10857,2,0,L|68:249,1,70,2|8,0:0|0:0,0:0:0:0:
281,184,11271,6,0,L|423:184,2,140,2|0|2,0:0|0:0|0:0,0:0:0:0:
190,187,12305,1,8,0:3:0:0:
116,175,12512,1,8,0:3:0:0:
103,110,12719,1,8,0:3:0:0:
174,86,12926,1,8,0:3:0:0:
383,73,13133,5,4,0:2:0:0:
487,100,13547,2,0,L|492:181,1,70,8|0,0:2|0:0,0:0:0:0:
412,181,13960,2,0,L|324:184,1,70,8|0,0:0|0:0,0:0:0:0:
412,271,14374,2,0,L|418:345,1,70,8|0,0:2|0:0,0:0:0:0:
201,318,14788,6,0,P|137:300|118:219,1,140,10|8,0:0|0:2,0:0:0:0:
313,231,15409,2,0,L|470:203,1,140,2|0,0:0|0:0,0:0:0:0:
338,137,16029,1,8,0:2:0:0:
253,139,16236,1,0,0:2:0:0:
253,139,16443,5,8,0:0:0:0:
393,316,16857,1,8,0:2:0:0:
471,289,17064,1,0,0:0:0:0:
393,316,17271,2,0,L|223:318,1,140,8|8,0:0|0:2,0:0:0:0:
151,208,17892,6,0,L|298:206,1,140,2|8,0:0|0:2,0:0:0:0:
389,207,18512,2,0,L|300:207,1,70,8|0,0:0|0:0,0:0:0:0:
108,210,18926,2,0,P|71:154|136:129,1,140,10|8,0:2|0:0,0:0:0:0:
206,100,19547,1,8,0:2:0:0:
424,215,19754,5,4,0:2:0:0:
312,294,20167,2,0,L|227:294,1,70,8|0,0:2|0:0,0:0:0:0:
157,295,20581,2,0,L|157:224,1,70,8|0,0:0|0:0,0:0:0:0:
242,218,20995,2,0,L|242:129,1,70,8|0,0:2|0:0,0:0:0:0:
34,72,21409,6,0,P|41:142|109:175,1,140,10|8,0:0|0:2,0:0:0:0:
183,289,22029,2,0,L|16:289,1,140,2|0,0:0|0:0,0:0:0:0:
110,216,22650,1,8,0:2:0:0:
285,281,23064,5,10,0:0:0:0:
374,283,23271,2,0,L|462:283,2,70,0|8|0,0:0|0:2|0:0,0:0:0:0:
157,214,23892,2,0,P|111:179|168:149,1,140,10|8,0:0|0:2,0:0:0:0:
369,233,24719,6,0,L|444:233,2,70,10|0|8,0:0|0:0|0:2,0:0:0:0:
162,309,25340,2,0,P|89:256|167:215,1,210,2|8,0:0|0:2,0:0:0:0:
254,216,26167,1,8,0:2:0:0:
457,217,26374,5,4,0:2:0:0:
321,208,26788,2,0,L|318:125,1,70,8|0,0:2|0:0,0:0:0:0:
228,67,27202,2,0,L|297:72,1,70,8|0,0:0|0:0,0:0:0:0:
385,211,27616,2,0,L|353:130,1,70,8|0,0:2|0:0,0:0:0:0:
149,257,28029,6,0,P|112:202|163:173,1,140,10|8,0:0|0:2,0:0:0:0:
360,280,28650,2,0,L|492:232,1,140,2|0,0:0|0:0,0:0:0:0:
404,80,29271,1,8,0:2:0:0:
104,295,29685,6,0,L|14:292,2,70,8|8|8,0:2|0:0|0:0,0:0:0:0:
208,296,30305,2,0,P|259:256|212:219,1,140,8|0,0:2|0:0,0:0:0:0:
104,295,30926,2,0,L|102:223,1,70,8|8,0:2|0:2,0:0:0:0:
347,222,31340,1,4,0:2:0:0:
256,192,31754,12,0,33409,0:0:0:0:
