osu file format v14

[General]
AudioFilename: audio.mp3
AudioLeadIn: 0
PreviewTime: 13108
Countdown: 0
SampleSet: Normal
StackLeniency: 0.7
Mode: 2
LetterboxInBreaks: 0
WidescreenStoryboard: 0

[Editor]
Bookmarks: 20556,25108
DistanceSpacing: 1.4
BeatDivisor: 4
GridSize: 8
TimelineZoom: 3.799999

[Metadata]
Title:We Will Be Heroes
TitleUnicode:We Will Be Heroes
Artist:Kirsten Price
ArtistUnicode:Kirsten Price
Creator:InternalLight
Version:Nelly's Platter
Source:Pokémon: DP Battle Dimension
Tags:John Loeffler David Wolfert pokemon diamond and pearl tv size opening underforest gero nelly lcfc lowcombofc
BeatmapID:1252437
BeatmapSetID:579551

[Difficulty]
HPDrainRate:5
CircleSize:3.7
OverallDifficulty:8
ApproachRate:8
SliderMultiplier:1.8
SliderTickRate:2

[Events]
//Background and Video events
0,0,"bg.jpg",0,0
//Break Periods
//Storyboard Layer 0 (Background)
//Storyboard Layer 1 (Fail)
//Storyboard Layer 2 (Pass)
//Storyboard Layer 3 (Foreground)
//Storyboard Sound Samples

[TimingPoints]
-133,413.793103448276,4,1,1,60,1,0
12280,-100,4,2,1,60,0,0
13108,-100,4,2,1,80,0,0

[HitObjects]
128,192,73,5,0,0:0:0:0:
256,192,280,2,0,L|272:96,1,90,2|0,0:0|0:0,0:0:0:0:
144,64,694,2,0,L|48:64,2,90,2|0|2,0:0|0:0|0:0,0:0:0:0:
328,64,1315,6,0,L|488:160,2,180,0|0|0,0:0|0:0|0:0,0:0:0:0:
432,64,2349,2,0,L|448:160,1,90,0|0,0:0|0:0,0:0:0:0:
304,240,2763,2,0,L|208:240,1,90,2|0,0:0|0:0,0:0:0:0:
400,240,3177,5,2,0:0:0:0:
296,320,3384,2,0,P|232:288|296:240,1,180,0|0,0:0|0:0,0:0:0:0:
400,112,4004,2,0,L|304:112,2,90,2|0|2,0:0|0:0|0:0,0:0:0:0:
192,192,4625,6,0,L|32:288,2,180,0|0|0,0:0|0:0|0:0,0:0:0:0:
312,192,5660,1,2,0:0:0:0:
355,187,5763,1,0,0:0:0:0:
376,149,5866,1,0,0:0:0:0:
358,110,5970,1,0,0:0:0:0:
308,102,6073,1,2,0:0:0:0:
265,110,6176,1,0,0:0:0:0:
247,149,6280,1,0,0:0:0:0:
268,187,6383,1,0,0:0:0:0:
312,192,6487,6,0,L|408:192,2,90,2|0|2,0:0|0:0|0:0,0:0:0:0:
128,192,7108,2,0,P|66:229|133:259,1,180,2|2,0:0|0:0,0:0:0:0:
240,256,7729,2,0,L|144:256,1,90,2|2,0:0|0:0,0:0:0:0:
352,160,8142,6,0,P|384:200|312:288,1,180,2|2,0:0|0:0,0:0:0:0:
192,272,8763,1,2,0:0:0:0:
318,288,8970,1,0,0:0:0:0:
395,326,9176,1,2,0:0:0:0:
463,275,9383,1,2,0:0:0:0:
449,191,9590,1,2,0:0:0:0:
168,128,9798,6,0,L|72:128,2,90,6|0|2,0:0|0:0|0:0,0:0:0:0:
320,128,10418,2,0,L|416:160,1,90,4|2,0:0|0:0,0:0:0:0:
188,208,10832,2,0,L|92:240,1,90,0|2,0:0|0:0,0:0:0:0:
384,104,11246,6,0,P|440:112|504:208,2,180,4|0|4,0:0|0:0|0:0,0:0:0:0:
100,224,12280,1,8,0:0:0:0:
58,227,12383,1,8,0:0:0:0:
24,195,12486,1,8,0:0:0:0:
11,154,12590,1,8,0:0:0:0:
24,114,12693,1,8,0:0:0:0:
58,83,12797,1,8,0:0:0:0:
100,83,12900,1,0,0:0:0:0:
368,72,13108,6,0,L|458:72,1,90,4|0,0:0|0:0,0:0:0:0:
296,72,13522,2,0,L|284:164,1,90,8|0,0:0|0:0,0:0:0:0:
428,204,13935,2,0,L|338:204,1,90,2|0,0:0|0:0,0:0:0:0:
192,200,14349,2,0,L|96:200,1,90,8|0,0:0|0:0,0:0:0:0:
408,312,14763,6,0,P|456:288|408:200,1,180,4|8,0:0|0:0,0:0:0:0:
280,192,15384,2,0,L|96:192,1,180,2|2,0:0|0:0,0:0:0:0:
224,296,16004,2,0,L|320:296,1,90,8|0,0:0|0:0,0:0:0:0:
128,128,16418,6,0,P|66:165|133:195,1,180,2|8,0:0|0:0,0:0:0:0:
272,192,17039,1,0,0:0:0:0:
392,192,17246,2,0,L|488:192,2,90,2|0|8,0:0|0:0|0:0,0:0:0:0:
192,192,17867,6,0,P|112:224|128:304,1,180,2|8,0:0|0:0,0:0:0:0:
264,304,18487,2,0,L|280:208,1,90,0|2,0:0|0:0,0:0:0:0:
72,128,18901,2,0,P|10:165|77:195,1,180,8|2,0:0|0:0,0:0:0:0:
196,188,19522,1,8,0:0:0:0:
464,64,19729,6,0,L|480:160,1,90,4|0,0:0|0:0,0:0:0:0:
324,160,20143,2,0,L|308:256,1,90,8|0,0:0|0:0,0:0:0:0:
492,288,20556,2,0,L|396:288,1,90,2|0,0:0|0:0,0:0:0:0:
256,288,20970,2,0,L|352:288,1,90,8|0,0:0|0:0,0:0:0:0:
48,224,21384,6,0,P|24:168|112:96,1,180,4|8,0:0|0:0,0:0:0:0:
224,88,22005,2,0,L|408:88,1,180,0|0,0:0|0:0,0:0:0:0:
280,192,22625,2,0,L|190:192,1,90,8|0,0:0|0:0,0:0:0:0:
360,240,23039,6,0,L|375:152,1,90,2|0,0:0|0:0,0:0:0:0:
508,56,23453,2,0,L|504:152,1,90,8|0,0:0|0:0,0:0:0:0:
288,64,23867,2,0,P|226:101|293:131,1,180,2|8,0:0|0:0,0:0:0:0:
432,96,24487,1,0,0:0:0:0:
148,164,24694,6,0,L|52:148,2,90,2|0|8,0:0|0:0|0:0,0:0:0:0:
416,64,25315,2,0,P|478:101|411:131,1,180,0|8,0:0|0:0,0:0:0:0:
216,128,25935,2,0,L|126:128,1,90,8|2,0:0|0:0,0:0:0:0:
406,192,26349,6,0,L|496:192,1,90,4|0,0:0|0:0,0:0:0:0:
368,208,26763,2,0,L|352:304,1,90,8|0,0:0|0:0,0:0:0:0:
224,304,27177,2,0,L|128:304,1,90,2|0,0:0|0:0,0:0:0:0:
272,144,27591,2,0,L|368:144,1,90,8|0,0:0|0:0,0:0:0:0:
64,80,28004,6,0,P|48:136|144:200,1,180,4|8,0:0|0:0,0:0:0:0:
272,192,28625,2,0,P|288:248|192:312,1,180,0|0,0:0|0:0,0:0:0:0:
48,312,29246,2,0,L|138:312,1,90,8|0,0:0|0:0,0:0:0:0:
408,160,29660,6,0,L|504:152,2,90,12|0|2,0:0|0:0|0:0,0:0:0:0:
80,64,30280,2,0,P|16:112|80:160,1,180,12|2,0:0|0:0,0:0:0:0:
288,160,30901,2,0,L|378:160,1,90,12|2,0:0|0:0,0:0:0:0:
32,64,31315,1,4,0:0:0:0:
