osu file format v14

[General]
AudioFilename: audio.mp3
AudioLeadIn: 0
PreviewTime: 13108
Countdown: 0
SampleSet: Soft
StackLeniency: 0.7
Mode: 0
LetterboxInBreaks: 0
WidescreenStoryboard: 1

[Editor]
DistanceSpacing: 1.5
BeatDivisor: 4
GridSize: 32
TimelineZoom: 1

[Metadata]
Title:We Will Be Heroes
TitleUnicode:We Will Be Heroes
Artist:Kirsten Price
ArtistUnicode:Kirsten Price
Creator:InternalLight
Version:LCFC's Advanced
Source:Pokémon: DP Battle Dimension
Tags:John Loeffler David Wolfert pokemon diamond and pearl tv size opening underforest gero nelly lcfc lowcombofc
BeatmapID:1429617
BeatmapSetID:579551

[Difficulty]
HPDrainRate:5
CircleSize:3.5
OverallDifficulty:5
ApproachRate:6
SliderMultiplier:1.3
SliderTickRate:1

[Events]
//Background and Video events
0,0,"bg.jpg",0,0
//Break Periods
//Storyboard Layer 0 (Background)
//Storyboard Layer 1 (Fail)
//Storyboard Layer 2 (Pass)
//Storyboard Layer 3 (Foreground)
//Storyboard Sound Samples

[TimingPoints]
-133,413.793103448276,4,2,1,60,1,0
12073,-100,4,2,1,60,0,0
13091,-100,4,2,1,80,0,0
30901,-100,4,2,1,60,0,0

[Colours]
Combo1 : 255,55,155
Combo2 : 37,95,165
Combo3 : 204,36,200
Combo4 : 117,189,64
Combo5 : 181,146,81
Combo6 : 255,89,89
Combo7 : 232,201,23
Combo8 : 73,207,207

[HitObjects]
57,79,73,5,0,0:0:0:0:
139,131,280,2,0,L|204:121,1,65,2|0,0:0|0:0,0:0:0:0:
278,58,694,2,0,P|332:50|386:104,1,130,2|2,0:0|0:0,0:0:0:0:
332,181,1315,2,0,L|351:313,2,130,0|0|0,0:0|0:0|0:0,0:0:0:0:
384,98,2349,2,0,L|519:123,1,130,0|2,0:0|0:0,0:0:0:0:
460,310,3177,5,2,0:0:0:0:
460,310,3384,2,0,L|394:302,1,65,0|2,0:0|0:0,0:0:0:0:
328,230,3798,2,0,P|267:212|216:248,1,130,0|0,0:0|0:0,0:0:0:0:
45,342,4625,2,0,L|34:208,1,130,0|0,0:0|0:0,0:0:0:0:
150,55,5453,2,0,L|139:189,1,130,0|0,0:0|0:0,0:0:0:0:
130,281,6073,1,2,0:0:0:0:
315,219,6487,6,0,L|321:143,1,65,2|0,0:0|0:0,0:0:0:0:
408,111,6901,1,2,0:0:0:0:
490,167,7108,2,0,P|504:248|512:368,1,195,2|2,0:0|0:0,0:0:0:0:
422,320,7935,1,2,0:0:0:0:
331,355,8142,2,0,B|272:384|272:384|204:352,1,130,2|2,0:0|0:0,0:0:0:0:
145,286,8763,2,0,B|86:257|86:257|18:289,1,130,2|2,0:0|0:0,0:0:0:0:
8,89,9591,1,2,0:0:0:0:
104,100,9798,6,0,L|232:77,1,130,6|2,0:0|0:0,0:0:0:0:
311,134,10418,2,0,P|374:147|439:147,1,130,4|0,0:0|0:0,0:0:0:0:
397,338,11246,2,0,P|332:338|268:351,1,130,4|0,0:0|0:0,0:0:0:0:
96,264,12073,1,4,0:0:0:0:
96,264,12280,2,0,L|108:197,1,65,8|8,0:0|0:0,0:0:0:0:
203,181,12694,2,0,L|191:244,1,65,8|8,0:0|0:0,0:0:0:0:
289,241,13108,6,0,L|358:250,1,65,4|0,0:0|0:0,0:0:0:0:
437,207,13522,2,0,B|459:171|459:171|433:79,1,130,8|2,0:0|0:0,0:0:0:0:
256,32,14349,2,0,L|186:26,1,65,8|0,0:0|0:0,0:0:0:0:
108,79,14763,2,0,P|99:130|151:184,1,130,4|8,0:0|0:0,0:0:0:0:
235,230,15384,2,0,B|178:202|136:218|136:218|98:233|45:213,1,195,2|8,0:0|0:0,0:0:0:0:
171,362,16418,6,0,L|239:351,1,65,2|0,0:0|0:0,0:0:0:0:
330,327,16832,1,8,0:0:0:0:
422,358,17039,1,0,0:0:0:0:
480,279,17246,2,0,L|455:149,1,130,2|8,0:0|0:0,0:0:0:0:
503,65,17867,2,0,L|373:40,1,130,2|8,0:0|0:0,0:0:0:0:
289,87,18487,1,0,0:0:0:0:
157,226,18901,1,8,0:0:0:0:
346,284,19315,1,2,0:0:0:0:
406,205,19522,1,8,0:0:0:0:
307,195,19729,5,4,0:0:0:0:
151,312,20142,2,0,P|96:317|18:341,1,130,8|2,0:0|0:0,0:0:0:0:
11,154,20970,2,0,L|-2:84,1,65,8|0,0:0|0:0,0:0:0:0:
81,37,21384,2,0,P|142:56|207:63,1,130,4|8,0:0|0:0,0:0:0:0:
285,3,22004,2,0,B|294:81|294:81|278:116|278:116|285:193,1,195,0|8,0:0|0:0,0:0:0:0:
110,281,23039,5,2,0:0:0:0:
161,364,23246,1,0,0:0:0:0:
249,323,23453,2,0,L|312:334,1,65,8|0,0:0|0:0,0:0:0:0:
370,254,23867,2,0,L|498:236,1,130,2|8,0:0|0:0,0:0:0:0:
373,86,24694,2,0,L|299:96,1,65,2|0,0:0|0:0,0:0:0:0:
243,170,25108,2,0,L|307:178,1,65,8|0,0:0|0:0,0:0:0:0:
404,165,25522,1,8,0:0:0:0:
473,233,25729,1,8,0:0:0:0:
408,305,25935,2,0,L|334:315,1,65,8|2,0:0|0:0,0:0:0:0:
250,347,26349,6,0,L|185:338,1,65,4|0,0:0|0:0,0:0:0:0:
100,290,26763,2,0,P|81:229|113:175,1,130,8|2,0:0|0:0,0:0:0:0:
294,101,27591,2,0,L|279:170,1,65,8|0,0:0|0:0,0:0:0:0:
236,250,28004,2,0,B|303:264|303:264|352:228,1,130,4|8,0:0|0:0,0:0:0:0:
397,141,28625,2,0,B|376:260|376:260|416:322,1,195,0|8,0:0|0:0,0:0:0:0:
225,361,29660,5,12,0:0:0:0:
127,365,29867,2,0,L|140:288,1,65,0|2,0:0|0:0,0:0:0:0:
157,205,30280,5,12,0:0:0:0:
59,209,30487,2,0,L|72:132,1,65,0|2,0:0|0:0,0:0:0:0:
158,103,30901,5,12,0:0:0:0:
244,147,31108,1,2,0:0:0:0:
315,80,31315,1,4,0:0:0:0:
