osu file format v14

[General]
AudioFilename: audio.mp3
AudioLeadIn: 0
PreviewTime: 13108
Countdown: 0
SampleSet: Soft
StackLeniency: 0.3
Mode: 0
LetterboxInBreaks: 0
WidescreenStoryboard: 0

[Editor]
Bookmarks: 73,31315
DistanceSpacing: 1.2
BeatDivisor: 4
GridSize: 4
TimelineZoom: 1

[Metadata]
Title:We Will Be Heroes
TitleUnicode:We Will Be Heroes
Artist:Kirsten Price
ArtistUnicode:Kirsten Price
Creator:InternalLight
Version:Gero's Insane
Source:Pokémon: DP Battle Dimension
Tags:John Loeffler David Wolfert pokemon diamond and pearl tv size opening underforest gero nelly lcfc lowcombofc
BeatmapID:1265890
BeatmapSetID:579551

[Difficulty]
HPDrainRate:7
CircleSize:4
OverallDifficulty:7
ApproachRate:8.5
SliderMultiplier:1.7
SliderTickRate:2

[Events]
//Background and Video events
0,0,"bg.jpg",0,0
//Break Periods
//Storyboard Layer 0 (Background)
//Storyboard Layer 1 (Fail)
//Storyboard Layer 2 (Pass)
//Storyboard Layer 3 (Foreground)
//Storyboard Sound Samples
Sample,2349,0,"soft-hitwhistle.wav",50

[TimingPoints]
-133,413.793103448276,4,2,1,60,1,0
13108,-100,4,2,1,70,0,1
19625,-100,4,2,1,70,0,0
19729,-100,4,2,1,70,0,1
26246,-100,4,2,1,70,0,0
26349,-100,4,2,1,70,0,1
29660,-100,4,2,1,50,0,1
30280,-100,4,2,1,40,0,1
31315,-100,4,2,1,30,0,0

[Colours]
Combo1 : 255,55,155
Combo2 : 37,95,165
Combo3 : 204,36,200
Combo4 : 117,189,64
Combo5 : 181,146,81
Combo6 : 255,89,89
Combo7 : 232,201,23
Combo8 : 73,207,207

[HitObjects]
387,82,73,5,0,0:0:0:0:
471,152,280,2,0,P|483:192|471:232,1,85,2|0,0:0|0:0,0:0:0:0:
387,382,694,2,0,P|375:342|387:302,1,85,2|0,0:0|0:0,0:0:0:0:
471,232,1108,1,2,0:0:0:0:
387,302,1315,6,0,B|347:317|347:317|307:302,1,85,0|2,0:0|0:0,0:0:0:0:
125,302,1729,2,0,B|165:317|165:317|205:302,1,85,0|2,0:0|0:0,0:0:0:0:
256,204,2142,2,0,B|256:132|256:132|252:124|252:124|260:124|260:124|256:116|256:116|256:44,1,170
332,124,2763,1,2,0:0:0:0:
256,204,2970,1,0,0:0:0:0:
180,124,3177,5,2,0:0:0:0:
256,43,3384,1,0,0:0:0:0:
332,124,3591,1,2,0:0:0:0:
256,204,3798,2,0,L|256:289,1,85,0|2,0:0|0:0,0:0:0:0:
180,370,4211,6,0,B|142:370|142:370|138:366|138:366|134:362|134:362|98:362,1,85,0|2,0:0|0:0,0:0:0:0:
332,370,4625,2,0,B|370:370|370:370|374:366|374:366|378:362|378:362|413:362,1,85,0|2,0:0|0:0,0:0:0:0:
175,289,5039,1,0,0:0:0:0:
337,289,5246,1,2,0:0:0:0:
256,370,5453,1,0,0:0:0:0:
175,289,5660,5,2,0:0:0:0:
195,262,5763,1,0,0:0:0:0:
223,245,5866,1,0,0:0:0:0:
256,240,5970,1,0,0:0:0:0:
289,245,6073,1,2,0:0:0:0:
317,262,6176,1,0,0:0:0:0:
337,289,6280,1,0,0:0:0:0:
101,370,6487,6,0,L|16:222,1,170,2|2,0:0|0:0,0:0:0:0:
27,47,7108,2,0,L|113:194,1,170,2|2,0:0|0:0,0:0:0:0:
213,167,7729,2,0,L|256:240,1,85,2|2,0:0|0:0,0:0:0:0:
411,370,8142,6,0,L|496:222,1,170,2|2,0:0|0:0,0:0:0:0:
484,47,8763,2,0,L|399:194,1,170,2|2,0:0|0:0,0:0:0:0:
299,167,9384,2,0,L|256:240,1,85,2|2,0:0|0:0,0:0:0:0:
101,370,9798,5,6,0:0:0:0:
256,240,10004,1,0,0:0:0:0:
411,370,10211,1,2,0:0:0:0:
296,149,10418,6,0,P|256:137|216:149,1,85,4|2,0:0|0:0,0:0:0:0:
216,331,10832,2,0,P|256:343|296:331,1,85,0|2,0:0|0:0,0:0:0:0:
296,140,11246,6,0,P|256:128|216:140,1,85,4|2,0:0|0:0,0:0:0:0:
216,322,11660,2,0,P|256:334|296:322,1,85,0|2,0:0|0:0,0:0:0:0:
176,231,12073,1,4,0:0:0:0:
296,140,12280,5,8,0:0:0:0:
315,108,12383,1,8,0:0:0:0:
313,72,12486,1,8,0:0:0:0:
291,43,12590,1,8,0:0:0:0:
256,32,12693,1,8,0:0:0:0:
220,43,12798,1,8,0:0:0:0:
198,72,12902,1,8,0:0:0:0:
196,108,13005,1,8,0:0:0:0:
216,140,13108,5,4,0:0:0:0:
256,231,13315,1,0,0:0:0:0:
296,140,13522,1,8,0:0:0:0:
176,231,13729,1,0,0:0:0:0:
296,322,13935,1,2,0:0:0:0:
256,231,14142,1,0,0:0:0:0:
216,322,14349,1,8,0:0:0:0:
336,231,14556,1,0,0:0:0:0:
296,140,14763,6,0,B|272:128|256:96|256:69|256:69|256:96|240:128|216:140,1,170,4|8,0:0|0:0,0:0:0:0:
256,231,15384,2,0,B|280:243|296:275|296:302|296:302|296:275|312:243|336:231,1,170,2|2,0:0|0:0,0:0:0:0:
296,140,16004,1,8,0:0:0:0:
336,49,16211,1,0,0:0:0:0:
376,140,16418,5,2,0:0:0:0:
336,231,16625,1,0,0:0:0:0:
376,322,16832,2,0,B|392:322|408:330|412:340|412:340|416:330|432:322|448:322,1,85,8|0,0:0|0:0,0:0:0:0:
496,231,17246,2,0,L|416:380,1,170,2|8,0:0|0:0,0:0:0:0:
336,231,17867,6,0,L|376:156,1,85,2|0,0:0|0:0,0:0:0:0:
496,231,18280,1,8,0:0:0:0:
376,156,18487,1,0,0:0:0:0:
416,303,18694,1,2,0:0:0:0:
456,156,18901,1,8,0:0:0:0:
336,231,19108,1,0,0:0:0:0:
416,81,19315,1,2,0:0:0:0:
496,231,19522,1,8,0:0:0:0:
336,81,19729,6,0,B|256:52|256:52|176:81,1,170,4|8,0:0|0:0,0:0:0:0:
256,144,20349,1,0,0:0:0:0:
176,207,20556,2,0,P|164:247|176:287,1,85,2|0,0:0|0:0,0:0:0:0:
336,288,20970,2,0,P|348:248|336:208,1,85,8|0,0:0|0:0,0:0:0:0:
256,351,21384,6,0,P|336:326|416:351,1,170,4|8,0:0|0:0,0:0:0:0:
256,247,22004,2,0,P|216:259|176:247,1,85,0|2,0:0|0:0,0:0:0:0:
256,144,22418,1,0,0:0:0:0:
284,157,22521,1,0,0:0:0:0:
316,162,22625,1,8,0:0:0:0:
347,157,22729,1,0,0:0:0:0:
376,144,22832,1,0,0:0:0:0:
316,60,23039,5,2,0:0:0:0:
376,144,23246,1,0,0:0:0:0:
316,233,23453,1,8,0:0:0:0:
376,317,23660,1,0,0:0:0:0:
316,233,23867,2,0,B|300:193|256:177|256:177|212:193|196:233,1,170,2|8,0:0|0:0,0:0:0:0:
136,317,24487,1,0,0:0:0:0:
76,233,24694,6,0,B|54:211|54:211|51:203|51:203|46:208|46:208|43:200|43:200|22:179,1,85,2|0,0:0|0:0,0:0:0:0:
95,107,25108,2,0,B|73:85|73:85|70:77|70:77|65:82|65:82|62:74|62:74|41:53,1,85,8|0,0:0|0:0,0:0:0:0:
168,180,25522,1,8,0:0:0:0:
256,269,25729,1,8,0:0:0:0:
344,180,25935,1,8,0:0:0:0:
256,317,26142,1,2,0:0:0:0:
168,180,26349,6,0,P|250:179|297:112,1,170,4|8,0:0|0:0,0:0:0:0:
256,17,26970,1,0,0:0:0:0:
215,112,27177,2,0,P|262:179|344:180,1,170,2|8,0:0|0:0,0:0:0:0:
416,252,27798,1,0,0:0:0:0:
344,324,28004,6,0,L|404:384,1,85,4|0,0:0|0:0,0:0:0:0:
168,324,28418,2,0,L|107:384,1,85,8|0,0:0|0:0,0:0:0:0:
331,284,28832,2,0,P|343:324|331:364,1,85,2|0,0:0|0:0,0:0:0:0:
181,284,29246,2,0,P|169:324|181:364,1,85,8|0,0:0|0:0,0:0:0:0:
256,221,29660,6,0,L|256:136,1,85,12|0,0:0|0:0,0:0:0:0:
256,33,30073,1,2,0:0:0:0:
174,137,30280,2,0,B|215:117|256:136|256:136|297:117|338:137,1,170,12|2,0:0|0:0,0:0:0:0:
410,64,30901,1,12,0:0:0:0:
256,221,31108,1,2,0:0:0:0:
102,64,31315,5,4,0:0:0:0:
