osu file format v14

[General]
AudioFilename: audio.mp3
AudioLeadIn: 0
PreviewTime: 13108
Countdown: 0
SampleSet: Soft
StackLeniency: 0.7
Mode: 0
LetterboxInBreaks: 0
WidescreenStoryboard: 0

[Editor]
Bookmarks: 6487,9798,13108,19729,26349
DistanceSpacing: 1.3
BeatDivisor: 4
GridSize: 4
TimelineZoom: 1

[Metadata]
Title:We Will Be Heroes
TitleUnicode:We Will Be Heroes
Artist:Kirsten Price
ArtistUnicode:Kirsten Price
Creator:InternalLight
Version:Heroes
Source:Pokémon: DP Battle Dimension
Tags:John Loeffler David Wolfert pokemon diamond and pearl tv size opening underforest gero nelly lcfc lowcombofc
BeatmapID:1253987
BeatmapSetID:579551

[Difficulty]
HPDrainRate:6
CircleSize:4
OverallDifficulty:8
ApproachRate:8
SliderMultiplier:1.7
SliderTickRate:1

[Events]
//Background and Video events
0,0,"bg.jpg",0,0
//Break Periods
//Storyboard Layer 0 (Background)
//Storyboard Layer 1 (Fail)
//Storyboard Layer 2 (Pass)
//Storyboard Layer 3 (Foreground)
//Storyboard Sound Samples

[TimingPoints]
-133,413.793103448276,4,2,1,60,1,0
12280,-100,4,2,1,60,0,0
13108,-100,4,2,1,80,0,0
30901,-100,4,2,1,60,0,0

[Colours]
Combo1 : 255,55,155
Combo2 : 37,95,165
Combo3 : 204,36,200
Combo4 : 117,189,64
Combo5 : 181,146,81
Combo6 : 255,89,89
Combo7 : 232,201,23
Combo8 : 73,207,207

[HitObjects]
161,77,73,5,0,0:0:0:0:
233,173,280,2,0,P|278:162|328:163,1,85,2|0,0:0|0:0,0:0:0:0:
426,54,694,2,0,B|398:92|398:92|428:235,1,170,2|2,0:0|0:0,0:0:0:0:
473,338,1315,2,0,P|437:317|370:319,1,85,0|2,0:0|0:0,0:0:0:0:
221,341,1729,2,0,P|242:305|240:238,1,85,0|2,0:0|0:0,0:0:0:0:
316,161,2142,1,0,0:0:0:0:
184,116,2349,5,0,0:0:0:0:
173,109,2453,1,0,0:0:0:0:
160,105,2556,1,0,0:0:0:0:
147,103,2660,1,0,0:0:0:0:
134,104,2763,1,2,0:0:0:0:
122,108,2867,1,0,0:0:0:0:
111,114,2970,1,0,0:0:0:0:
103,124,3073,1,0,0:0:0:0:
99,136,3177,5,2,0:0:0:0:
162,265,3384,2,0,P|212:269|256:258,1,85,0|2,0:0|0:0,0:0:0:0:
312,77,3798,2,0,P|307:119|315:160,1,85,0|2,0:0|0:0,0:0:0:0:
461,255,4211,2,0,P|418:250|377:258,1,85,0|2,0:0|0:0,0:0:0:0:
256,345,4625,6,0,B|257:300|257:300|244:257,1,85,0|2,0:0|0:0,0:0:0:0:
142,335,5039,1,0,0:0:0:0:
345,374,5246,2,0,L|434:358,1,85,2|0,0:0|0:0,0:0:0:0:
474,148,5660,5,2,0:0:0:0:
470,160,5763,1,0,0:0:0:0:
468,172,5867,1,0,0:0:0:0:
468,184,5970,1,0,0:0:0:0:
469,196,6073,1,2,0:0:0:0:
471,208,6177,1,0,0:0:0:0:
474,220,6280,1,0,0:0:0:0:
477,232,6384,1,0,0:0:0:0:
483,245,6487,6,0,P|428:241|376:255,1,85,2|0,0:0|0:0,0:0:0:0:
267,209,6901,1,2,0:0:0:0:
391,143,7108,2,0,P|395:88|381:36,1,85,2|0,0:0|0:0,0:0:0:0:
281,5,7522,1,2,0:0:0:0:
272,124,7729,1,2,0:0:0:0:
415,38,7935,1,2,0:0:0:0:
416,210,8142,6,8,P|468:209|510:207,1,85,2|0,0:0|0:0,0:0:0:0:
338,66,8556,1,2,0:0:0:0:
271,248,8763,2,0,P|219:247|177:245,1,85,2|0,0:0|0:0,0:0:0:0:
86,101,9177,1,2,0:0:0:0:
128,103,9280,1,0,0:0:0:0:
169,91,9383,1,2,0:0:0:0:
204,68,9487,1,0,0:0:0:0:
229,34,9590,1,2,0:0:0:0:
366,177,9798,6,0,P|367:228|367:290,1,85,6|0,0:0|0:0,0:0:0:0:
261,310,10211,1,2,0:0:0:0:
472,370,10418,2,0,P|478:324|474:280,1,85,4|2,0:0|0:0,0:0:0:0:
257,225,10832,2,0,P|254:267|260:309,1,85,0|2,0:0|0:0,0:0:0:0:
301,126,11246,6,0,L|195:121,1,85,4|2,0:0|0:0,0:0:0:0:
67,185,11660,1,0,0:0:0:0:
257,225,11867,1,2,0:0:0:0:
65,44,12073,1,4,0:0:0:0:
169,302,12280,5,8,0:0:0:0:
201,347,12384,1,8,0:0:0:0:
254,359,12487,1,8,0:0:0:0:
305,337,12591,1,8,0:0:0:0:
332,289,12694,5,8,0:0:0:0:
380,261,12798,1,8,0:0:0:0:
434,265,12901,1,8,0:0:0:0:
478,296,13004,1,8,0:0:0:0:
504,344,13108,6,0,P|500:292|496:236,1,85,4|0,0:0|0:0,0:0:0:0:
304,37,13522,2,0,P|309:81|308:130,1,85,8|0,0:0|0:0,0:0:0:0:
183,261,13935,2,0,P|226:260|268:265,1,85,2|0,0:0|0:0,0:0:0:0:
491,190,14349,2,0,P|448:190|406:185,1,85,8|0,0:0|0:0,0:0:0:0:
196,135,14763,5,4,0:0:0:0:
386,22,14970,2,0,P|389:70|391:122,1,85,0|8,0:0|0:0,0:0:0:0:
267,264,15384,2,0,P|309:267|351:265,1,85,2|0,0:0|0:0,0:0:0:0:
275,85,15798,1,2,0:0:0:0:
119,168,16004,2,0,P|116:210|120:252,1,85,8|0,0:0|0:0,0:0:0:0:
307,345,16418,6,0,P|254:347|200:348,1,85,2|0,0:0|0:0,0:0:0:0:
363,181,16832,1,8,0:0:0:0:
454,336,17039,1,0,0:0:0:0:
232,219,17246,2,0,P|223:172|224:131,1,85,2|0,0:0|0:0,0:0:0:0:
354,26,17660,1,8,0:0:0:0:
466,178,17867,1,2,0:0:0:0:
241,33,18073,5,0,0:0:0:0:
482,87,18280,1,8,0:0:0:0:
253,171,18487,1,0,0:0:0:0:
470,62,18694,1,2,0:0:0:0:
157,117,18901,5,8,0:0:0:0:
347,264,19108,1,0,0:0:0:0:
323,17,19315,1,2,0:0:0:0:
493,191,19522,1,8,0:0:0:0:
173,206,19729,6,0,P|173:254|171:306,1,85,4|0,0:0|0:0,0:0:0:0:
300,102,20142,2,0,P|249:96|188:105,1,85,8|0,0:0|0:0,0:0:0:0:
412,249,20556,2,0,P|418:198|409:137,1,85,2|0,0:0|0:0,0:0:0:0:
255,346,20970,2,0,P|306:352|367:343,1,85,8|0,0:0|0:0,0:0:0:0:
342,200,21384,5,4,0:0:0:0:
177,117,21591,2,0,P|179:74|174:32,1,85,0|8,0:0|0:0,0:0:0:0:
136,275,22004,2,0,P|93:272|51:277,1,85,0|2,0:0|0:0,0:0:0:0:
290,264,22418,1,0,0:0:0:0:
290,264,22522,1,0,0:0:0:0:
290,264,22625,2,0,P|288:313|303:360,1,85,8|0,0:0|0:0,0:0:0:0:
140,175,23039,5,2,0:0:0:0:
234,16,23246,1,0,0:0:0:0:
337,162,23453,1,8,0:0:0:0:
130,68,23660,1,0,0:0:0:0:
336,62,23867,2,0,P|385:57|426:55,1,85,2|0,0:0|0:0,0:0:0:0:
219,206,24280,2,0,P|211:161|211:114,1,85,8|0,0:0|0:0,0:0:0:0:
361,344,24694,5,2,0:0:0:0:
307,160,24901,1,0,0:0:0:0:
118,288,25108,1,8,0:0:0:0:
321,259,25315,1,0,0:0:0:0:
210,121,25522,5,8,0:0:0:0:
207,384,25729,1,8,0:0:0:0:
410,216,25935,1,8,0:0:0:0:
201,244,26142,1,2,0:0:0:0:
311,40,26349,5,4,0:0:0:0:
311,40,26763,2,0,P|311:89|319:141,1,85,8|0,0:0|0:0,0:0:0:0:
482,221,27177,2,0,P|433:221|381:229,1,85,2|0,0:0|0:0,0:0:0:0:
188,201,27591,2,0,P|230:200|272:205,1,85,8|0,0:0|0:0,0:0:0:0:
80,285,28004,6,0,P|74:237|70:193,1,85,4|0,0:0|0:0,0:0:0:0:
163,103,28418,1,8,0:0:0:0:
314,288,28625,2,0,P|244:283|178:355,1,170,0|0,0:0|0:0,0:0:0:0:
149,196,29246,1,8,0:0:0:0:
262,57,29453,1,0,0:0:0:0:
429,218,29660,5,12,0:0:0:0:
163,103,29867,1,0,0:0:0:0:
462,60,30073,1,2,0:0:0:0:
213,243,30280,5,12,0:0:0:0:
506,151,30487,1,0,0:0:0:0:
185,10,30694,1,2,0:0:0:0:
512,243,30901,5,12,0:0:0:0:
287,108,31108,1,2,0:0:0:0:
329,350,31315,1,4,0:0:0:0:
