osu file format v14

[General]
AudioFilename: audio.mp3
AudioLeadIn: 0
PreviewTime: 13108
Countdown: 0
SampleSet: Soft
StackLeniency: 0.7
Mode: 0
LetterboxInBreaks: 0
WidescreenStoryboard: 0

[Editor]
DistanceSpacing: 1.4
BeatDivisor: 4
GridSize: 4
TimelineZoom: 1

[Metadata]
Title:We Will Be Heroes
TitleUnicode:We Will Be Heroes
Artist:Kirsten Price
ArtistUnicode:Kirsten Price
Creator:InternalLight
Version:Forest's Normal
Source:Pokémon: DP Battle Dimension
Tags:John Loeffler David Wolfert pokemon diamond and pearl tv size opening underforest gero nelly lcfc lowcombofc
BeatmapID:1230041
BeatmapSetID:579551

[Difficulty]
HPDrainRate:4
CircleSize:3.5
OverallDifficulty:4
ApproachRate:5
SliderMultiplier:1.2
SliderTickRate:1

[Events]
//Background and Video events
0,0,"bg.jpg",0,0
//Break Periods
//Storyboard Layer 0 (Background)
//Storyboard Layer 1 (Fail)
//Storyboard Layer 2 (Pass)
//Storyboard Layer 3 (Foreground)
//Storyboard Sound Samples

[TimingPoints]
-133,413.793103448276,4,2,1,60,1,0
9798,-100,4,2,0,60,0,0
9901,-100,4,2,1,60,0,0
12073,-100,4,2,1,60,0,0
13108,-100,4,2,1,80,0,0
30901,-100,4,2,1,60,0,0

[Colours]
Combo1 : 255,55,155
Combo2 : 37,95,165
Combo3 : 204,36,200
Combo4 : 117,189,64
Combo5 : 181,146,81
Combo6 : 255,89,89
Combo7 : 232,201,23
Combo8 : 73,207,207

[HitObjects]
119,41,73,6,0,L|188:33,2,60,0|2|0,0:0|0:0|0:0,0:0:0:0:
63,104,694,2,0,P|41:174|51:228,1,120,2|2,0:0|0:0,0:0:0:0:
106,279,1315,6,0,P|155:291|241:263,1,120,0|0,0:0|0:0,0:0:0:0:
388,255,2142,2,0,L|389:109,1,120,0|0,0:0|0:0,0:0:0:0:
347,61,2763,1,2,0:0:0:0:
180,38,3177,6,0,P|117:29|53:57,1,120,2|2,0:0|0:0,0:0:0:0:
36,121,3798,1,0,0:0:0:0:
183,201,4211,1,0,0:0:0:0:
52,305,4626,1,0,0:0:0:0:
117,348,4832,6,0,P|173:347|260:352,1,120,2|2,0:0|0:0,0:0:0:0:
320,340,5453,2,0,P|306:300|331:211,1,120,0|0,0:0|0:0,0:0:0:0:
364,153,6073,1,2,0:0:0:0:
235,46,6487,6,0,B|177:34,2,60,2|0|2,0:0|0:0|0:0,0:0:0:0:
233,130,7108,2,0,L|98:98,1,120,2|2,0:0|0:0,0:0:0:0:
33,118,7729,1,2,0:0:0:0:
147,240,8142,6,0,P|202:269|283:264,1,120,2|2,0:0|0:0,0:0:0:0:
337,300,8763,2,0,P|405:297|471:316,1,120,2|2,0:0|0:0,0:0:0:0:
469,141,9591,1,2,0:0:0:0:
469,141,9798,6,0,P|395:170|333:96,1,180,6|4,0:0|0:0,0:0:0:0:
184,27,10832,1,0,0:0:0:0:
53,133,11246,1,4,0:0:0:0:
105,292,11660,1,0,0:0:0:0:
271,311,12073,2,0,B|301:300|391:308|391:308|387:266|415:229,1,180,4|8,0:0|0:0,0:0:0:0:
278,139,13108,6,0,P|284:87|250:21,1,120,4|8,0:0|0:0,0:0:0:0:
88,41,13935,2,0,P|61:93|66:152,1,120,2|8,0:0|0:0,0:0:0:0:
16,313,14763,2,0,P|80:327|151:295,1,120,4|8,0:0|0:0,0:0:0:0:
214,313,15384,2,0,B|280:289|269:340|357:316,1,120,2|2,0:0|0:0,0:0:0:0:
408,288,16004,1,8,0:0:0:0:
465,129,16418,6,0,B|407:118|407:118|340:129,1,120,2|8,0:0|0:0,0:0:0:0:
273,86,17039,1,0,0:0:0:0:
190,69,17246,2,0,P|137:81|49:54,1,120,2|8,0:0|0:0,0:0:0:0:
33,142,17867,6,0,P|9:233|28:276,1,120,2|8,0:0|0:0,0:0:0:0:
68,320,18487,1,0,0:0:0:0:
235,330,18901,2,0,L|306:320,1,60,8|0,0:0|0:0,0:0:0:0:
313,239,19315,2,0,L|253:247,1,60,2|8,0:0|0:0,0:0:0:0:
194,187,19728,6,0,P|188:135|222:69,1,120,4|8,0:0|0:0,0:0:0:0:
375,22,20556,2,0,P|401:74|396:133,1,120,2|8,0:0|0:0,0:0:0:0:
445,292,21384,2,0,P|381:306|310:274,1,120,4|8,0:0|0:0,0:0:0:0:
249,311,22004,2,0,B|183:287|194:338|106:314,1,120,0|0,0:0|0:0,0:0:0:0:
57,282,22624,1,8,0:0:0:0:
55,116,23039,6,0,B|113:105|113:105|174:116,1,120,2|8,0:0|0:0,0:0:0:0:
256,133,23659,1,0,0:0:0:0:
332,96,23866,2,0,P|385:108|452:52,1,120,2|8,0:0|0:0,0:0:0:0:
496,234,24694,6,0,P|507:278|497:310,1,60,2|0,0:0|0:0,0:0:0:0:
438,343,25107,1,8,0:0:0:0:
270,327,25522,2,0,L|199:317,1,60,8|8,0:0|0:0,0:0:0:0:
189,236,25935,2,0,L|248:244,1,60,8|2,0:0|0:0,0:0:0:0:
316,192,26349,6,0,P|330:115|328:64,2,120,4|8|2,0:0|0:0|0:0,0:0:0:0:
167,113,27591,1,8,0:0:0:0:
71,250,28004,2,0,P|139:257|189:308,1,120,4|8,0:0|0:0,0:0:0:0:
246,336,28625,2,0,P|300:350|370:319,1,120,0|0,0:0|0:0,0:0:0:0:
419,269,29246,1,8,0:0:0:0:
398,102,29660,6,0,L|470:74,2,60,12|0|2,0:0|0:0|0:0,0:0:0:0:
315,87,30280,2,0,L|279:27,2,60,12|0|2,0:0|0:0|0:0,0:0:0:0:
337,168,30901,2,0,L|316:238,2,60,12|2|4,0:0|0:0|0:0,0:0:0:0:
