osu file format v14

[General]
AudioFilename: audio.mp3
AudioLeadIn: 0
PreviewTime: -1
Countdown: 1
SampleSet: Normal
StackLeniency: 0.7
Mode: 3
LetterboxInBreaks: 0
SpecialStyle: 0
WidescreenStoryboard: 0

[Editor]
DistanceSpacing: 1.1
BeatDivisor: 16
GridSize: 32
TimelineZoom: 1

[Metadata]
Title:Kiriya Eating Nuudles ASMR
TitleUnicode:Kiriya Eating Nuudles ASMR
Artist:Kiriyalow
ArtistUnicode:Kiriyalow
Creator:[MY]xRay
Version:SLURPPPPPPPPP
Source:
Tags:Kiriyalow
BeatmapID:1775570
BeatmapSetID:849118

[Difficulty]
HPDrainRate:0
CircleSize:4
OverallDifficulty:0
ApproachRate:5
SliderMultiplier:1.4
SliderTickRate:1

[Events]
//Background and Video events
0,0,"IMG_20180914_203741.jpg",0,0
//Break Periods
//Storyboard Layer 0 (Background)
//Storyboard Layer 1 (Fail)
//Storyboard Layer 2 (Pass)
//Storyboard Layer 3 (Foreground)
//Storyboard Sound Samples

[TimingPoints]
-173.05691619912,779.220779220779,4,1,0,0,1,0

[HitObjects]
448,192,265,5,0,0:0:0:0:
320,192,313,1,0,0:0:0:0:
64,192,313,1,0,0:0:0:0:
192,192,362,1,0,0:0:0:0:
448,192,411,1,0,0:0:0:0:
320,192,460,1,0,0:0:0:0:
64,192,460,1,0,0:0:0:0:
192,192,508,1,0,0:0:0:0:
448,192,1872,1,0,0:0:0:0:
64,192,1921,1,0,0:0:0:0:
320,192,1921,1,0,0:0:0:0:
192,192,1969,1,0,0:0:0:0:
448,192,2067,1,0,0:0:0:0:
64,192,2115,1,0,0:0:0:0:
320,192,2115,1,0,0:0:0:0:
192,192,2164,1,0,0:0:0:0:
192,192,3041,1,0,0:0:0:0:
320,192,3089,1,0,0:0:0:0:
192,192,3138,1,0,0:0:0:0:
320,192,3187,1,0,0:0:0:0:
192,192,3236,1,0,0:0:0:0:
320,192,3284,1,0,0:0:0:0:
192,192,3333,1,0,0:0:0:0:
320,192,3382,1,0,0:0:0:0:
192,192,3430,1,0,0:0:0:0:
320,192,3479,1,0,0:0:0:0:
192,192,3528,1,0,0:0:0:0:
320,192,3576,1,0,0:0:0:0:
192,192,3625,1,0,0:0:0:0:
320,192,3674,1,0,0:0:0:0:
64,192,4356,1,0,0:0:0:0:
192,192,4356,1,0,0:0:0:0:
448,192,4404,1,0,0:0:0:0:
320,192,4404,1,0,0:0:0:0:
192,192,4453,1,0,0:0:0:0:
64,192,4453,1,0,0:0:0:0:
320,192,4502,1,0,0:0:0:0:
448,192,4502,1,0,0:0:0:0:
192,192,4550,1,0,0:0:0:0:
64,192,4550,1,0,0:0:0:0:
320,192,4599,1,0,0:0:0:0:
448,192,4599,1,0,0:0:0:0:
192,192,4648,1,0,0:0:0:0:
64,192,4648,1,0,0:0:0:0:
320,192,4697,1,0,0:0:0:0:
448,192,4697,1,0,0:0:0:0:
192,192,4745,1,0,0:0:0:0:
64,192,4745,1,0,0:0:0:0:
320,192,4794,1,0,0:0:0:0:
448,192,4794,1,0,0:0:0:0:
192,192,4843,1,0,0:0:0:0:
64,192,4843,1,0,0:0:0:0:
320,192,4891,1,0,0:0:0:0:
448,192,4891,1,0,0:0:0:0:
192,192,4940,1,0,0:0:0:0:
64,192,4940,1,0,0:0:0:0:
64,192,6645,1,0,0:0:0:0:
448,192,6645,1,0,0:0:0:0:
320,192,6693,1,0,0:0:0:0:
192,192,6693,1,0,0:0:0:0:
448,192,6791,1,0,0:0:0:0:
64,192,6791,1,0,0:0:0:0:
192,192,6839,1,0,0:0:0:0:
320,192,6839,1,0,0:0:0:0:
64,192,6937,1,0,0:0:0:0:
448,192,6937,1,0,0:0:0:0:
320,192,6986,1,0,0:0:0:0:
192,192,6986,1,0,0:0:0:0:
192,192,7278,1,0,0:0:0:0:
64,192,7326,1,0,0:0:0:0:
192,192,7375,1,0,0:0:0:0:
64,192,7424,1,0,0:0:0:0:
192,192,7473,1,0,0:0:0:0:
64,192,7521,1,0,0:0:0:0:
64,192,8203,1,0,0:0:0:0:
192,192,8203,1,0,0:0:0:0:
320,192,8252,1,0,0:0:0:0:
448,192,8252,1,0,0:0:0:0:
192,192,8300,1,0,0:0:0:0:
64,192,8300,1,0,0:0:0:0:
320,192,8349,1,0,0:0:0:0:
448,192,8349,1,0,0:0:0:0:
192,192,8398,1,0,0:0:0:0:
64,192,8398,1,0,0:0:0:0:
448,192,8447,1,0,0:0:0:0:
320,192,8447,1,0,0:0:0:0:
64,192,8495,1,0,0:0:0:0:
192,192,8495,1,0,0:0:0:0:
320,192,8544,1,0,0:0:0:0:
448,192,8544,1,0,0:0:0:0:
192,192,8593,1,0,0:0:0:0:
64,192,8593,1,0,0:0:0:0:
320,192,8641,1,0,0:0:0:0:
448,192,8641,1,0,0:0:0:0:
192,192,8690,1,0,0:0:0:0:
64,192,8690,1,0,0:0:0:0:
448,192,8739,1,0,0:0:0:0:
320,192,8739,1,0,0:0:0:0:
64,192,8787,1,0,0:0:0:0:
192,192,8787,1,0,0:0:0:0:
320,192,8836,1,0,0:0:0:0:
448,192,8836,1,0,0:0:0:0:
192,192,8885,1,0,0:0:0:0:
64,192,8885,1,0,0:0:0:0:
320,192,8934,1,0,0:0:0:0:
448,192,8934,1,0,0:0:0:0:
192,192,8982,1,0,0:0:0:0:
64,192,8982,1,0,0:0:0:0:
192,192,9567,1,0,0:0:0:0:
320,192,9664,1,0,0:0:0:0:
320,192,10687,1,0,0:0:0:0:
192,192,10736,1,0,0:0:0:0:
320,192,10784,1,0,0:0:0:0:
192,192,10833,1,0,0:0:0:0:
320,192,10882,1,0,0:0:0:0:
192,192,10930,1,0,0:0:0:0:
320,192,11174,1,0,0:0:0:0:
192,192,11223,1,0,0:0:0:0:
320,192,11271,1,0,0:0:0:0:
192,192,11320,1,0,0:0:0:0:
320,192,11563,1,0,0:0:0:0:
192,192,11612,1,0,0:0:0:0:
320,192,11661,1,0,0:0:0:0:
192,192,11710,1,0,0:0:0:0:
320,192,12050,1,0,0:0:0:0:
192,192,12099,1,0,0:0:0:0:
320,192,12148,1,0,0:0:0:0:
192,192,12197,1,0,0:0:0:0:
448,192,12537,1,0,0:0:0:0:
64,192,12586,1,0,0:0:0:0:
448,192,12635,1,0,0:0:0:0:
64,192,12684,1,0,0:0:0:0:
448,192,12732,1,0,0:0:0:0:
64,192,12781,1,0,0:0:0:0:
448,192,13073,1,0,0:0:0:0:
320,192,13122,1,0,0:0:0:0:
448,192,13171,1,0,0:0:0:0:
320,192,13219,1,0,0:0:0:0:
448,192,14047,1,0,0:0:0:0:
320,192,14047,1,0,0:0:0:0:
64,192,14096,1,0,0:0:0:0:
192,192,14096,1,0,0:0:0:0:
320,192,14145,1,0,0:0:0:0:
448,192,14145,1,0,0:0:0:0:
192,192,14193,1,0,0:0:0:0:
64,192,14193,1,0,0:0:0:0:
320,192,14242,1,0,0:0:0:0:
448,192,14242,1,0,0:0:0:0:
192,192,14291,1,0,0:0:0:0:
64,192,14291,1,0,0:0:0:0:
320,192,14339,1,0,0:0:0:0:
448,192,14339,1,0,0:0:0:0:
192,192,14388,1,0,0:0:0:0:
64,192,14388,1,0,0:0:0:0:
320,192,14437,1,0,0:0:0:0:
448,192,14437,1,0,0:0:0:0:
192,192,14486,1,0,0:0:0:0:
64,192,14486,1,0,0:0:0:0:
320,192,14534,1,0,0:0:0:0:
448,192,14534,1,0,0:0:0:0:
192,192,14583,1,0,0:0:0:0:
64,192,14583,1,0,0:0:0:0:
320,192,14632,1,0,0:0:0:0:
448,192,14632,1,0,0:0:0:0:
192,192,14680,1,0,0:0:0:0:
64,192,14680,1,0,0:0:0:0:
192,192,15021,1,0,0:0:0:0:
320,192,15070,1,0,0:0:0:0:
448,192,15119,1,0,0:0:0:0:
192,192,15849,1,0,0:0:0:0:
320,192,15898,1,0,0:0:0:0:
192,192,15947,1,0,0:0:0:0:
320,192,15995,1,0,0:0:0:0:
448,192,16044,1,0,0:0:0:0:
64,192,16093,1,0,0:0:0:0:
448,192,16141,1,0,0:0:0:0:
64,192,16190,1,0,0:0:0:0:
64,192,16677,1,0,0:0:0:0:
192,192,16726,1,0,0:0:0:0:
320,192,16774,1,0,0:0:0:0:
64,192,17846,1,0,0:0:0:0:
192,192,17895,1,0,0:0:0:0:
64,192,18236,128,0,18625:0:0:0:0:
64,192,18869,1,0,0:0:0:0:
192,192,18917,1,0,0:0:0:0:
192,192,19502,1,0,0:0:0:0:
192,192,20768,1,0,0:0:0:0:
320,192,20817,1,0,0:0:0:0:
192,192,20865,1,0,0:0:0:0:
320,192,20914,1,0,0:0:0:0:
192,192,20963,1,0,0:0:0:0:
64,192,21352,1,0,0:0:0:0:
448,192,21401,1,0,0:0:0:0:
64,192,21450,1,0,0:0:0:0:
448,192,21499,1,0,0:0:0:0:
64,192,21547,1,0,0:0:0:0:
448,192,21596,1,0,0:0:0:0:
64,192,21888,1,0,0:0:0:0:
192,192,21937,1,0,0:0:0:0:
64,192,21986,1,0,0:0:0:0:
192,192,22034,1,0,0:0:0:0:
64,192,22083,1,0,0:0:0:0:
192,192,22132,1,0,0:0:0:0:
448,192,22326,1,0,0:0:0:0:
320,192,22375,1,0,0:0:0:0:
448,192,22424,1,0,0:0:0:0:
320,192,22473,1,0,0:0:0:0:
448,192,22521,1,0,0:0:0:0:
320,192,22570,1,0,0:0:0:0:
320,192,22716,1,0,0:0:0:0:
192,192,22765,1,0,0:0:0:0:
320,192,22813,1,0,0:0:0:0:
192,192,22862,1,0,0:0:0:0:
320,192,22911,1,0,0:0:0:0:
192,192,22960,1,0,0:0:0:0:
320,192,23447,1,0,0:0:0:0:
448,192,23447,1,0,0:0:0:0:
192,192,23495,1,0,0:0:0:0:
64,192,23495,1,0,0:0:0:0:
320,192,23544,1,0,0:0:0:0:
448,192,23544,1,0,0:0:0:0:
192,192,23593,1,0,0:0:0:0:
64,192,23593,1,0,0:0:0:0:
320,192,23641,1,0,0:0:0:0:
448,192,23641,1,0,0:0:0:0:
192,192,23690,1,0,0:0:0:0:
64,192,23690,1,0,0:0:0:0:
320,192,23739,1,0,0:0:0:0:
448,192,23739,1,0,0:0:0:0:
192,192,23787,1,0,0:0:0:0:
64,192,23787,1,0,0:0:0:0:
320,192,23836,1,0,0:0:0:0:
448,192,23836,1,0,0:0:0:0:
192,192,23885,1,0,0:0:0:0:
64,192,23885,1,0,0:0:0:0:
320,192,23934,1,0,0:0:0:0:
448,192,23934,1,0,0:0:0:0:
192,192,23982,1,0,0:0:0:0:
64,192,23982,1,0,0:0:0:0:
320,192,24031,1,0,0:0:0:0:
448,192,24031,1,0,0:0:0:0:
192,192,24080,1,0,0:0:0:0:
64,192,24080,1,0,0:0:0:0:
320,192,24128,1,0,0:0:0:0:
448,192,24128,1,0,0:0:0:0:
64,192,24177,1,0,0:0:0:0:
192,192,24177,1,0,0:0:0:0:
320,192,24226,1,0,0:0:0:0:
448,192,24226,1,0,0:0:0:0:
192,192,25102,1,0,0:0:0:0:
64,192,25151,1,0,0:0:0:0:
192,192,25200,1,0,0:0:0:0:
64,192,25249,1,0,0:0:0:0:
192,192,25297,1,0,0:0:0:0:
64,192,25346,1,0,0:0:0:0:
192,192,25395,1,0,0:0:0:0:
64,192,26271,1,0,0:0:0:0:
192,192,26271,1,0,0:0:0:0:
320,192,26320,1,0,0:0:0:0:
448,192,26320,1,0,0:0:0:0:
192,192,26369,1,0,0:0:0:0:
64,192,26369,1,0,0:0:0:0:
320,192,26417,1,0,0:0:0:0:
448,192,26417,1,0,0:0:0:0:
192,192,26466,1,0,0:0:0:0:
64,192,26466,1,0,0:0:0:0:
320,192,26515,1,0,0:0:0:0:
448,192,26515,1,0,0:0:0:0:
192,192,26563,1,0,0:0:0:0:
64,192,26563,1,0,0:0:0:0:
320,192,26612,1,0,0:0:0:0:
448,192,26612,1,0,0:0:0:0:
192,192,26661,1,0,0:0:0:0:
64,192,26661,1,0,0:0:0:0:
320,192,26710,1,0,0:0:0:0:
448,192,26710,1,0,0:0:0:0:
192,192,26758,1,0,0:0:0:0:
64,192,26758,1,0,0:0:0:0:
192,192,27489,1,0,0:0:0:0:
64,192,27537,1,0,0:0:0:0:
192,192,27586,1,0,0:0:0:0:
320,192,27635,1,0,0:0:0:0:
448,192,27684,1,0,0:0:0:0:
192,192,29924,1,0,0:0:0:0:
64,192,29924,1,0,0:0:0:0:
320,192,29973,1,0,0:0:0:0:
448,192,29973,1,0,0:0:0:0:
192,192,30021,1,0,0:0:0:0:
64,192,30021,1,0,0:0:0:0:
448,192,30070,1,0,0:0:0:0:
320,192,30070,1,0,0:0:0:0:
192,192,30119,1,0,0:0:0:0:
64,192,30119,1,0,0:0:0:0:
320,192,30167,1,0,0:0:0:0:
448,192,30167,1,0,0:0:0:0:
192,192,30216,1,0,0:0:0:0:
64,192,30216,1,0,0:0:0:0:
320,192,30265,1,0,0:0:0:0:
448,192,30265,1,0,0:0:0:0:
192,192,30313,1,0,0:0:0:0:
64,192,30313,1,0,0:0:0:0:
320,192,30362,1,0,0:0:0:0:
448,192,30362,1,0,0:0:0:0:
192,192,30411,1,0,0:0:0:0:
64,192,30411,1,0,0:0:0:0:
320,192,30460,1,0,0:0:0:0:
448,192,30460,1,0,0:0:0:0:
192,192,30508,1,0,0:0:0:0:
64,192,30508,1,0,0:0:0:0:
192,192,31677,1,0,0:0:0:0:
64,192,31921,1,0,0:0:0:0:
192,192,32164,1,0,0:0:0:0:
192,192,32359,1,0,0:0:0:0:
320,192,32846,1,0,0:0:0:0:
448,192,32846,1,0,0:0:0:0:
192,192,32895,1,0,0:0:0:0:
64,192,32895,1,0,0:0:0:0:
320,192,32943,1,0,0:0:0:0:
448,192,32943,1,0,0:0:0:0:
192,192,32992,1,0,0:0:0:0:
64,192,32992,1,0,0:0:0:0:
448,192,33041,1,0,0:0:0:0:
320,192,33041,1,0,0:0:0:0:
192,192,33089,1,0,0:0:0:0:
64,192,33089,1,0,0:0:0:0:
448,192,33138,1,0,0:0:0:0:
320,192,33138,1,0,0:0:0:0:
192,192,33187,1,0,0:0:0:0:
64,192,33187,1,0,0:0:0:0:
448,192,33236,1,0,0:0:0:0:
320,192,33236,1,0,0:0:0:0:
192,192,33284,1,0,0:0:0:0:
64,192,33284,1,0,0:0:0:0:
448,192,33333,1,0,0:0:0:0:
320,192,33333,1,0,0:0:0:0:
64,192,34599,1,0,0:0:0:0:
192,192,34794,1,0,0:0:0:0:
320,192,34940,1,0,0:0:0:0:
192,192,35232,1,0,0:0:0:0:
320,192,35281,1,0,0:0:0:0:
192,192,35330,1,0,0:0:0:0:
320,192,35378,1,0,0:0:0:0:
192,192,35427,1,0,0:0:0:0:
320,192,35476,1,0,0:0:0:0:
192,192,35524,1,0,0:0:0:0:
192,192,36401,128,0,36693:0:0:0:0:
64,192,36401,128,0,36693:0:0:0:0:
192,192,37862,1,0,0:0:0:0:
320,192,37911,1,0,0:0:0:0:
192,192,37960,1,0,0:0:0:0:
320,192,38008,1,0,0:0:0:0:
192,192,38057,1,0,0:0:0:0:
320,192,38106,1,0,0:0:0:0:
192,192,38154,1,0,0:0:0:0:
192,192,38836,1,0,0:0:0:0:
64,192,39128,128,0,39615:0:0:0:0:
192,192,39128,128,0,39615:0:0:0:0:
320,192,39128,128,0,39615:0:0:0:0:
448,192,39128,128,0,39615:0:0:0:0:
192,192,40054,1,0,0:0:0:0:
192,192,40443,1,0,0:0:0:0:
192,192,40736,1,0,0:0:0:0:
192,192,41515,1,0,0:0:0:0:
64,192,41612,1,0,0:0:0:0:
64,192,42245,1,0,0:0:0:0:
192,192,42343,1,0,0:0:0:0:
64,192,43219,1,0,0:0:0:0:
192,192,43219,1,0,0:0:0:0:
320,192,43365,1,0,0:0:0:0:
448,192,43365,1,0,0:0:0:0:
192,192,44047,1,0,0:0:0:0:
64,192,44047,1,0,0:0:0:0:
320,192,44096,1,0,0:0:0:0:
448,192,44096,1,0,0:0:0:0:
192,192,44145,1,0,0:0:0:0:
64,192,44145,1,0,0:0:0:0:
320,192,44193,1,0,0:0:0:0:
448,192,44193,1,0,0:0:0:0:
192,192,44242,1,0,0:0:0:0:
64,192,44242,1,0,0:0:0:0:
320,192,44291,1,0,0:0:0:0:
448,192,44291,1,0,0:0:0:0:
192,192,44339,1,0,0:0:0:0:
64,192,44339,1,0,0:0:0:0:
320,192,44388,1,0,0:0:0:0:
448,192,44388,1,0,0:0:0:0:
320,192,45606,1,0,0:0:0:0:
192,192,45654,1,0,0:0:0:0:
320,192,45703,1,0,0:0:0:0:
192,192,45752,1,0,0:0:0:0:
320,192,45800,1,0,0:0:0:0:
192,192,45849,1,0,0:0:0:0:
320,192,45898,1,0,0:0:0:0:
320,192,46921,1,0,0:0:0:0:
448,192,46921,1,0,0:0:0:0:
192,192,46969,1,0,0:0:0:0:
64,192,46969,1,0,0:0:0:0:
320,192,47018,1,0,0:0:0:0:
448,192,47018,1,0,0:0:0:0:
192,192,47067,1,0,0:0:0:0:
64,192,47067,1,0,0:0:0:0:
320,192,47115,1,0,0:0:0:0:
448,192,47115,1,0,0:0:0:0:
192,192,47164,1,0,0:0:0:0:
64,192,47164,1,0,0:0:0:0:
320,192,47213,1,0,0:0:0:0:
448,192,47213,1,0,0:0:0:0:
192,192,47262,1,0,0:0:0:0:
64,192,47262,1,0,0:0:0:0:
320,192,47310,1,0,0:0:0:0:
448,192,47310,1,0,0:0:0:0:
192,192,47359,1,0,0:0:0:0:
64,192,47359,1,0,0:0:0:0:
320,192,47408,1,0,0:0:0:0:
448,192,47408,1,0,0:0:0:0:
192,192,47456,1,0,0:0:0:0:
64,192,47456,1,0,0:0:0:0:
192,192,48041,1,0,0:0:0:0:
192,192,48917,1,0,0:0:0:0:
320,192,49112,1,0,0:0:0:0:
448,192,49112,1,0,0:0:0:0:
64,192,49112,1,0,0:0:0:0:
192,192,49112,1,0,0:0:0:0:
192,192,50427,1,0,0:0:0:0:
192,192,50719,1,0,0:0:0:0:
64,192,51060,128,0,52278:0:0:0:0:
192,192,51060,128,0,52278:0:0:0:0:
320,192,51060,128,0,52278:0:0:0:0:
448,192,51060,128,0,52278:0:0:0:0:
192,192,53252,1,0,0:0:0:0:
64,192,53300,1,0,0:0:0:0:
192,192,53349,1,0,0:0:0:0:
320,192,53398,1,0,0:0:0:0:
448,192,53447,1,0,0:0:0:0:
192,192,53934,1,0,0:0:0:0:
64,192,54031,1,0,0:0:0:0:
192,192,54080,1,0,0:0:0:0:
64,192,54177,1,0,0:0:0:0:
192,192,54810,1,0,0:0:0:0:
64,192,54810,1,0,0:0:0:0:
320,192,54859,1,0,0:0:0:0:
448,192,54859,1,0,0:0:0:0:
192,192,54908,1,0,0:0:0:0:
64,192,54908,1,0,0:0:0:0:
320,192,54956,1,0,0:0:0:0:
448,192,54956,1,0,0:0:0:0:
192,192,55005,1,0,0:0:0:0:
64,192,55005,1,0,0:0:0:0:
320,192,55054,1,0,0:0:0:0:
448,192,55054,1,0,0:0:0:0:
192,192,55102,1,0,0:0:0:0:
64,192,55102,1,0,0:0:0:0:
320,192,55151,1,0,0:0:0:0:
448,192,55151,1,0,0:0:0:0:
192,192,55200,1,0,0:0:0:0:
64,192,55200,1,0,0:0:0:0:
320,192,55249,1,0,0:0:0:0:
448,192,55249,1,0,0:0:0:0:
192,192,55297,1,0,0:0:0:0:
64,192,55297,1,0,0:0:0:0:
320,192,55346,1,0,0:0:0:0:
448,192,55346,1,0,0:0:0:0:
192,192,55395,1,0,0:0:0:0:
64,192,55395,1,0,0:0:0:0:
192,192,56174,1,0,0:0:0:0:
192,192,57099,1,0,0:0:0:0:
448,192,57684,1,0,0:0:0:0:
320,192,57684,1,0,0:0:0:0:
192,192,57732,1,0,0:0:0:0:
64,192,57732,1,0,0:0:0:0:
320,192,57781,1,0,0:0:0:0:
448,192,57781,1,0,0:0:0:0:
192,192,57830,1,0,0:0:0:0:
64,192,57830,1,0,0:0:0:0:
320,192,57878,1,0,0:0:0:0:
448,192,57878,1,0,0:0:0:0:
64,192,57927,1,0,0:0:0:0:
192,192,57927,1,0,0:0:0:0:
320,192,57976,1,0,0:0:0:0:
448,192,57976,1,0,0:0:0:0:
192,192,58024,1,0,0:0:0:0:
64,192,58024,1,0,0:0:0:0:
320,192,58073,1,0,0:0:0:0:
448,192,58073,1,0,0:0:0:0:
192,192,58122,1,0,0:0:0:0:
64,192,58122,1,0,0:0:0:0:
320,192,58171,1,0,0:0:0:0:
448,192,58171,1,0,0:0:0:0:
192,192,58219,1,0,0:0:0:0:
64,192,58219,1,0,0:0:0:0:
320,192,58268,1,0,0:0:0:0:
448,192,58268,1,0,0:0:0:0:
192,192,58317,1,0,0:0:0:0:
64,192,58317,1,0,0:0:0:0:
64,192,58950,128,0,59534:0:0:0:0:
192,192,58950,128,0,59534:0:0:0:0:
448,192,58950,128,0,59534:0:0:0:0:
320,192,58950,128,0,59534:0:0:0:0:
192,192,59826,1,0,0:0:0:0:
192,192,60021,1,0,0:0:0:0:
192,192,60800,1,0,0:0:0:0:
192,192,60947,1,0,0:0:0:0:
320,192,61093,1,0,0:0:0:0:
64,192,61190,1,0,0:0:0:0:
448,192,61239,1,0,0:0:0:0:
192,192,61336,1,0,0:0:0:0:
320,192,61434,1,0,0:0:0:0:
64,192,61531,1,0,0:0:0:0:
448,192,61677,1,0,0:0:0:0:
192,192,61726,1,0,0:0:0:0:
320,192,61774,1,0,0:0:0:0:
64,192,61823,1,0,0:0:0:0:
448,192,61872,1,0,0:0:0:0:
192,192,61921,1,0,0:0:0:0:
320,192,61921,1,0,0:0:0:0:
64,192,61969,1,0,0:0:0:0:
448,192,62018,1,0,0:0:0:0:
192,192,62651,1,0,0:0:0:0:
64,192,62895,1,0,0:0:0:0:
192,192,63089,1,0,0:0:0:0:
320,192,63236,1,0,0:0:0:0:
448,192,63333,1,0,0:0:0:0:
320,192,63479,1,0,0:0:0:0:
192,192,63625,1,0,0:0:0:0:
192,192,64112,1,0,0:0:0:0:
64,192,64404,1,0,0:0:0:0:
192,192,64502,1,0,0:0:0:0:
192,192,64697,1,0,0:0:0:0:
64,192,64843,1,0,0:0:0:0:
192,192,64940,1,0,0:0:0:0:
192,192,65086,1,0,0:0:0:0:
448,192,65281,1,0,0:0:0:0:
320,192,65378,1,0,0:0:0:0:
64,192,65378,1,0,0:0:0:0:
192,192,65427,1,0,0:0:0:0:
448,192,65476,1,0,0:0:0:0:
320,192,65524,1,0,0:0:0:0:
64,192,65524,1,0,0:0:0:0:
192,192,65573,1,0,0:0:0:0:
448,192,65573,1,0,0:0:0:0:
320,192,65671,1,0,0:0:0:0:
64,192,65719,1,0,0:0:0:0:
448,192,65719,1,0,0:0:0:0:
192,192,65768,1,0,0:0:0:0:
320,192,65817,1,0,0:0:0:0:
64,192,65865,1,0,0:0:0:0:
448,192,65865,1,0,0:0:0:0:
192,192,65914,1,0,0:0:0:0:
320,192,65914,1,0,0:0:0:0:
448,192,66012,1,0,0:0:0:0:
64,192,66012,1,0,0:0:0:0:
320,192,66060,1,0,0:0:0:0:
192,192,66060,1,0,0:0:0:0:
448,192,66158,1,0,0:0:0:0:
64,192,66206,1,0,0:0:0:0:
320,192,66206,1,0,0:0:0:0:
192,192,66255,1,0,0:0:0:0:
448,192,66255,1,0,0:0:0:0:
64,192,66352,1,0,0:0:0:0:
320,192,66352,1,0,0:0:0:0:
448,192,66401,1,0,0:0:0:0:
192,192,66401,1,0,0:0:0:0:
64,192,66499,1,0,0:0:0:0:
320,192,66499,1,0,0:0:0:0:
448,192,66547,1,0,0:0:0:0:
192,192,66547,1,0,0:0:0:0:
320,192,66596,1,0,0:0:0:0:
