osu file format v14

[General]
AudioFilename: audio.mp3
AudioLeadIn: 0
PreviewTime: 161272
Countdown: 0
SampleSet: Soft
StackLeniency: 0.7
Mode: 0
LetterboxInBreaks: 0
EpilepsyWarning: 1
WidescreenStoryboard: 0

[Editor]
Bookmarks: 23008,34302,48419,59714,71008,82302,93596,104890,116184,127478,138772,150067,161361,172655,183949
DistanceSpacing: 1.5
BeatDivisor: 4
GridSize: 4
TimelineZoom: 2.4

[Metadata]
Title:Not Found
TitleUnicode:Not Found
Artist:Kirin feat. Aoki Lapis
ArtistUnicode:きりん feat. 蒼姫ラピス
Creator:Mao
Version:404
Source:
Tags:eastnewsound klaft existence vocaloid electronic japanese seto kousuke greenhue
BeatmapID:1184958
BeatmapSetID:560326

[Difficulty]
HPDrainRate:7
CircleSize:4
OverallDifficulty:8
ApproachRate:9
SliderMultiplier:1.9
SliderTickRate:2

[Events]
//Background and Video events
0,0,"notfound.jpg",0,0
//Break Periods
2,95208,104290
//Storyboard Layer 0 (Background)
//Storyboard Layer 1 (Fail)
//Storyboard Layer 2 (Pass)
//Storyboard Layer 3 (Foreground)
//Storyboard Layer 4 (Overlay)
//Storyboard Sound Samples

[TimingPoints]
420,352.941176470588,4,2,1,70,1,0
23008,-133.333333333333,4,2,1,60,0,0
34302,-100,4,2,1,80,0,0
35361,-400,4,2,1,80,0,0
37125,-100,4,2,1,80,0,0
38184,-400,4,2,1,80,0,0
39949,-100,4,2,1,80,0,0
41008,-400,4,2,1,80,0,0
42772,-100,4,2,1,80,0,0
48067,-50,4,2,1,80,0,0
48419,-83.3333333333333,4,2,1,100,0,1
50184,-66.6666666666667,4,2,1,100,0,1
50537,-83.3333333333333,4,2,1,100,0,1
53008,-66.6666666666667,4,2,1,100,0,1
53361,-83.3333333333333,4,2,1,100,0,1
54419,-66.6666666666667,4,2,1,100,0,1
54772,-83.3333333333333,4,2,1,100,0,1
55831,-66.6666666666667,4,2,1,100,0,1
56184,-83.3333333333333,4,2,1,100,0,1
58302,-50,4,2,1,100,0,1
59361,-71.4285714285714,4,2,1,100,0,1
59714,-80,4,2,1,100,0,0
60772,-40,4,2,1,100,0,1
60949,-66.6666666666667,4,2,1,100,0,0
61125,-83.3333333333333,4,2,1,100,0,1
61478,-66.6666666666667,4,2,1,100,0,1
61831,-83.3333333333333,4,2,1,100,0,1
64302,-66.6666666666667,4,2,1,100,0,1
64655,-83.3333333333333,4,2,1,100,0,1
67125,-66.6666666666667,4,2,1,100,0,1
67478,-83.3333333333333,4,2,1,100,0,1
69596,-50,4,2,1,100,0,1
70655,-66.6666666666667,4,2,1,100,0,1
71008,-100,4,2,1,80,0,0
93949,-100,4,2,1,60,0,0
94302,-100,4,2,1,40,0,0
94655,-100,4,2,1,20,0,0
95008,-100,4,2,1,5,0,0
95096,-100,4,2,1,60,0,0
104890,-133.333333333333,4,2,1,60,0,0
116184,-120.481927710843,4,2,1,70,0,0
127478,-125,4,2,1,50,0,0
128890,-111.111111111111,4,2,1,60,0,0
130302,-100,4,2,1,70,0,0
131714,-90.9090909090909,4,2,1,80,0,0
133125,-83.3333333333333,4,2,1,90,0,0
138419,-50,4,2,1,90,0,0
138772,-83.3333333333333,4,2,1,100,0,1
139125,-66.6666666666667,4,2,1,100,0,1
139478,-83.3333333333333,4,2,1,100,0,1
140537,-66.6666666666667,4,2,1,100,0,1
140890,-83.3333333333333,4,2,1,100,0,1
143361,-66.6666666666667,4,2,1,100,0,1
143714,-83.3333333333333,4,2,1,100,0,1
144772,-66.6666666666667,4,2,1,100,0,1
145125,-83.3333333333333,4,2,1,100,0,1
146184,-66.6666666666667,4,2,1,100,0,1
146537,-83.3333333333333,4,2,1,100,0,1
148655,-50,4,2,1,100,0,1
149714,-66.6666666666667,4,2,1,100,0,1
150067,-80,4,2,1,100,0,0
151125,-40,4,2,1,100,0,1
151302,-66.6666666666667,4,2,1,100,0,0
151478,-83.3333333333333,4,2,1,100,0,1
151831,-66.6666666666667,4,2,1,100,0,1
152184,-83.3333333333333,4,2,1,100,0,1
154655,-66.6666666666667,4,2,1,100,0,1
155008,-83.3333333333333,4,2,1,100,0,1
156067,-66.6666666666667,4,2,1,100,0,1
156419,-83.3333333333333,4,2,1,100,0,1
157478,-66.6666666666667,4,2,1,100,0,1
157831,-83.3333333333333,4,2,1,100,0,1
159949,-50,4,2,1,100,0,1
161008,-66.6666666666667,4,2,1,100,0,1
161272,-100,4,2,1,70,0,0
161361,-66.6666666666667,4,2,1,100,0,1
161890,-50,4,2,1,100,0,1
162772,-66.6666666666667,4,2,1,100,0,1
164714,-50,4,2,1,100,0,1
165596,-66.6666666666667,4,2,1,100,0,1
166302,-57.1428571428571,4,2,1,100,0,1
166478,-66.6666666666667,4,2,1,100,0,1
167537,-50,4,2,1,100,0,1
168243,-66.6666666666667,4,2,1,100,0,1
168596,-50,4,2,1,100,0,1
168949,-58.8235294117647,4,2,1,100,0,1
170361,-50,4,2,1,100,0,1
172302,-50,4,2,1,100,0,1
172655,-66.6666666666667,4,2,1,100,0,1
173184,-50,4,2,1,100,0,1
174067,-66.6666666666667,4,2,1,100,0,1
176008,-50,4,2,1,100,0,1
176890,-66.6666666666667,4,2,1,100,0,1
178831,-50,4,2,1,100,0,1
179537,-66.6666666666667,4,2,1,100,0,1
179890,-50,4,2,1,100,0,1
180243,-58.8235294117647,4,2,1,100,0,1
181655,-50,4,2,1,100,0,1
183949,-100,4,2,1,100,0,0

[Colours]
Combo1 : 255,89,172
Combo2 : 250,109,5
Combo3 : 128,128,255
Combo4 : 252,221,3
Combo5 : 199,80,250
SliderTrackOverride : 64,0,64

[HitObjects]
33,57,22478,5,0,3:0:0:0:
110,110,22655,1,2,0:0:0:0:
38,199,22831,1,0,3:0:0:0:
43,216,22919,1,0,3:0:0:0:
48,231,23008,6,0,P|39:299|84:352,1,142.500005435944,4|0,0:0|0:0,0:0:0:0:
199,323,23537,2,0,P|207:254|162:201,1,142.500005435944,2|0,0:0|0:0,0:0:0:0:
57,87,24067,2,2,B|102:157|189:157|242:91|242:87|242:82|296:16|383:16|428:87,1,427.500016307831,4|0,0:0|0:0,0:0:0:0:
492,182,25302,1,0,0:0:0:0:
420,270,25478,1,2,0:0:0:0:
485,363,25655,1,0,0:0:0:0:
468,368,25743,1,0,0:0:0:0:
451,374,25831,6,0,P|385:372|323:314,1,142.500005435944,4|0,0:0|0:0,0:0:0:0:
183,325,26361,2,0,P|130:370|60:374,1,142.500005435944,2|0,0:0|0:0,0:0:0:0:
71,197,26890,2,2,B|116:127|203:127|256:193|256:197|256:202|310:268|397:268|442:197,1,427.500016307831,4|0,0:0|0:0,0:0:0:0:
496,95,28125,1,0,0:0:0:0:
417,13,28302,1,2,0:0:0:0:
314,62,28478,1,0,0:0:0:0:
297,68,28567,1,0,0:0:0:0:
280,74,28655,6,0,P|198:71|150:31,1,142.500005435944,4|0,0:0|0:0,0:0:0:0:
60,102,29184,2,0,P|98:174|87:236,1,142.500005435944,2|0,0:0|0:0,0:0:0:0:
31,330,29714,1,2,0:0:0:0:
137,369,29890,6,0,L|211:350,1,71.2500027179719,2|0,0:0|0:0,0:0:0:0:
211,237,30243,2,0,L|276:275,1,71.2500027179719,2|0,0:0|0:0,0:0:0:0:
356,195,30596,2,0,L|375:269,1,71.2500027179719,2|0,0:0|0:0,0:0:0:0:
406,373,30949,1,2,0:0:0:0:
505,318,31125,1,0,0:0:0:0:
491,204,31302,1,0,0:0:0:0:
487,186,31390,1,0,0:0:0:0:
482,166,31478,6,0,P|463:115|387:63,1,142.500005435944,4|0,0:0|0:0,0:0:0:0:
286,107,32008,2,0,P|243:103|207:78,1,71.2500027179719,2|0,0:0|0:0,0:0:0:0:
30,116,32361,1,0,0:0:0:0:
112,18,32537,1,0,0:0:0:0:
135,192,32714,6,2,B|140:261|204:295|269:267|271:264|273:260|338:233|402:267|407:337,1,356.25001358986,4|0,0:0|0:0,0:0:0:0:
500,132,33772,1,0,0:0:0:0:
392,172,33948,1,0,0:0:0:0:
411,59,34125,1,0,0:0:0:0:
178,149,34302,6,0,P|113:157|33:64,1,190,4|0,1:2|0:0,0:0:0:0:
334,149,34831,2,0,P|399:157|479:64,1,190,4|0,1:0|0:0,0:0:0:0:
255,20,35361,6,2,B|261:71|238:107|238:107|267:128|267:128|244:168|256:213,1,213.75,4|0,1:0|0:0,0:3:0:0:
340,339,37125,6,0,P|371:314|509:357,1,190,4|0,1:2|0:0,0:0:0:0:
172,339,37655,2,0,P|140:314|3:357,1,190,4|0,1:0|0:0,0:0:0:0:
255,364,38184,6,2,B|261:313|238:277|238:277|267:256|267:256|244:216|256:171,1,213.75,4|0,1:0|0:0,0:3:0:0:
364,50,39949,6,0,P|412:35|495:136,1,190,4|0,1:2|0:0,0:0:0:0:
148,50,40478,2,0,P|100:35|17:136,1,190,4|0,1:0|0:0,0:0:0:0:
256,95,41008,6,2,B|262:146|239:182|239:182|268:203|268:203|245:243|257:288,1,213.75,4|0,1:0|0:0,0:3:0:0:
391,360,42772,6,0,P|448:262|416:191,1,190,4|0,1:2|0:0,0:0:0:0:
89,197,43302,2,0,P|65:286|121:360,1,190,4|0,1:0|0:0,0:0:0:0:
256,288,43831,5,4,1:0:0:0:
303,205,44008,1,0,0:0:0:0:
209,205,44184,1,2,0:0:0:0:
447,24,44537,5,0,0:0:0:0:
64,24,44890,1,0,0:0:0:0:
424,133,45243,1,0,0:0:0:0:
87,133,45596,1,0,0:0:0:0:
400,241,45949,1,0,0:0:0:0:
111,241,46302,1,0,0:0:0:0:
377,351,46655,1,0,0:0:0:0:
134,351,47008,5,0,1:0:0:0:
377,351,47184,1,4,3:0:0:0:
111,241,47361,1,0,1:0:0:0:
400,241,47537,1,4,3:0:0:0:
87,133,47714,1,0,1:0:0:0:
424,133,47890,1,4,3:0:0:0:
64,24,48067,6,2,B|87:83|144:107|220:88|220:88|273:34|214:95|160:67,1,285,6|0,1:2|0:0,0:0:0:0:
156,50,48419,6,0,L|175:182,1,113.999996520996,4|0,1:0|0:0,0:0:0:0:
176,179,48684,1,0,0:0:0:0:
180,195,48772,1,0,1:0:0:0:
241,366,48949,1,0,0:0:0:0:
335,193,49125,2,0,L|398:206,1,56.9999982604981,2|0,0:0|0:0,0:0:0:0:
476,351,49302,2,0,L|413:338,1,56.9999982604981,4|0,3:0|0:0,0:0:0:0:
345,209,49478,2,0,L|408:222,1,56.9999982604981,0|0,1:0|0:0,0:0:0:0:
486,367,49655,2,2,L|423:354,1,56.9999982604981,2|0,0:0|0:0,0:3:0:0:
276,261,49831,6,0,P|257:211|275:155,1,113.999996520996,4|2,3:0|3:0,0:0:0:0:
292,136,50096,1,2,0:3:0:0:
313,115,50184,6,2,B|393:131|393:131|438:84,1,142.500005435944,4|0,1:2|0:0,0:3:0:0:
282,10,50537,1,4,0:0:0:0:
170,160,50714,1,4,3:0:0:0:
170,160,50802,1,0,0:0:0:0:
170,160,50890,2,0,L|165:232,1,56.9999982604981,0|0,1:0|0:0,0:0:0:0:
21,83,51067,2,2,L|26:11,1,56.9999982604981,0|0,1:0|0:0,0:3:0:0:
52,190,51243,5,4,1:0:0:0:
207,67,51419,1,2,0:0:0:0:
287,240,51596,2,2,L|159:229,1,113.999996520996,2|0,1:2|0:0,0:3:0:0:
277,355,51949,2,0,L|333:359,1,56.9999982604981,2|0,0:0|0:0,0:0:0:0:
445,221,52125,2,0,L|388:216,1,56.9999982604981,4|0,3:0|0:0,0:0:0:0:
290,342,52302,2,0,L|346:346,1,56.9999982604981,2|0,1:2|0:0,0:0:0:0:
458,208,52478,2,2,L|401:203,1,56.9999982604981,2|0,0:0|0:0,0:3:0:0:
227,105,52655,6,0,P|278:128|331:111,1,113.999996520996,4|2,3:0|3:0,0:0:0:0:
360,94,52919,1,2,0:3:0:0:
387,70,53008,6,2,B|420:138|420:138|397:216,1,142.500005435944,4|0,1:2|0:0,0:3:0:0:
285,15,53361,1,2,0:0:0:0:
116,116,53537,1,4,3:0:0:0:
116,116,53625,1,0,0:0:0:0:
116,116,53714,2,0,L|56:109,1,56.9999982604981,0|0,1:0|0:0,0:0:0:0:
222,17,53890,2,2,L|282:24,1,56.9999982604981,2|0,0:0|0:0,0:3:0:0:
263,266,54067,6,0,P|275:202|256:151,1,113.999996520996,4|0,1:0|0:0,0:0:0:0:
238,134,54331,1,0,0:0:0:0:
215,116,54419,6,2,B|289:126|289:126|349:92,1,142.500005435944,4|0,1:2|0:0,0:3:0:0:
406,287,54772,2,0,L|335:279,1,56.9999982604981,2|0,0:0|0:0,0:0:0:0:
449,136,54949,2,0,L|520:144,1,56.9999982604981,4|0,3:0|0:0,0:0:0:0:
393,296,55125,2,0,L|322:288,1,56.9999982604981,2|0,1:2|0:0,0:0:0:0:
436,145,55302,2,2,L|507:153,1,56.9999982604981,2|0,0:0|0:0,0:3:0:0:
466,337,55478,6,0,P|418:377|351:371,1,113.999996520996,4|2,1:0|3:0,1:0:0:0:
344,373,55743,1,2,0:3:0:0:
319,366,55831,6,2,B|260:331|260:331|268:253,1,142.500005435944,4|0,1:2|0:0,0:3:0:0:
421,156,56184,1,2,0:0:0:0:
293,26,56361,1,4,3:0:0:0:
293,26,56449,1,0,0:0:0:0:
293,26,56537,2,0,L|286:91,1,56.9999982604981,0|0,1:0|0:0,0:0:0:0:
268,258,56714,2,2,L|275:193,1,56.9999982604981,2|0,0:0|0:0,0:3:0:0:
389,68,56890,5,4,1:0:0:0:
200,127,57067,1,2,0:0:0:0:
25,27,57243,2,0,L|44:149,1,113.999996520996,2|0,1:2|0:0,0:0:0:0:
112,347,57596,2,0,L|118:278,1,56.9999982604981,2|0,0:0|0:0,0:0:0:0:
274,201,57772,2,0,L|268:270,1,56.9999982604981,4|0,3:0|0:0,0:0:0:0:
126,334,57949,2,0,L|132:265,1,56.9999982604981,2|0,1:2|0:0,0:0:0:0:
288,188,58125,2,2,L|282:257,1,56.9999982604981,2|0,0:0|0:0,0:3:0:0:
408,364,58302,6,2,B|470:323|460:241|460:241|426:248|416:289,1,190,4|0,1:0|0:0,0:3:0:0:
303,93,58567,6,2,B|241:134|251:216|251:216|285:209|295:168,1,190,4|0,1:0|0:0,0:3:0:0:
489,170,58831,6,2,B|437:116|358:140|358:140|371:172|413:175,1,190,4|0,1:0|0:0,0:3:0:0:
219,285,59096,6,2,B|270:338|349:314|349:314|336:282|294:279,1,190,4|0,1:0|0:0,0:3:0:0:
123,287,59361,6,0,L|104:388,1,66.4999979705811,0|0,1:0|0:0,0:0:0:0:
181,158,59537,2,0,L|200:57,1,66.4999979705811,4|0,3:0|0:0,0:0:0:0:
1,235,59714,6,0,L|51:-19,1,237.5,4|0,1:0|0:0,0:0:0:0:
9,246,60243,2,0,L|58:-2,1,237.5,4|0,1:0|0:0,0:0:0:0:
17,258,60772,54,2,L|64:18,1,237.5,4|0,1:2|0:0,0:3:0:0:
88,367,61125,6,0,P|95:336|160:289,1,113.999996520996,4|2,1:0|3:0,0:0:0:0:
182,306,61390,1,2,0:3:0:0:
207,324,61478,6,2,B|275:334|275:334|332:280,1,142.500005435944,4|0,1:2|0:0,0:3:0:0:
251,142,61831,1,2,0:0:0:0:
360,24,62008,1,4,3:0:0:0:
360,24,62096,1,0,0:0:0:0:
360,24,62184,2,0,L|351:102,1,56.9999982604981,0|0,1:0|0:0,0:0:0:0:
328,283,62360,2,2,L|337:205,1,56.9999982604981,2|0,0:0|0:0,0:3:0:0:
318,373,62537,5,4,1:0:0:0:
447,234,62714,1,2,0:0:0:0:
251,142,62890,2,2,L|235:284,1,113.999996520996,2|0,1:2|0:0,0:3:0:0:
87,364,63243,2,0,L|14:370,1,56.9999982604981,2|0,0:0|0:0,0:0:0:0:
87,207,63419,2,0,L|160:201,1,56.9999982604981,4|0,3:0|0:0,0:0:0:0:
70,350,63596,2,0,L|-3:356,1,56.9999982604981,2|0,1:2|0:0,0:0:0:0:
70,193,63772,2,2,L|143:187,1,56.9999982604981,2|0,0:0|0:0,0:3:0:0:
274,51,63949,6,0,P|219:95|171:85,1,113.999996520996,4|2,1:0|3:0,0:0:0:0:
154,69,64214,1,2,0:3:0:0:
131,46,64302,6,2,B|59:52|59:52|17:109,1,142.500005435944,4|0,1:2|0:0,0:3:0:0:
143,202,64655,1,2,0:0:0:0:
274,51,64831,1,4,3:0:0:0:
274,51,64919,1,0,0:0:0:0:
274,51,65008,2,0,L|284:124,1,56.9999982604981,0|0,1:0|0:0,0:0:0:0:
428,178,65184,2,2,L|435:121,1,56.9999982604981,2|0,3:0|0:0,0:3:0:0:
453,344,65361,6,2,P|403:320|340:323,1,113.999996520996,4|0,1:0|0:0,0:3:0:0:
345,321,65625,1,0,0:0:0:0:
345,321,65714,1,2,1:2:0:0:
227,369,65890,1,0,0:0:0:0:
151,193,66067,2,0,L|88:206,1,56.9999982604981,2|0,0:0|0:0,0:0:0:0:
10,351,66244,2,0,L|73:338,1,56.9999982604981,4|0,3:0|0:0,0:0:0:0:
141,209,66420,2,0,L|78:222,1,56.9999982604981,0|0,1:0|0:0,0:0:0:0:
0,367,66597,2,2,L|63:354,1,56.9999982604981,2|0,0:0|0:0,0:3:0:0:
210,261,66773,6,0,P|229:211|211:155,1,113.999996520996,4|2,3:0|3:0,0:0:0:0:
194,136,67038,1,2,0:3:0:0:
173,115,67126,6,2,B|103:130|103:130|48:84,1,142.500005435944,4|0,1:2|0:0,0:3:0:0:
223,30,67478,1,2,0:0:0:0:
316,182,67655,1,4,3:0:0:0:
316,182,67743,1,0,0:0:0:0:
316,182,67831,2,0,L|308:260,1,56.9999982604981,0|0,1:0|0:0,0:0:0:0:
463,106,68008,2,2,L|471:28,1,56.9999982604981,2|0,0:0|0:0,0:3:0:0:
504,202,68184,5,4,1:0:0:0:
358,70,68361,1,2,0:0:0:0:
299,253,68537,2,2,L|423:276,1,113.999996520996,4|0,1:2|0:0,0:3:0:0:
278,355,68890,2,0,L|203:343,1,56.9999982604981,2|0,0:0|0:0,0:0:0:0:
153,193,69067,2,0,L|228:205,1,56.9999982604981,4|0,3:0|0:0,0:0:0:0:
261,337,69243,2,0,L|186:325,1,56.9999982604981,2|0,1:2|0:0,0:0:0:0:
136,175,69420,2,2,L|211:187,1,56.9999982604981,2|0,0:0|0:0,0:3:0:0:
89,378,69596,6,2,B|27:337|37:255|37:255|71:262|81:303,1,190,4|0,1:0|0:0,0:3:0:0:
194,107,69861,6,2,B|256:148|246:230|246:230|212:223|202:182,1,190,4|0,1:0|0:0,0:3:0:0:
8,184,70125,6,2,B|60:130|139:154|139:154|126:186|84:189,1,190,4|0,1:0|0:0,0:3:0:0:
278,299,70390,6,2,B|227:352|148:328|148:328|161:296|203:293,1,190,4|0,1:0|0:0,0:3:0:0:
396,266,70655,6,0,P|403:325|391:353,1,71.2500027179719,0|0,1:0|0:0,0:0:0:0:
322,167,70831,2,0,P|315:108|327:80,1,71.2500027179719,4|0,3:0|0:0,0:0:0:0:
488,0,71008,5,4,1:0:0:0:
415,171,71184,1,0,0:0:0:0:
415,171,71272,1,0,0:0:0:0:
415,171,71361,1,4,3:0:0:0:
275,29,71537,2,2,L|168:42,1,95,4|0,1:2|0:0,0:3:0:0:
17,59,71890,1,4,3:0:0:0:
123,235,72067,2,0,L|110:128,1,95,0|0,1:0|0:0,0:0:0:0:
66,328,72419,5,4,3:0:0:0:
232,237,72596,1,2,0:0:0:0:
19,233,72772,1,0,0:0:0:0:
179,330,72949,1,4,1:2:0:0:
283,147,73125,1,0,1:0:0:0:
278,128,73214,1,0,1:0:0:0:
273,109,73302,1,0,1:0:0:0:
374,12,73478,2,0,L|361:120,1,95,0|0,1:0|0:0,0:0:0:0:
368,124,73743,1,0,0:0:0:0:
373,142,73831,5,4,3:0:0:0:
472,308,74008,1,0,0:0:0:0:
472,308,74096,1,0,0:0:0:0:
472,308,74184,1,4,3:0:0:0:
268,306,74361,2,2,L|279:211,1,95,4|0,1:2|0:0,0:3:0:0:
300,79,74714,1,4,3:0:0:0:
87,113,74890,2,0,L|181:124,1,95,0|0,1:0|0:0,0:0:0:0:
5,45,75243,5,4,3:0:0:0:
102,222,75419,1,2,0:0:0:0:
100,13,75596,1,0,0:0:0:0:
7,190,75772,2,2,P|3:251|27:288,1,95,0|0,1:0|0:0,0:3:0:0:
202,351,76125,1,4,0:3:0:0:
202,351,76214,1,0,0:0:0:0:
202,351,76302,2,2,P|206:290|182:253,1,95,0|0,1:0|0:0,0:3:0:0:
177,247,76567,1,0,0:0:0:0:
164,232,76655,5,4,1:0:0:0:
280,96,76831,1,2,0:0:0:0:
280,96,76919,1,0,0:0:0:0:
280,96,77008,1,4,3:0:0:0:
448,127,77184,2,2,L|459:222,1,95,4|0,1:2|0:0,0:3:0:0:
480,354,77537,1,4,3:0:0:0:
267,320,77713,2,0,L|361:309,1,95,0|0,1:0|0:0,0:0:0:0:
361,308,77978,1,0,0:0:0:0:
361,308,78067,5,4,3:0:0:0:
214,194,78243,1,2,0:0:0:0:
135,354,78419,2,0,L|71:359,1,47.5
12,330,78596,2,2,P|55:323|83:271,1,95,4|0,1:2|0:0,0:3:0:0:
75,264,78861,1,8,0:3:0:0:
67,246,78949,2,0,L|30:156,1,95,4|0,3:0|1:0,0:0:0:0:
168,27,79302,1,0,0:0:0:0:
168,27,79390,1,0,0:0:0:0:
168,27,79478,6,0,P|184:83|175:133,1,95,4|0,1:0|0:0,0:0:0:0:
174,137,79743,1,0,0:0:0:0:
168,155,79831,1,4,3:0:0:0:
247,317,80008,2,2,L|352:330,1,95,4|0,1:2|0:0,0:3:0:0:
506,348,80361,1,4,3:0:0:0:
444,154,80537,2,0,L|431:259,1,95,0|0,1:0|0:0,0:0:0:0:
458,36,80890,5,4,3:0:0:0:
340,200,81067,1,2,0:0:0:0:
283,14,81243,1,0,0:0:0:0:
444,154,81419,2,2,L|355:120,1,95,4|0,1:2|0:0,0:3:0:0:
163,52,81772,1,4,3:0:0:0:
163,52,82125,1,0,0:0:0:0:
222,184,82302,6,0,P|232:228|212:289,1,95,4|0,1:0|0:0,0:0:0:0:
213,293,82567,1,0,0:0:0:0:
205,310,82655,1,4,3:0:0:0:
41,351,82831,2,2,L|32:250,1,95,4|0,1:2|0:0,0:3:0:0:
8,77,83184,1,4,3:0:0:0:
196,147,83361,2,0,L|101:155,1,95,0|0,1:0|0:0,0:0:0:0:
255,227,83714,6,0,P|286:186|292:137,1,95,4|2,3:0|0:0,0:0:0:0:
407,26,84067,1,0,0:0:0:0:
487,194,84243,1,0,1:0:0:0:
482,207,84331,1,0,0:0:0:0:
488,229,84419,1,0,1:0:0:0:
479,246,84508,1,0,1:3:0:0:
482,268,84596,2,2,B|475:302|475:302|482:328|482:328|473:376,1,95,0|0,1:0|1:0,0:3:0:0:
383,195,84949,1,4,0:0:0:0:
279,340,85125,6,0,L|169:325,1,95,4|0,1:0|0:0,0:0:0:0:
167,334,85390,1,0,0:0:0:0:
149,341,85478,1,4,3:0:0:0:
22,172,85655,2,2,L|132:187,1,95,4|0,1:2|0:0,0:3:0:0:
293,214,86008,1,4,3:0:0:0:
229,28,86184,2,0,L|214:138,1,95,0|0,1:0|0:0,0:0:0:0:
249,279,86537,6,0,P|293:294|347:268,1,95,4|2,3:0|0:0,0:0:0:0:
351,265,86802,1,0,0:0:0:0:
365,253,86890,1,0,0:0:0:0:
486,95,87067,1,0,1:0:0:0:
483,113,87155,1,0,0:0:0:0:
480,131,87243,1,8,3:0:0:0:
477,149,87331,1,0,0:0:0:0:
475,167,87419,2,0,L|467:239,1,47.5,4|0,3:0|0:0,0:0:0:0:
462,334,87596,1,0,1:0:0:0:
388,156,87772,1,4,0:0:0:0:
193,207,87949,6,0,L|97:197,1,95,4|0,3:0|0:0,0:0:0:0:
79,195,88214,1,0,0:0:0:0:
60,193,88302,1,4,3:0:0:0:
151,28,88478,2,2,L|247:38,1,95,4|0,1:2|0:0,0:3:0:0:
447,60,88831,1,4,3:0:0:0:
324,226,89008,2,0,L|333:131,1,95,0|0,1:0|0:0,0:0:0:0:
380,327,89361,5,4,3:0:0:0:
216,225,89538,1,4,0:0:0:0:
433,229,89714,1,0,0:0:0:0:
263,320,89891,1,0,1:0:0:0:
124,203,90067,1,2,3:0:0:0:
129,184,90155,1,0,0:0:0:0:
134,165,90243,1,4,3:0:0:0:
11,32,90419,2,0,L|28:134,1,95,0|0,1:0|0:0,0:0:0:0:
21,144,90684,1,0,0:0:0:0:
16,163,90772,1,4,3:0:0:0:
145,371,90949,5,2,0:0:0:0:
277,268,91125,1,4,3:0:0:0:
124,203,91302,2,2,L|135:313,1,95,0|0,1:0|0:0,0:3:0:0:
372,284,91655,21,4,3:0:0:0:
240,181,91831,1,0,1:0:0:0:
393,116,92008,2,2,L|382:226,1,95,4|0,1:2|0:0,0:3:0:0:
224,173,92361,6,0,P|208:123|219:79,1,95,4|0,0:0|0:0,0:0:0:0:
407,9,92714,1,4,1:2:0:0:
407,9,92802,1,0,0:0:0:0:
407,9,92890,1,0,0:0:0:0:
299,121,93067,1,4,3:0:0:0:
374,256,93243,2,0,L|473:276,1,95,0|0,1:0|0:0,0:0:0:0:
476,291,93508,1,0,0:0:0:0:
485,307,93596,5,4,1:0:0:0:
256,192,93684,12,0,95008,0:0:0:0:
73,333,104890,6,0,P|122:315|201:375,1,142.500005435944,4|0,0:0|0:0,0:0:0:0:
317,358,105419,2,0,P|372:316|439:333,1,142.500005435944,2|0,0:0|0:0,0:0:0:0:
442,186,105949,2,2,B|397:115|310:115|256:181|256:186|256:190|203:256|116:256|71:186,1,427.500016307831,4|0,0:0|0:0,0:0:0:0:
4,92,107184,1,0,0:0:0:0:
83,9,107361,1,2,0:0:0:0:
152,98,107537,1,0,0:0:0:0:
169,100,107625,1,0,0:0:0:0:
184,100,107714,6,0,P|233:93|286:22,1,142.500005435944,4|0,0:0|0:0,0:0:0:0:
410,50,108243,2,0,P|412:119|463:166,1,142.500005435944,2|0,0:0|0:0,0:0:0:0:
441,313,108772,2,2,B|396:242|309:242|255:308|255:313|255:317|202:383|115:383|70:313,1,427.500016307831,4|0,0:0|0:0,0:0:0:0:
10,213,110008,1,2,0:0:0:0:
107,155,110184,1,2,0:0:0:0:
44,59,110361,1,0,0:0:0:0:
60,51,110449,1,0,0:0:0:0:
76,43,110537,6,0,P|123:39|203:89,1,142.500005435944,4|0,0:0|0:0,0:0:0:0:
306,54,111067,2,0,P|310:101|260:181,1,142.500005435944,2|0,0:0|0:0,0:0:0:0:
166,243,111596,1,4,0:0:0:0:
213,346,111772,6,0,P|246:344|288:362,1,71.2500027179719,2|0,0:0|0:0,0:0:0:0:
345,262,112125,2,0,P|369:283|386:326,1,71.2500027179719,2|0,0:0|0:0,0:0:0:0:
496,294,112478,2,0,P|498:330|485:363,1,71.2500027179719,2|0,0:0|0:0,0:0:0:0:
444,193,112831,1,2,0:0:0:0:
508,98,113008,1,0,0:0:0:0:
433,12,113184,1,0,0:0:0:0:
415,9,113272,1,0,0:0:0:0:
397,5,113361,6,0,P|353:53|362:138,1,142.500005435944,4|0,0:0|0:0,0:0:0:0:
397,233,113890,2,0,P|400:277|383:319,1,71.2500027179719,2|0,0:0|0:0,0:0:0:0:
188,334,114243,1,0,0:0:0:0:
306,383,114419,1,2,0:0:0:0:
277,243,114596,6,2,B|289:174|236:125|166:135|164:138|160:140|91:150|38:100|51:32,1,356.25001358986,4|0,0:0|0:0,0:0:0:0:
115,251,115655,1,0,0:0:0:0:
62,352,115832,1,0,0:0:0:0:
2,260,116008,1,0,0:0:0:0:
184,340,116184,6,0,L|280:357,1,78.8500011429978,4|0,0:0|0:0,0:0:0:0:
281,356,116449,1,0,0:0:0:0:
300,359,116537,1,0,0:0:0:0:
457,384,116714,2,0,L|470:306,1,78.8500011429978,2|0,0:0|0:0,0:0:0:0:
488,197,117067,1,0,0:0:0:0:
463,72,117243,2,2,B|412:150|316:150|256:77|256:72|256:67|197:-6|100:-6|50:72,1,473.100006857987,4|0,0:0|0:0,0:0:0:0:
4,171,118478,1,0,0:0:0:0:
114,164,118655,1,2,0:0:0:0:
70,265,118831,1,0,0:0:0:0:
88,272,118919,1,0,0:0:0:0:
107,276,119008,6,0,P|148:273|182:251,1,78.8500011429978,4|0,0:0|0:0,0:0:0:0:
191,238,119272,1,0,0:0:0:0:
204,223,119361,1,0,0:0:0:0:
312,152,119537,2,0,L|402:166,1,78.8500011429978,2|0,0:0|0:0,0:0:0:0:
497,189,119890,1,0,0:0:0:0:
462,334,120067,2,2,B|411:257|315:257|255:329|255:334|255:339|196:412|99:412|50:336,1,473.100006857987,4|0,0:0|0:0,0:0:0:0:
14,230,121302,1,0,0:0:0:0:
121,251,121478,1,2,0:0:0:0:
89,144,121655,1,0,0:0:0:0:
81,125,121743,1,0,0:0:0:0:
74,106,121831,6,0,L|88:28,1,78.8500011429978,4|0,0:0|0:0,0:0:0:0:
196,6,122184,1,0,0:0:0:0:
245,151,122361,2,0,L|231:229,1,78.8500011429978,2|0,0:0|0:0,0:0:0:0:
211,337,122714,1,0,0:0:0:0:
211,337,122802,1,0,0:0:0:0:
211,337,122890,1,2,0:0:0:0:
316,304,123067,6,0,P|352:315|385:345,1,78.8500011429978,2|0,0:0|0:0,0:0:0:0:
485,281,123419,2,0,P|476:244|486:200,1,78.8500011429978,2|0,0:0|0:0,0:0:0:0:
381,147,123772,2,0,P|353:172|310:186,1,78.8500011429978,2|0,0:0|0:0,0:0:0:0:
225,119,124125,1,2,0:0:0:0:
219,99,124214,1,0,0:0:0:0:
213,80,124302,1,2,0:0:0:0:
318,49,124478,1,0,0:0:0:0:
125,174,124655,6,0,P|155:207|163:251,1,78.8500011429978,4|0,0:0|0:0,0:0:0:0:
148,349,125008,1,0,0:0:0:0:
318,348,125184,2,0,P|285:318|241:310,1,78.8500011429978,2|0,0:0|0:0,0:0:0:0:
129,343,125537,1,0,0:0:0:0:
109,337,125626,1,0,0:0:0:0:
89,332,125714,1,4,0:0:0:0:
51,187,125890,6,2,B|100:111|197:111|256:184|256:189|256:194|316:266|412:266|463:189,1,473.100006857987,2|0,0:0|0:0,0:0:0:0:
429,87,127125,1,2,0:0:0:0:
505,12,127302,1,0,0:0:0:0:
328,69,127478,6,0,L|247:54,1,76,4|0,1:2|0:0,0:0:0:0:
149,30,127831,1,0,0:0:0:0:
149,30,128008,1,0,0:0:0:0:
3,90,128184,2,0,L|84:105,1,76,0|0,1:0|0:0,0:0:0:0:
182,129,128537,1,0,0:0:0:0:
182,129,128714,1,0,0:0:0:0:
309,231,128890,6,0,P|316:284|301:326,1,85.4999973907472,0|0,1:0|0:0,0:0:0:0:
218,381,129243,1,0,3:0:0:0:
218,381,129419,1,0,3:0:0:0:
91,279,129596,2,0,P|84:226|99:184,1,85.4999973907472,0|0,1:0|0:0,0:0:0:0:
182,129,129949,1,0,3:0:0:0:
182,129,130125,1,0,3:0:0:0:
374,26,130302,6,2,L|381:126,1,95,4|0,1:2|0:0,0:3:0:0:
391,234,130655,1,0,3:0:0:0:
391,234,130831,1,0,3:0:0:0:
305,382,131008,2,2,L|298:282,1,95,0|0,1:0|0:0,0:3:0:0:
288,174,131361,1,0,3:0:0:0:
288,174,131537,1,0,3:0:0:0:
139,45,131714,6,2,P|94:41|39:77,1,104.500003189087,4|0,1:2|0:0,0:1:0:0:
7,179,132067,1,0,3:0:0:0:
7,179,132243,1,0,3:0:0:0:
156,308,132419,2,2,P|201:312|256:276,1,104.500003189087,4|0,1:2|0:0,0:1:0:0:
288,174,132772,1,0,3:0:0:0:
288,174,132948,1,0,3:0:0:0:
457,47,133125,6,2,L|466:117,3,56.9999982604981,4|0|0|0,1:2|0:0|0:0|0:0,0:1:0:0:
381,145,133478,2,0,L|372:215,3,56.9999982604981,0|0|0|0,1:0|0:0|0:0|0:0,0:0:0:0:
478,198,133831,2,2,L|487:268,3,56.9999982604981,4|0|0|0,1:2|0:0|0:0|0:0,0:1:0:0:
402,296,134184,2,0,L|393:366,3,56.9999982604981,0|0|0|0,1:0|0:0|0:0|0:0,0:0:0:0:
281,366,134537,5,4,1:2:0:0:
260,346,134625,1,0,3:0:0:0:
234,332,134714,1,0,3:0:0:0:
205,327,134802,1,0,3:0:0:0:
176,329,134890,1,0,1:0:0:0:
149,338,134978,1,0,3:0:0:0:
127,356,135067,1,0,3:0:0:0:
100,365,135155,1,0,3:0:0:0:
71,368,135243,1,4,1:2:0:0:
43,361,135331,1,0,3:0:0:0:
19,344,135419,1,0,3:0:0:0:
7,317,135508,1,0,3:0:0:0:
3,288,135596,1,0,1:0:0:0:
10,260,135684,1,0,3:0:0:0:
26,236,135772,1,0,3:0:0:0:
52,225,135861,1,0,3:0:0:0:
81,227,135949,6,0,L|147:216,3,56.9999982604981,4|0|0|0,1:2|3:0|3:0|3:0,3:0:0:0:
220,273,136302,2,0,L|286:284,3,56.9999982604981,0|0|0|0,1:0|3:0|3:0|3:0,3:0:0:0:
346,227,136655,2,0,L|412:216,3,56.9999982604981,4|0|0|0,1:2|3:0|3:0|3:0,3:0:0:0:
455,287,137008,2,0,L|521:298,3,56.9999982604981,0|0|0|0,1:0|3:0|3:0|3:0,3:0:0:0:
378,329,137361,5,0,1:0:0:0:
133,329,137537,1,4,3:0:0:0:
402,218,137714,1,0,1:0:0:0:
109,218,137890,1,4,3:0:0:0:
426,108,138067,1,0,1:0:0:0:
85,108,138243,1,4,3:0:0:0:
451,0,138419,6,2,B|424:70|356:99|281:81|281:81|292:68|292:68|328:71|344:111,1,285,6|0,1:2|0:0,0:0:0:0:
348,64,138772,6,0,L|356:180,1,113.999996520996,4|0,1:0|0:0,0:0:0:0:
361,210,139037,1,0,0:0:0:0:
366,239,139125,6,2,B|421:278|421:278|495:259,1,142.500005435944,6|0,1:2|0:0,0:3:0:0:
330,377,139478,2,0,L|266:365,1,56.9999982604981,2|0,0:0|0:0,0:0:0:0:
183,224,139655,2,0,L|245:234,1,56.9999982604981,4|0,3:0|0:0,0:0:0:0:
319,361,139831,2,0,L|255:349,1,56.9999982604981,0|0,1:0|0:0,0:0:0:0:
172,208,140008,2,2,L|234:218,1,56.9999982604981,2|0,0:0|0:0,0:3:0:0:
57,295,140184,2,0,L|41:175,1,113.999996520996,4|2,3:0|3:0,0:0:0:0:
36,149,140449,1,2,0:3:0:0:
31,117,140537,6,2,B|101:103|101:103|143:30,1,142.500005435944,4|0,1:2|0:0,0:3:0:0:
318,20,140890,1,2,0:0:0:0:
254,183,141067,1,4,3:0:0:0:
254,183,141155,1,0,0:0:0:0:
254,183,141243,2,2,L|261:247,1,56.9999982604981,2|0,1:2|0:0,0:3:0:0:
457,189,141419,2,2,L|464:125,1,56.9999982604981,2|0,0:0|0:0,0:3:0:0:
507,278,141596,5,4,1:0:0:0:
352,164,141772,1,2,0:0:0:0:
255,332,141949,2,2,L|374:341,1,113.999996520996,2|0,1:2|0:0,0:3:0:0:
152,299,142302,2,0,L|159:363,1,56.9999982604981,2|0,0:0|0:0,0:0:0:0:
23,230,142478,2,0,L|16:166,1,56.9999982604981,4|0,3:0|0:0,0:0:0:0:
163,279,142655,2,0,L|170:343,1,56.9999982604981,0|0,1:0|0:0,0:0:0:0:
34,210,142831,2,2,L|27:146,1,56.9999982604981,2|0,0:0|0:0,0:3:0:0:
182,23,143008,6,0,P|205:89|184:146,1,113.999996520996,4|2,1:0|3:0,0:0:0:0:
184,157,143272,1,2,0:3:0:0:
173,180,143361,6,2,B|232:223|232:223|308:207,1,142.500005435944,4|0,1:2|0:0,0:3:0:0:
481,179,143714,1,2,0:0:0:0:
413,349,143891,1,4,3:0:0:0:
413,349,143979,1,0,0:0:0:0:
413,349,144067,2,0,L|403:278,1,56.9999982604981,0|0,1:0|0:0,0:0:0:0:
378,125,144243,2,2,L|388:196,1,56.9999982604981,2|0,0:0|0:0,0:3:0:0:
201,343,144419,6,0,P|140:356|83:328,1,113.999996520996,4|2,1:0|0:0,0:0:0:0:
72,317,144684,1,0,0:0:0:0:
53,297,144772,6,2,B|85:234|85:234|73:160,1,142.500005435944,4|0,1:2|0:0,0:3:0:0:
206,27,145125,2,0,L|275:37,1,56.9999982604981,2|0,0:0|0:0,0:0:0:0:
317,192,145302,2,0,L|246:180,1,56.9999982604981,4|0,3:0|0:0,0:0:0:0:
194,37,145478,2,0,L|263:47,1,56.9999982604981,2|0,1:2|0:0,0:0:0:0:
306,203,145655,2,2,L|235:191,1,56.9999982604981,2|0,0:0|0:0,0:3:0:0:
440,81,145831,6,0,P|465:142|448:199,1,113.999996520996,4|2,1:0|3:0,0:0:0:0:
443,215,146096,1,2,0:3:0:0:
430,239,146184,6,2,B|400:302|400:302|442:367,1,142.500005435944,4|0,1:2|0:0,0:3:0:0:
378,147,146537,1,2,0:0:0:0:
274,301,146714,1,4,3:0:0:0:
274,301,146802,1,0,0:0:0:0:
274,301,146890,2,2,L|268:361,1,56.9999982604981,0|0,1:0|0:0,0:3:0:0:
95,204,147067,2,2,L|101:144,1,56.9999982604981,2|0,0:0|0:0,0:3:0:0:
83,298,147243,5,4,1:0:0:0:
219,180,147419,1,2,0:0:0:0:
113,22,147596,2,0,L|100:163,1,113.999996520996,2|0,1:2|0:0,0:0:0:0:
217,294,147949,2,0,L|276:301,1,56.9999982604981,2|0,0:0|0:0,0:0:0:0:
378,175,148125,2,0,L|319:168,1,56.9999982604981,4|0,3:0|0:0,0:0:0:0:
231,309,148302,2,0,L|290:316,1,56.9999982604981,0|0,1:0|0:0,0:0:0:0:
392,190,148478,2,2,L|333:183,1,56.9999982604981,2|0,0:0|0:0,0:3:0:0:
333,382,148655,6,2,B|424:379|440:303|440:303|403:298|378:321,1,190,4|0,1:0|0:0,0:3:0:0:
385,95,148920,6,2,B|294:98|277:173|277:173|315:179|339:155,1,190,4|0,1:0|0:0,0:3:0:0:
502,257,149184,6,2,B|481:168|404:166|404:166|406:204|434:223,1,190,4|0,1:0|0:0,0:3:0:0:
211,216,149449,6,2,B|231:304|308:306|308:306|306:268|278:249,1,190,4|0,1:0|0:0,0:3:0:0:
157,367,149714,6,0,P|123:379|88:380,1,71.2500027179719,2|0,1:2|0:0,0:0:0:0:
32,243,149890,2,0,P|67:243|100:256,1,71.2500027179719,4|0,3:0|0:0,0:0:0:0:
307,72,150067,6,0,L|63:110,1,237.5,4|0,1:0|0:0,0:0:0:0:
293,63,150596,2,0,L|49:101,1,237.5,4|0,1:0|0:0,0:0:0:0:
279,56,151125,6,2,L|35:94,1,237.5,4|0,1:2|0:0,0:3:0:0:
43,280,151478,6,0,P|66:340|130:362,1,113.999996520996,4|2,1:0|0:3,0:0:0:0:
140,366,151743,1,0,0:0:0:0:
171,363,151831,6,2,B|242:347|242:347|259:270,1,142.500005435944,0|0,1:0|0:0,0:3:0:0:
386,377,152184,1,2,0:0:0:0:
488,231,152361,1,4,3:0:0:0:
488,231,152449,1,0,0:0:0:0:
488,231,152537,2,2,L|476:296,1,56.9999982604981,0|0,1:0|0:0,0:1:0:0:
315,200,152714,2,2,L|303:135,1,56.9999982604981,2|0,0:0|0:0,0:3:0:0:
374,278,152890,5,4,1:0:0:0:
475,107,153067,1,2,0:0:0:0:
293,19,153243,2,2,L|318:158,1,113.999996520996,6|0,1:2|0:0,0:3:0:0:
265,285,153596,2,0,L|206:292,1,56.9999982604981,2|0,0:0|0:0,0:0:0:0:
104,166,153772,2,0,L|163:159,1,56.9999982604981,4|0,3:0|0:0,0:0:0:0:
251,300,153949,2,0,L|192:307,1,56.9999982604981,0|0,1:0|0:0,0:0:0:0:
90,181,154125,2,2,L|149:174,1,56.9999982604981,2|0,0:0|0:0,0:3:0:0:
28,253,154302,6,0,P|-3:206|17:122,1,113.999996520996,6|2,3:0|0:3,0:0:0:0:
13,126,154567,1,0,0:0:0:0:
30,106,154655,6,2,B|101:93|101:93|138:27,1,142.500005435944,6|0,1:2|0:0,0:1:0:0:
316,12,155008,5,2,0:0:0:0:
252,176,155184,1,4,3:0:0:0:
252,176,155272,1,0,0:0:0:0:
252,176,155361,2,2,L|244:116,1,56.9999982604981,0|0,1:0|0:0,0:3:0:0:
408,43,155537,2,2,L|400:99,1,56.9999982604981,2|0,0:0|0:0,0:3:0:0:
481,292,155714,6,2,P|438:274|377:298,1,113.999996520996,4|0,1:0|0:0,0:3:0:0:
365,323,155978,1,0,0:0:0:0:
353,347,156067,6,2,B|281:367|281:367|230:315,1,142.500005435944,6|0,1:2|0:0,0:3:0:0:
286,137,156419,6,0,L|280:206,1,56.9999982604981,2|0,0:0|0:0,0:0:0:0:
124,283,156595,2,0,L|130:214,1,56.9999982604981,4|0,3:0|0:0,0:0:0:0:
272,150,156772,2,0,L|266:219,1,56.9999982604981,2|0,1:2|0:0,0:0:0:0:
110,296,156948,2,2,L|116:227,1,56.9999982604981,2|0,0:0|0:0,0:3:0:0:
38,47,157125,6,0,P|74:37|146:89,1,113.999996520996,4|2,1:0|3:0,0:0:0:0:
151,98,157390,1,0,0:0:0:0:
165,121,157478,6,2,B|236:137|236:137|274:77,1,142.500005435944,6|0,1:2|0:0,0:3:0:0:
408,167,157831,1,2,0:0:0:0:
485,32,158008,1,4,3:0:0:0:
485,32,158096,1,0,0:0:0:0:
485,32,158184,2,2,L|406:10,1,56.9999982604981,0|0,1:0|0:0,0:3:0:0:
273,78,158361,2,2,L|351:55,1,56.9999982604981,2|0,0:0|0:0,0:3:0:0:
183,12,158537,5,4,1:0:0:0:
291,184,158714,1,2,0:0:0:0:
433,31,158890,2,2,L|415:155,1,113.999996520996,6|0,1:2|0:0,0:3:0:0:
295,294,159243,2,0,L|236:301,1,56.9999982604981,2|0,0:0|0:0,0:0:0:0:
134,175,159419,2,0,L|193:168,1,56.9999982604981,4|0,3:0|0:0,0:0:0:0:
281,309,159596,2,0,L|222:316,1,56.9999982604981,0|0,1:0|0:0,0:0:0:0:
120,190,159772,2,2,L|179:183,1,56.9999982604981,2|0,0:0|0:0,0:3:0:0:
179,382,159949,6,2,B|88:379|72:303|72:303|109:298|134:321,1,190,4|0,1:0|0:0,0:3:0:0:
127,95,160214,6,2,B|218:98|235:173|235:173|197:179|173:155,1,190,4|0,1:0|0:0,0:3:0:0:
10,257,160478,6,2,B|31:168|108:166|108:166|106:204|78:223,1,190,4|0,1:0|0:0,0:3:0:0:
301,216,160743,6,2,B|275:251|283:293|283:293|248:319|215:295|215:295|217:261|270:243,1,190,4|0,1:0|0:0,0:3:0:0:
388,145,161008,6,2,P|409:197|407:228,1,71.2500027179719,0|0,1:0|0:0,0:3:0:0:
459,359,161184,2,0,P|476:328|480:293,1,71.2500027179719,2|0,0:0|0:0,0:0:0:0:
509,115,161361,6,2,P|452:136|371:133,1,142.500005435944,4|0,1:0|0:0,0:3:0:0:
356,123,161625,1,0,0:0:0:0:
343,111,161714,1,0,1:0:0:0:
200,9,161890,2,2,P|195:103|230:191,1,190,6|0,1:2|0:0,0:3:0:0:
313,351,162243,1,4,3:0:0:0:
315,332,162331,1,0,0:0:0:0:
316,315,162419,2,2,B|225:380|136:335|136:335|183:336|224:298,1,285,6|0,1:2|0:0,0:3:0:0:
227,284,162772,6,0,P|149:257|65:283,1,142.500005435944,4|0,1:0|0:0,0:0:0:0:
17,337,163125,1,0,1:0:0:0:
65,174,163302,1,0,0:0:0:0:
60,156,163390,1,0,0:0:0:0:
51,140,163478,1,2,3:0:0:0:
205,59,163655,2,2,L|188:154,1,71.2500027179719,6|0,3:0|0:0,0:3:0:0:
76,4,163831,1,0,1:0:0:0:
188,148,164008,1,2,0:0:0:0:
440,27,164184,6,2,P|388:34|316:93,1,142.500005435944,4|0,1:0|0:0,0:3:0:0:
313,105,164449,1,0,0:0:0:0:
309,121,164537,1,0,1:0:0:0:
482,304,164714,2,2,P|505:229|478:112,1,190,6|0,1:2|0:0,0:3:0:0:
283,250,165067,1,4,3:0:0:0:
284,267,165155,1,0,0:0:0:0:
289,284,165243,2,2,B|312:343|369:367|445:348|445:348|498:294|439:355|385:327,1,285,6|0,1:2|0:0,0:3:0:0:
385,331,165596,6,0,P|392:282|357:195,1,142.500005435944,4|0,1:0|0:0,0:0:0:0:
179,226,165949,2,0,P|172:275|207:362,1,142.500005435944,0|0,1:0|0:0,0:0:0:0:
217,368,166214,1,0,0:0:0:0:
230,375,166302,1,2,3:0:0:0:
69,172,166478,1,4,3:0:0:0:
58,337,166655,1,2,1:2:0:0:
157,134,166831,1,0,0:0:0:0:
153,113,166919,1,0,0:0:0:0:
148,90,167008,6,0,P|90:55|0:72,1,142.500005435944,4|0,1:0|0:0,0:0:0:0:
14,80,167272,1,0,0:0:0:0:
8,98,167361,1,0,1:0:0:0:
228,9,167537,2,2,P|254:107|245:197,1,190,6|0,1:2|0:0,0:3:0:0:
215,364,167890,1,4,3:0:0:0:
207,345,167978,1,0,0:0:0:0:
207,320,168067,1,0,1:0:0:0:
456,367,168243,6,2,P|387:327|321:329,1,142.500005435944,6|4,1:2|3:0,0:3:0:0:
479,362,168596,2,2,P|397:314|304:317,1,190,4|0,0:0|1:0,0:3:0:0:
176,213,168949,2,0,P|265:213|354:161,1,161.500003080368,2|2,0:0|3:0,0:0:0:0:
481,69,169302,1,4,3:0:0:0:
477,93,169390,1,0,0:0:0:0:
474,115,169478,1,0,1:0:0:0:
373,48,169655,1,0,0:0:0:0:
501,240,169831,6,2,P|426:247|357:308,1,161.500003080368,4|0,1:0|0:0,0:3:0:0:
357,320,170096,1,0,0:0:0:0:
355,340,170184,1,0,1:0:0:0:
193,352,170361,2,2,P|213:259|271:176,1,190,6|0,1:2|0:0,0:3:0:0:
459,63,170714,1,4,3:0:0:0:
282,175,170890,1,6,1:2:0:0:
200,39,171067,1,2,0:0:0:0:
182,47,171155,1,0,0:0:0:0:
170,61,171243,5,0,1:0:0:0:
184,242,171419,1,4,3:0:0:0:
89,43,171596,1,0,1:0:0:0:
102,285,171772,1,4,3:0:0:0:
2,24,171949,1,0,1:0:0:0:
22,321,172125,1,4,3:0:0:0:
184,146,172302,6,2,B|147:196|47:203|4:153|4:153|39:191|72:178|42:106,1,285,6|0,1:2|0:0,0:0:0:0:
86,177,172655,6,2,P|81:247|104:314,1,142.500005435944,4|0,1:0|0:0,0:3:0:0:
114,328,172919,1,0,0:0:0:0:
126,338,173008,1,0,1:0:0:0:
285,114,173184,2,2,P|338:190|336:283,1,190,6|0,1:2|0:0,0:3:0:0:
167,235,173537,1,4,3:0:0:0:
176,254,173625,1,0,0:0:0:0:
188,271,173714,2,2,B|279:256|352:349|352:349|307:332|262:358,1,285,6|0,1:2|0:0,0:3:0:0:
253,376,174067,6,0,P|323:382|397:346,1,142.500005435944,4|0,1:0|0:0,0:0:0:0:
432,253,174419,1,0,1:0:0:0:
512,372,174596,1,2,0:0:0:0:
503,355,174684,1,0,0:0:0:0:
489,340,174772,1,2,3:0:0:0:
512,110,174949,2,2,L|495:205,1,71.2500027179719,4|0,3:0|0:0,0:3:0:0:
399,11,175125,1,0,1:0:0:0:
495,196,175302,1,2,0:0:0:0:
292,79,175478,6,2,P|344:86|399:158,1,142.500005435944,4|0,1:0|0:0,0:3:0:0:
394,170,175743,1,0,0:0:0:0:
390,186,175831,1,0,1:0:0:0:
283,374,176008,2,2,P|306:299|279:182,1,190,6|0,1:2|0:0,0:3:0:0:
221,7,176361,1,4,3:0:0:0:
204,8,176449,1,0,0:0:0:0:
187,13,176537,2,2,B|128:36|104:93|123:169|123:169|177:222|116:163|144:109,1,285,6|0,1:2|0:0,0:3:0:0:
151,137,176890,6,0,P|158:186|123:273,1,142.500005435944,4|0,1:0|0:0,0:0:0:0:
16,165,177243,2,0,P|9:106|34:24,1,142.500005435944,0|0,1:0|0:0,0:0:0:0:
44,12,177508,1,0,0:0:0:0:
61,2,177596,1,2,3:0:0:0:
113,282,177772,1,4,3:0:0:0:
24,180,177949,1,0,1:0:0:0:
12,351,178125,1,2,0:0:0:0:
21,335,178213,1,0,0:0:0:0:
31,321,178302,6,2,P|105:312|169:352,1,142.500005435944,4|0,1:0|0:0,0:3:0:0:
167,362,178566,1,0,0:0:0:0:
171,380,178655,1,0,1:0:0:0:
289,101,178831,2,2,P|253:197|262:287,1,190,6|0,1:2|0:0,0:3:0:0:
380,375,179184,1,4,3:0:0:0:
372,356,179272,1,0,0:0:0:0:
372,331,179361,1,0,1:0:0:0:
490,151,179537,6,2,P|421:191|355:189,1,142.500005435944,6|4,1:2|3:0,0:2:0:0:
512,164,179890,2,2,P|430:212|337:209,1,190,4|0,0:0|1:0,0:3:0:0:
199,80,180243,2,2,P|288:80|354:26,1,161.500003080368,2|0,0:0|0:0,0:3:0:0:
97,89,180596,1,4,3:0:0:0:
92,113,180684,1,0,0:0:0:0:
96,136,180772,1,0,1:0:0:0:
47,8,180949,1,2,0:0:0:0:
3,169,181125,6,2,P|78:176|147:237,1,161.500003080368,4|0,1:0|0:0,0:3:0:0:
147,249,181390,1,0,0:0:0:0:
149,269,181478,1,0,1:0:0:0:
379,302,181655,2,2,P|287:312|204:370,1,190,6|0,1:2|0:0,0:3:0:0:
51,258,182008,1,4,3:0:0:0:
95,359,182184,1,4,1:2:0:0:
304,217,182361,1,2,0:0:0:0:
267,223,182449,1,0,0:0:0:0:
236,243,182537,5,4,1:0:0:0:
337,223,182713,1,4,3:0:0:0:
263,138,182890,1,4,3:0:0:0:
158,178,183066,1,2,1:2:0:0:
89,68,183243,1,2,1:3:0:0:
255,6,183419,1,4,3:0:0:0:
401,96,183596,2,2,B|468:117|524:57|517:29|517:29|492:41|525:120|511:157,1,285,6|0,1:2|0:0,0:3:0:0:
497,173,183949,5,4,1:0:0:0:
