osu file format v14

[General]
AudioFilename: audio.mp3
AudioLeadIn: 0
PreviewTime: -1
Countdown: 0
SampleSet: Soft
StackLeniency: 0.7
Mode: 0
LetterboxInBreaks: 0
WidescreenStoryboard: 0

[Editor]
DistanceSpacing: 0.2
BeatDivisor: 4
GridSize: 32
TimelineZoom: 1.6

[Metadata]
Title:Big Enough
TitleUnicode:Big Enough
Artist:Kirin J Callinan
ArtistUnicode:Kirin J Callinan
Creator:DominicsHase
Version:TheFirstPersonWhoPassesThisMapNomodGets1MonthOsuSupp
Source:
Tags:Big Enough, AHHHH, Meme, Pass This
BeatmapID:1817463
BeatmapSetID:869648

[Difficulty]
HPDrainRate:5.5
CircleSize:4
OverallDifficulty:5.5
ApproachRate:9.8
SliderMultiplier:2.1
SliderTickRate:1

[Events]
//Background and Video events
0,0,"AHHHHH.jpg",0,0
//Break Periods
//Storyboard Layer 0 (Background)
//Storyboard Layer 1 (Fail)
//Storyboard Layer 2 (Pass)
//Storyboard Layer 3 (Foreground)
//Storyboard Sound Samples

[TimingPoints]
5441.15799007169,480,4,2,0,100,1,0
13121,240,4,2,0,100,1,0
37841,-222.222222222221,4,2,0,100,0,0

[HitObjects]
321,50,5441,6,0,B|371:77|371:77|387:171,1,105
196,288,5921,2,0,B|146:261|146:261|130:167,1,105
278,237,6401,1,0,0:0:0:0:
149,103,6641,1,0,0:0:0:0:
309,122,6881,1,0,0:0:0:0:
146,242,7121,1,0,0:0:0:0:
144,184,7241,1,0,0:0:0:0:
144,127,7361,1,0,0:0:0:0:
358,128,7601,1,0,0:0:0:0:
144,184,7841,6,0,L|22:183,1,105
356,243,8321,2,0,L|471:243,1,105
184,141,8801,2,0,L|184:27,1,105
314,293,9281,5,0,0:0:0:0:
313,96,9521,1,0,0:0:0:0:
170,323,9761,1,0,0:0:0:0:
151,47,10001,1,0,0:0:0:0:
394,84,10241,5,0,0:0:0:0:
71,120,10481,1,0,0:0:0:0:
441,229,10721,1,0,0:0:0:0:
62,313,10961,1,0,0:0:0:0:
196,51,11201,5,0,0:0:0:0:
252,65,11321,1,0,0:0:0:0:
288,110,11441,1,0,0:0:0:0:
267,164,11561,1,0,0:0:0:0:
213,180,11681,1,0,0:0:0:0:
172,220,11801,1,0,0:0:0:0:
169,276,11921,1,0,0:0:0:0:
213,312,12041,1,0,0:0:0:0:
267,293,12161,1,0,0:0:0:0:
274,239,12281,1,0,0:0:0:0:
243,194,12401,1,0,0:0:0:0:
188,188,12521,1,0,0:0:0:0:
135,209,12641,1,0,0:0:0:0:
81,189,12761,1,0,0:0:0:0:
60,137,12881,1,0,0:0:0:0:
170,54,13121,5,0,0:0:0:0:
180,68,13181,1,0,0:0:0:0:
190,79,13241,1,0,0:0:0:0:
200,90,13301,1,0,0:0:0:0:
210,101,13361,1,0,0:0:0:0:
220,113,13421,1,0,0:0:0:0:
230,124,13481,1,0,0:0:0:0:
241,135,13541,1,0,0:0:0:0:
251,147,13601,1,0,0:0:0:0:
261,158,13661,1,0,0:0:0:0:
271,169,13721,1,0,0:0:0:0:
281,181,13781,1,0,0:0:0:0:
292,192,13841,1,0,0:0:0:0:
302,203,13901,1,0,0:0:0:0:
312,214,13961,1,0,0:0:0:0:
322,226,14021,1,0,0:0:0:0:
330,238,14081,1,0,0:0:0:0:
307,269,14141,1,0,0:0:0:0:
274,290,14201,1,0,0:0:0:0:
237,297,14261,1,0,0:0:0:0:
199,289,14321,1,0,0:0:0:0:
166,269,14381,1,0,0:0:0:0:
144,237,14441,1,0,0:0:0:0:
141,199,14501,1,0,0:0:0:0:
155,164,14561,1,0,0:0:0:0:
300,101,14681,5,0,0:0:0:0:
243,244,14801,1,0,0:0:0:0:
164,120,14921,1,0,0:0:0:0:
348,150,15041,1,0,0:0:0:0:
131,217,15161,1,0,0:0:0:0:
325,268,15281,1,0,0:0:0:0:
231,83,15401,5,0,0:0:0:0:
218,278,15521,1,0,0:0:0:0:
309,81,15641,1,0,0:0:0:0:
278,284,15761,1,0,0:0:0:0:
147,137,15881,1,0,0:0:0:0:
359,163,16001,6,0,B|407:181|407:181|448:242,1,105
219,143,16241,2,0,B|167:123|167:123|132:61,1,105
377,156,16481,1,0,0:0:0:0:
226,112,16601,1,0,0:0:0:0:
362,195,16721,1,0,0:0:0:0:
240,80,16841,1,0,0:0:0:0:
381,124,16961,5,0,0:0:0:0:
375,158,17021,1,0,0:0:0:0:
363,191,17081,1,0,0:0:0:0:
346,222,17141,1,0,0:0:0:0:
323,249,17201,1,0,0:0:0:0:
296,272,17261,1,0,0:0:0:0:
266,289,17321,1,0,0:0:0:0:
233,301,17381,1,0,0:0:0:0:
196,307,17441,2,0,L|196:226,1,52.5
141,308,17561,2,0,L|142:229,1,52.5
89,305,17681,2,0,L|89:236,1,52.5
34,297,17801,2,0,L|36:219,1,52.5
36,201,17921,5,0,0:0:0:0:
68,175,17981,1,0,0:0:0:0:
109,166,18041,1,0,0:0:0:0:
149,176,18101,1,0,0:0:0:0:
181,203,18161,1,0,0:0:0:0:
199,240,18221,1,0,0:0:0:0:
197,282,18281,1,0,0:0:0:0:
178,319,18341,1,0,0:0:0:0:
144,344,18401,1,0,0:0:0:0:
103,351,18461,1,0,0:0:0:0:
63,340,18521,1,0,0:0:0:0:
32,312,18581,1,0,0:0:0:0:
28,278,18641,1,0,0:0:0:0:
197,110,18761,1,0,0:0:0:0:
340,292,18881,5,0,0:0:0:0:
145,161,19001,1,0,0:0:0:0:
384,176,19121,1,0,0:0:0:0:
189,239,19241,1,0,0:0:0:0:
352,125,19361,6,0,B|382:85|382:85|440:69,1,105
270,236,19601,2,0,B|237:283|237:283|172:300,1,105
300,116,19841,6,0,L|326:6,1,105
274,249,20081,2,0,L|251:358,1,105
226,122,20321,5,0,0:0:0:0:
125,71,20441,1,0,0:0:0:0:
322,236,20561,1,0,0:0:0:0:
427,282,20681,1,0,0:0:0:0:
228,56,20801,5,0,0:0:0:0:
212,56,20861,1,0,0:0:0:0:
197,56,20921,1,0,0:0:0:0:
182,56,20981,1,0,0:0:0:0:
167,56,21041,1,0,0:0:0:0:
151,56,21101,1,0,0:0:0:0:
136,56,21161,1,0,0:0:0:0:
121,56,21221,1,0,0:0:0:0:
106,56,21281,1,0,0:0:0:0:
90,56,21341,1,0,0:0:0:0:
73,54,21401,1,0,0:0:0:0:
52,101,21461,1,0,0:0:0:0:
55,153,21521,1,0,0:0:0:0:
81,199,21581,1,0,0:0:0:0:
123,228,21641,1,0,0:0:0:0:
175,236,21701,1,0,0:0:0:0:
224,220,21761,1,0,0:0:0:0:
262,184,21821,1,0,0:0:0:0:
280,135,21881,1,0,0:0:0:0:
322,101,21941,1,0,0:0:0:0:
377,95,22001,1,0,0:0:0:0:
426,118,22061,1,0,0:0:0:0:
456,163,22121,1,0,0:0:0:0:
458,218,22181,1,0,0:0:0:0:
432,265,22241,2,0,L|382:338,1,52.5
381,228,22361,2,0,L|431:155,1,52.5
331,204,22481,2,0,L|280:276,1,52.5
279,166,22601,2,0,L|329:93,1,52.5
231,139,22721,5,0,0:0:0:0:
419,100,22841,1,0,0:0:0:0:
104,232,22961,1,0,0:0:0:0:
332,134,23081,1,0,0:0:0:0:
168,99,23201,1,0,0:0:0:0:
215,248,23321,1,0,0:0:0:0:
300,67,23441,2,0,L|195:110,1,105
278,267,23681,6,0,L|331:170,1,105
110,154,23921,2,0,L|190:238,1,105
303,87,24161,1,0,0:0:0:0:
149,79,24281,1,0,0:0:0:0:
226,195,24401,1,0,0:0:0:0:
263,55,24521,1,0,0:0:0:0:
78,181,24641,5,0,0:0:0:0:
86,193,24701,1,0,0:0:0:0:
95,206,24761,1,0,0:0:0:0:
104,218,24821,1,0,0:0:0:0:
112,231,24881,1,0,0:0:0:0:
121,243,24941,1,0,0:0:0:0:
130,256,25001,1,0,0:0:0:0:
138,268,25061,1,0,0:0:0:0:
147,281,25121,1,0,0:0:0:0:
156,293,25181,1,0,0:0:0:0:
166,305,25241,1,0,0:0:0:0:
183,311,25301,1,0,0:0:0:0:
222,301,25361,1,0,0:0:0:0:
241,258,25421,1,0,0:0:0:0:
274,222,25481,1,0,0:0:0:0:
320,237,25541,1,0,0:0:0:0:
316,288,25601,1,0,0:0:0:0:
261,291,25661,1,0,0:0:0:0:
232,254,25721,1,0,0:0:0:0:
230,204,25781,1,0,0:0:0:0:
265,166,25841,1,0,0:0:0:0:
320,167,25901,1,0,0:0:0:0:
364,204,25961,1,0,0:0:0:0:
380,260,26021,1,0,0:0:0:0:
360,315,26081,1,0,0:0:0:0:
308,344,26141,1,0,0:0:0:0:
250,351,26201,1,0,0:0:0:0:
198,329,26261,1,0,0:0:0:0:
184,283,26321,1,0,0:0:0:0:
189,228,26381,1,0,0:0:0:0:
221,182,26441,1,0,0:0:0:0:
271,155,26501,1,0,0:0:0:0:
291,102,26561,1,0,0:0:0:0:
251,64,26621,1,0,0:0:0:0:
192,68,26681,1,0,0:0:0:0:
158,117,26741,1,0,0:0:0:0:
187,166,26801,1,0,0:0:0:0:
244,176,26861,1,0,0:0:0:0:
293,142,26921,1,0,0:0:0:0:
331,103,26981,1,0,0:0:0:0:
361,59,27041,1,0,0:0:0:0:
413,44,27101,1,0,0:0:0:0:
454,83,27161,1,0,0:0:0:0:
446,136,27221,1,0,0:0:0:0:
407,179,27281,1,0,0:0:0:0:
350,172,27341,1,0,0:0:0:0:
314,128,27401,1,0,0:0:0:0:
267,98,27461,1,0,0:0:0:0:
212,110,27521,1,0,0:0:0:0:
199,208,27641,1,0,0:0:0:0:
132,327,27761,1,0,0:0:0:0:
70,211,27881,1,0,0:0:0:0:
131,90,28001,1,0,0:0:0:0:
271,286,28121,1,0,0:0:0:0:
266,66,28241,1,0,0:0:0:0:
378,308,28361,1,0,0:0:0:0:
381,44,28481,5,0,0:0:0:0:
376,47,28541,1,0,0:0:0:0:
372,50,28601,1,0,0:0:0:0:
368,53,28661,1,0,0:0:0:0:
364,56,28721,1,0,0:0:0:0:
360,60,28781,1,0,0:0:0:0:
356,63,28841,1,0,0:0:0:0:
351,66,28901,1,0,0:0:0:0:
347,69,28961,1,0,0:0:0:0:
343,72,29021,1,0,0:0:0:0:
339,76,29081,1,0,0:0:0:0:
335,79,29141,1,0,0:0:0:0:
331,82,29201,1,0,0:0:0:0:
326,85,29261,1,0,0:0:0:0:
322,88,29321,1,0,0:0:0:0:
318,92,29381,1,0,0:0:0:0:
314,95,29441,1,0,0:0:0:0:
310,98,29501,1,0,0:0:0:0:
306,101,29561,1,0,0:0:0:0:
302,104,29621,1,0,0:0:0:0:
296,108,29681,1,0,0:0:0:0:
258,88,29741,1,0,0:0:0:0:
217,82,29801,1,0,0:0:0:0:
176,89,29861,1,0,0:0:0:0:
139,108,29921,1,0,0:0:0:0:
110,138,29981,1,0,0:0:0:0:
92,176,30041,1,0,0:0:0:0:
86,218,30101,1,0,0:0:0:0:
94,259,30161,1,0,0:0:0:0:
115,295,30221,1,0,0:0:0:0:
146,323,30281,1,0,0:0:0:0:
184,340,30341,1,0,0:0:0:0:
226,345,30401,1,0,0:0:0:0:
266,335,30461,1,0,0:0:0:0:
302,314,30521,1,0,0:0:0:0:
329,282,30581,1,0,0:0:0:0:
345,244,30641,1,0,0:0:0:0:
295,220,30701,5,0,0:0:0:0:
335,187,30761,1,0,0:0:0:0:
386,186,30821,1,0,0:0:0:0:
428,216,30881,1,0,0:0:0:0:
443,265,30941,1,0,0:0:0:0:
424,313,31001,1,0,0:0:0:0:
380,340,31061,1,0,0:0:0:0:
329,335,31121,1,0,0:0:0:0:
294,290,31181,1,0,0:0:0:0:
295,238,31241,1,0,0:0:0:0:
296,186,31301,1,0,0:0:0:0:
297,134,31361,1,0,0:0:0:0:
298,82,31421,1,0,0:0:0:0:
241,68,31481,1,0,0:0:0:0:
185,84,31541,1,0,0:0:0:0:
145,126,31601,1,0,0:0:0:0:
130,182,31661,1,0,0:0:0:0:
145,238,31721,1,0,0:0:0:0:
185,280,31781,1,0,0:0:0:0:
241,295,31841,1,0,0:0:0:0:
295,279,31901,5,0,0:0:0:0:
335,246,31961,1,0,0:0:0:0:
348,197,32021,1,0,0:0:0:0:
329,149,32081,1,0,0:0:0:0:
285,122,32141,1,0,0:0:0:0:
234,127,32201,1,0,0:0:0:0:
196,161,32261,1,0,0:0:0:0:
185,212,32321,1,0,0:0:0:0:
208,264,32381,1,0,0:0:0:0:
161,287,32441,1,0,0:0:0:0:
109,285,32501,1,0,0:0:0:0:
64,258,32561,1,0,0:0:0:0:
38,213,32621,1,0,0:0:0:0:
36,161,32681,1,0,0:0:0:0:
60,115,32741,1,0,0:0:0:0:
102,85,32801,1,0,0:0:0:0:
157,79,32861,5,0,0:0:0:0:
171,129,32921,1,0,0:0:0:0:
203,170,32981,1,0,0:0:0:0:
248,197,33041,1,0,0:0:0:0:
300,205,33101,1,0,0:0:0:0:
351,194,33161,1,0,0:0:0:0:
394,166,33221,1,0,0:0:0:0:
418,114,33281,1,0,0:0:0:0:
373,87,33341,1,0,0:0:0:0:
323,69,33401,1,0,0:0:0:0:
271,63,33461,1,0,0:0:0:0:
219,67,33521,1,0,0:0:0:0:
169,81,33581,1,0,0:0:0:0:
122,106,33641,1,0,0:0:0:0:
79,144,33701,1,0,0:0:0:0:
66,197,33761,1,0,0:0:0:0:
143,288,34001,1,0,0:0:0:0:
245,205,34241,1,0,0:0:0:0:
346,293,34481,1,0,0:0:0:0:
346,36,34721,5,0,0:0:0:0:
246,120,34961,1,0,0:0:0:0:
191,81,35081,1,0,0:0:0:0:
146,38,35201,1,0,0:0:0:0:
440,59,35441,1,0,0:0:0:0:
241,150,35681,2,0,L|27:231,1,210
240,213,36161,6,0,L|452:311,1,210
302,47,36641,1,0,0:0:0:0:
112,207,36881,1,0,0:0:0:0:
388,208,37121,1,0,0:0:0:0:
179,50,37361,1,0,0:0:0:0:
258,317,37601,1,0,0:0:0:0:
252,29,37841,6,0,L|250:128,1,94.499997116089
258,317,38321,1,0,0:0:0:0:
257,63,38561,1,0,0:0:0:0:
88,196,38801,1,0,0:0:0:0:
421,194,39041,1,0,0:0:0:0:
72,126,39281,1,0,0:0:0:0:
448,129,39521,1,0,0:0:0:0:
254,332,39761,1,0,0:0:0:0:
256,192,40001,12,0,41921,0:0:0:0:
