osu file format v14

[General]
AudioFilename: audio.mp3
AudioLeadIn: 0
PreviewTime: 65380
Countdown: 0
SampleSet: None
StackLeniency: 0.3
Mode: 0
LetterboxInBreaks: 0
WidescreenStoryboard: 1

[Editor]
Bookmarks: 22522,33494,44465
DistanceSpacing: 1.7
BeatDivisor: 4
GridSize: 4
TimelineZoom: 2.4

[Metadata]
Title:Torchlight~Yume no akari~
TitleUnicode:Torchlight~夢の灯り~
Artist:KiraraQuintet
ArtistUnicode:KiraraQuintet
Creator:Meyrink
Version:Nitrous' Insane
Source:きららファンタジア
Tags:Manga Time Kirara Meets Fantasy RPG Fantasia Dream light Aniplex ドリコム Drecom 園田智也 Kentaro Sonoda 楠木ともり Tomori Kusunoki ランプ Lamp Ranpu 高野麻里佳 Marika Kōno クレア Claire 和氣あず未 Azumi Waki ポルカ Polka Poruka 松井恵理子 Eriko Matsui コルク Koruku Cork 桑原由気 Yūki Kuwahara
BeatmapID:1526299
BeatmapSetID:707658

[Difficulty]
HPDrainRate:5
CircleSize:4
OverallDifficulty:8.2
ApproachRate:8.7
SliderMultiplier:1.65
SliderTickRate:1

[Events]
//Background and Video events
0,0,"Wallpaper.jpg",0,0
//Break Periods
//Storyboard Layer 0 (Background)
//Storyboard Layer 1 (Fail)
//Storyboard Layer 2 (Pass)
//Storyboard Layer 3 (Foreground)
//Storyboard Sound Samples

[TimingPoints]
580,342.857142857143,4,2,1,60,1,0
15494,-166.666666666667,4,2,1,60,0,0
16008,-100,4,2,1,60,0,0
30580,-133.333333333333,4,2,1,60,0,0
31265,-117.647058823529,4,2,1,60,0,0
31951,-90.9090909090909,4,2,1,60,0,0
32637,-100,4,2,1,60,0,0
66237,-90.9090909090909,4,2,1,60,0,1
76351,-90.9090909090909,4,2,1,60,0,0
77208,-90.9090909090909,4,2,1,60,0,1
88351,-100,4,2,1,60,0,0

[Colours]
Combo1 : 143,248,149
Combo2 : 255,177,100
Combo3 : 106,173,255
Combo4 : 11,255,224
Combo5 : 253,176,217
Combo6 : 207,156,235

[HitObjects]
209,233,408,5,0,0:0:0:0:
209,233,494,1,0,0:0:0:0:
209,233,580,2,0,P|134:226|87:155,1,165
186,77,1094,1,0,0:0:0:0:
183,109,1179,1,0,0:0:0:0:
181,142,1265,1,0,0:0:0:0:
92,220,1437,1,0,0:0:0:0:
90,187,1523,1,0,0:0:0:0:
87,155,1608,1,0,0:0:0:0:
209,233,1780,6,0,B|279:221|279:221|314:230|314:230|382:217,1,165
421,290,2208,1,0,0:0:0:0:
421,290,2294,2,0,L|507:272,1,82.5
501,273,2551,1,0,0:0:0:0:
501,273,2637,1,0,0:0:0:0:
384,155,2808,1,0,0:0:0:0:
377,187,2893,1,0,0:0:0:0:
370,219,2979,1,0,0:0:0:0:
486,143,3151,1,0,0:0:0:0:
486,143,3237,1,0,0:0:0:0:
486,143,3322,6,0,P|464:84|364:51,1,165
400,206,3837,1,0,0:0:0:0:
397,173,3922,1,0,0:0:0:0:
395,140,4008,1,0,0:0:0:0:
272,198,4180,1,0,0:0:0:0:
270,231,4266,1,0,0:0:0:0:
267,264,4351,1,0,0:0:0:0:
306,118,4522,6,0,P|232:108|202:28,1,165
333,38,5037,1,0,0:0:0:0:
153,154,5208,1,0,0:0:0:0:
368,166,5380,1,0,0:0:0:0:
201,31,5551,1,0,0:0:0:0:
256,237,5722,1,0,0:0:0:0:
333,38,5894,1,0,0:0:0:0:
153,154,6065,6,0,B|160:270|160:270|114:233,1,165
39,149,6580,2,0,L|32:209,1,41.25
105,90,6751,2,0,P|166:77|232:151,1,165
160,267,7265,1,0,0:0:0:0:
293,345,7437,6,0,B|359:332|359:332|387:344|387:344|456:329,1,165
404,215,7951,2,0,L|399:270,1,41.25
485,173,8122,2,0,P|408:127|338:148,1,165
254,239,8637,1,0,0:0:0:0:
128,130,8808,6,0,B|85:112|85:112|202:93,1,165
340,146,9322,2,0,L|285:142,1,41.25
411,34,9494,2,0,B|398:93|398:93|419:131|419:131|410:199,1,165
286,313,10008,1,0,0:0:0:0:
286,313,10094,1,0,0:0:0:0:
286,313,10180,6,0,B|242:293|202:313|202:313|166:333|118:313,1,165
121,111,10694,1,0,0:0:0:0:
121,111,10780,1,0,0:0:0:0:
121,111,10865,2,0,P|108:198|174:251,1,165
344,172,11380,1,0,0:0:0:0:
344,172,11465,1,0,0:0:0:0:
344,172,11551,6,0,B|218:156|218:156|171:170,1,165
87,266,12065,1,0,0:0:0:0:
176,358,12237,2,0,P|184:314|173:273,1,82.5
53,177,12580,1,0,0:0:0:0:
55,148,12665,1,0,0:0:0:0:
57,119,12751,1,0,0:0:0:0:
60,90,12837,1,0,0:0:0:0:
62,61,12922,6,0,B|180:52|180:52|140:88,1,165
60,184,13437,1,0,0:0:0:0:
60,184,13522,1,0,0:0:0:0:
60,184,13608,1,0,0:0:0:0:
180,52,13780,1,0,0:0:0:0:
62,61,13951,1,0,0:0:0:0:
189,215,14122,1,0,0:0:0:0:
189,215,14208,1,0,0:0:0:0:
189,215,14294,6,0,B|317:201|317:201|280:182,1,165
120,166,14808,1,0,0:0:0:0:
39,260,14980,2,0,L|43:342,2,82.5
217,120,15494,2,0,P|269:149|285:186,1,98.9999969787599
172,32,16008,2,0,B|220:16|260:32|260:32|296:48|340:32,1,165
210,196,16522,1,0,0:0:0:0:
346,109,16694,1,0,0:0:0:0:
139,112,16865,1,0,0:0:0:0:
139,112,16951,1,0,0:0:0:0:
139,112,17037,6,0,L|42:107,1,82.5
205,179,17380,2,0,L|302:174,1,82.5
457,167,17722,1,0,0:0:0:0:
457,167,17894,1,0,0:0:0:0:
381,313,18065,1,0,0:0:0:0:
287,174,18237,6,0,B|243:154|203:174|203:174|159:194|119:174,1,165
246,240,18751,2,0,P|285:251|329:241,1,82.5
168,108,19094,2,0,P|129:97|85:109,1,82.5
137,256,19437,1,0,0:0:0:0:
294,145,19608,6,0,B|302:272|302:272|342:221,1,165
365,117,20122,2,0,L|358:29,1,82.5
217,114,20465,2,0,L|210:196,1,82.5
323,262,20808,1,0,0:0:0:0:
272,58,20980,6,0,P|163:56|140:98,1,165
245,186,21494,1,0,0:0:0:0:
425,192,21665,2,0,B|313:163|313:163|253:180,1,165
166,245,22180,2,0,L|174:293,1,41.25
69,227,22351,2,0,L|75:186,1,41.25
159,89,22522,6,0,B|230:79|230:79|261:90|261:90|325:81,1,165
460,64,23037,1,0,0:0:0:0:
391,208,23208,2,0,L|395:109,1,82.5
488,169,23551,1,0,0:0:0:0:
318,235,23722,6,0,B|194:226|194:226|226:263,1,165
400,290,24237,2,0,L|390:199,1,82.5
275,107,24580,1,0,0:0:0:0:
196,227,24751,1,0,0:0:0:0:
196,227,24837,1,0,0:0:0:0:
196,227,24922,1,0,0:0:0:0:
355,123,25094,1,0,0:0:0:0:
355,123,25180,1,0,0:0:0:0:
355,123,25265,6,0,P|294:29|243:31,1,165
234,166,25780,1,0,0:0:0:0:
337,223,25951,2,0,L|426:216,1,82.5
287,318,26294,6,0,B|242:290|204:304|204:304|161:318|117:291,1,165
26,224,26808,1,0,0:0:0:0:
172,142,26980,2,0,L|165:230,1,82.5
231,372,27322,2,0,L|224:289,1,82.5
293,149,27665,1,0,0:0:0:0:
354,300,27837,6,0,B|226:290|226:290|265:269,1,165
445,201,28351,2,0,L|355:193,1,82.5
188,141,28694,2,0,L|275:135,1,82.5
375,75,29037,1,0,0:0:0:0:
281,242,29208,6,0,P|209:220|188:137,1,165
362,193,29722,2,0,B|374:231|374:231|370:279,1,82.5
222,339,30065,1,0,0:0:0:0:
264,164,30237,1,0,0:0:0:0:
320,336,30408,1,0,0:0:0:0:
172,231,30580,6,0,B|165:184|165:184|146:164|146:164|143:108,1,123.750004720688
258,21,31094,1,0,0:0:0:0:
321,150,31265,2,0,P|235:136|222:73,1,140.250002675056
333,37,31780,1,0,0:0:0:0:
431,235,31951,6,0,B|439:99|439:99|404:142,1,181.500005538941
309,259,32465,1,0,0:0:0:0:
174,187,32637,2,0,L|261:181,1,82.5
111,253,32980,2,0,L|24:247,1,82.5
77,92,33322,1,0,0:0:0:0:
77,92,33408,1,0,0:0:0:0:
77,92,33494,6,0,P|153:110|168:200,1,165
109,321,34008,1,0,0:0:0:0:
15,172,34180,2,0,L|117:167,1,82.5
263,269,34522,1,0,0:0:0:0:
109,321,34694,6,0,B|-9:307|-9:307|39:284,1,165
173,267,35208,2,0,P|189:308|184:357,1,82.5
89,202,35551,1,0,0:0:0:0:
186,124,35722,1,0,0:0:0:0:
186,124,35808,1,0,0:0:0:0:
186,124,35894,2,0,B|226:116|226:116|268:124,1,82.5
311,316,36237,6,0,P|241:279|230:192,1,165
381,232,36751,2,0,P|327:243|283:202,1,82.5
413,160,37094,1,0,0:0:0:0:
373,361,37265,6,0,B|305:353|305:353|273:361|273:361|209:353,1,165
87,267,37780,1,0,0:0:0:0:
87,267,37951,2,0,L|180:279,1,82.5
350,271,38294,1,0,0:0:0:0:
213,196,38465,1,0,0:0:0:0:
209,353,38637,1,0,0:0:0:0:
310,152,38808,6,0,P|250:95|157:102,1,165
218,278,39322,2,0,L|212:189,1,82.5
72,114,39665,2,0,L|66:196,1,82.5
132,305,40008,1,0,0:0:0:0:
171,95,40180,6,0,B|215:79|251:95|251:95|287:111|335:95,1,165
497,37,40694,2,0,L|409:31,1,82.5
312,192,41037,1,0,0:0:0:0:
447,121,41208,1,0,0:0:0:0:
288,23,41380,1,0,0:0:0:0:
300,286,41551,6,0,P|367:268|405:181,1,165
266,106,42065,2,0,L|358:113,1,82.5
206,179,42408,2,0,L|114:186,1,82.5
180,79,42751,1,0,0:0:0:0:
313,209,42922,6,0,B|319:274|319:274|343:296|343:296|350:368,1,165
403,222,43437,1,0,0:0:0:0:
338,124,43608,2,0,L|243:117,1,82.5
125,178,43951,1,0,0:0:0:0:
125,178,44037,1,0,0:0:0:0:
125,178,44122,2,0,L|136:221,1,41.25
226,284,44294,2,0,L|232:226,1,41.25
133,88,44465,6,0,P|53:121|42:203,1,165
59,318,44980,1,0,0:0:0:0:
59,318,45151,2,0,L|156:310,1,82.5
207,184,45494,2,0,L|110:176,1,82.5
299,220,45837,6,0,P|300:140|234:84,2,165
230,349,46694,1,0,0:0:0:0:
89,265,46865,2,0,L|175:258,1,82.5
240,85,47208,6,0,B|170:72|170:72|141:81|141:81|75:68,1,165
237,3,47722,2,0,P|313:52|301:140,1,165
143,181,48237,2,0,L|233:178,1,82.5
110,272,48580,6,0,P|46:197|58:133,2,165
225,178,49437,1,0,0:0:0:0:
157,67,49608,2,0,L|66:61,1,82.5
225,178,49951,6,0,B|273:194|305:178|305:178|337:162|393:178,1,165
346,333,50465,1,0,0:0:0:0:
346,333,50637,2,0,L|346:240,1,82.5
264,108,50980,1,0,0:0:0:0:
255,260,51151,1,0,0:0:0:0:
355,86,51322,6,0,P|314:28|209:31,1,165
226,184,51837,1,0,0:0:0:0:
362,221,52008,2,0,L|453:214,1,82.5
265,292,52351,2,0,L|174:285,1,82.5
113,65,52694,6,0,P|195:108|187:187,1,165
35,102,53208,2,0,P|28:56|40:15,1,82.5
119,147,53551,1,0,0:0:0:0:
37,249,53722,1,0,0:0:0:0:
158,319,53894,1,0,0:0:0:0:
158,319,53980,1,0,0:0:0:0:
158,319,54065,6,0,L|258:315,1,82.5
411,245,54408,1,0,0:0:0:0:
233,209,54580,1,0,0:0:0:0:
233,209,54665,1,0,0:0:0:0:
233,209,54751,1,0,0:0:0:0:
353,345,54922,1,0,0:0:0:0:
344,163,55094,1,0,0:0:0:0:
248,324,55265,1,0,0:0:0:0:
248,324,55351,1,0,0:0:0:0:
248,324,55437,5,0,0:0:0:0:
156,188,55608,1,0,0:0:0:0:
157,304,55780,1,0,0:0:0:0:
242,226,55951,2,0,L|338:220,1,82.5
428,81,56294,1,0,0:0:0:0:
427,197,56466,1,0,0:0:0:0:
342,119,56637,6,0,L|246:113,1,82.5
110,202,56980,1,0,0:0:0:0:
226,201,57152,1,0,0:0:0:0:
148,116,57322,1,0,0:0:0:0:
32,172,57494,2,0,P|27:212|42:260,1,82.5
147,93,57837,2,0,L|63:84,1,82.5
233,177,58180,6,0,P|232:97|289:40,1,165
385,103,58694,2,0,P|346:128|297:129,1,82.5
436,37,59037,2,0,P|467:90|464:131,1,82.5
316,241,59380,6,0,B|397:266|397:266|434:250|434:250|390:233,1,165
310,131,59894,1,0,0:0:0:0:
246,300,60065,2,0,L|163:305,1,82.5
92,196,60408,1,0,0:0:0:0:
92,196,60494,1,0,0:0:0:0:
92,196,60580,1,0,0:0:0:0:
246,300,60751,6,0,P|295:246|281:153,1,165
171,67,61265,2,0,L|176:159,1,82.5
82,278,61608,2,0,L|92:187,1,82.5
178,340,61951,2,0,L|261:349,1,82.5
380,195,62294,6,0,L|297:204,1,82.5
389,286,62637,2,0,L|471:295,1,82.5
306,349,62980,1,0,0:0:0:0:
160,330,63151,1,0,0:0:0:0:
266,164,63322,1,0,0:0:0:0:
306,349,63494,6,0,P|250:325|238:219,1,165
318,109,64008,1,0,0:0:0:0:
308,274,64180,1,0,0:0:0:0:
308,274,64265,1,0,0:0:0:0:
308,274,64351,1,0,0:0:0:0:
199,131,64522,1,0,0:0:0:0:
355,192,64694,1,0,0:0:0:0:
149,213,64865,1,0,0:0:0:0:
149,213,64951,1,0,0:0:0:0:
149,213,65037,5,0,0:0:0:0:
369,115,65380,5,0,0:0:0:0:
369,115,65551,1,0,0:0:0:0:
273,204,65722,1,0,0:0:0:0:
273,204,65894,1,0,0:0:0:0:
269,59,66065,1,0,0:0:0:0:
391,232,66237,6,0,P|362:308|266:331,1,181.500005538941
121,227,66751,1,0,0:0:0:0:
297,241,66922,1,0,0:0:0:0:
142,306,67094,1,0,0:0:0:0:
262,167,67265,1,0,0:0:0:0:
199,361,67437,1,0,0:0:0:0:
181,151,67608,6,0,B|42:133|42:133|97:116,1,181.500005538941
240,74,68122,1,0,0:0:0:0:
240,74,68294,1,0,0:0:0:0:
327,175,68465,2,0,L|333:277,1,90.7500027694703
405,157,68808,2,0,L|410:66,1,90.7500027694703
181,151,69151,6,0,P|147:191|184:320,1,181.500005538941
297,362,69665,1,0,0:0:0:0:
378,228,69837,2,0,L|287:231,1,90.7500027694703
169,308,70180,1,0,0:0:0:0:
3,143,70351,6,0,B|74:138|74:138|110:155|110:155|183:150,1,181.500005538941
372,185,70865,2,0,B|380:229|380:229|372:283,1,90.7500027694703
271,145,71208,2,0,B|263:101|263:101|271:47,1,90.7500027694703
372,185,71551,2,0,L|470:179,1,90.7500027694703
316,328,71894,6,0,B|245:319|245:319|209:336|209:336|124:323,1,181.500005538941
18,248,72408,1,0,0:0:0:0:
134,123,72580,1,0,0:0:0:0:
118,238,72751,1,0,0:0:0:0:
41,94,72922,1,0,0:0:0:0:
219,200,73094,6,0,P|309:175|332:81,1,181.500005538941
184,23,73608,2,0,L|86:19,1,90.7500027694703
244,102,73951,2,0,L|342:98,1,90.7500027694703
483,28,74294,1,0,0:0:0:0:
418,152,74465,1,0,0:0:0:0:
282,27,74637,6,0,P|199:34|162:120,1,181.500005538941
282,215,75151,1,0,0:0:0:0:
244,102,75322,1,0,0:0:0:0:
196,233,75494,1,0,0:0:0:0:
328,136,75665,1,0,0:0:0:0:
119,186,75837,6,0,B|108:329|108:329|142:297,1,181.500005538941
192,115,76351,2,0,P|156:93|106:91,1,90.7500027694703
226,245,76694,1,0,0:0:0:0:
304,79,76865,1,0,0:0:0:0:
130,174,77036,1,0,0:0:0:0:
362,218,77208,6,0,P|450:185|467:103,1,181.500005538941
284,177,77722,2,0,B|275:219|275:219|285:272,1,90.7500027694703
376,123,78065,1,0,0:0:0:0:
376,123,78237,1,0,0:0:0:0:
240,29,78408,1,0,0:0:0:0:
105,101,78580,6,0,B|153:77|193:97|193:97|233:121|289:101,1,181.500005538941
434,42,79094,2,0,L|443:153,1,90.7500027694703
327,259,79437,2,0,L|334:168,1,90.7500027694703
422,267,79780,2,0,L|519:257,1,90.7500027694703
296,354,80122,6,0,P|231:328|217:217,1,181.500005538941
299,98,80637,1,0,0:0:0:0:
378,259,80808,2,0,L|277:267,1,90.7500027694703
161,161,81151,1,0,0:0:0:0:
422,104,81322,6,0,B|298:98|298:98|352:73,1,181.500005538941
472,173,81837,2,0,L|463:268,1,90.7500027694703
296,354,82180,2,0,L|287:263,1,90.7500027694703
331,112,82522,2,0,L|421:103,1,90.7500027694703
266,185,82865,6,0,P|235:135|114:147,1,181.500005538941
145,297,83380,1,0,0:0:0:0:
295,271,83551,1,0,0:0:0:0:
295,271,83637,1,0,0:0:0:0:
295,271,83722,1,0,0:0:0:0:
215,354,83894,1,0,0:0:0:0:
123,137,84065,6,0,B|112:271|112:271|153:237,1,181.500005538941
203,86,84580,2,0,P|174:54|122:40,1,90.7500027694703
207,188,84922,2,0,P|249:179|288:142,1,90.7500027694703
110,144,85265,1,0,0:0:0:0:
85,164,85350,1,0,0:0:0:0:
68,190,85436,1,0,0:0:0:0:
59,221,85522,1,0,0:0:0:0:
59,252,85608,6,0,L|158:247,1,90.7500027694703
322,333,85951,2,0,L|222:328,1,90.7500027694703
372,174,86294,2,0,L|376:273,1,90.7500027694703
231,328,86637,1,0,0:0:0:0:
239,109,86808,6,0,B|287:133|327:109|327:109|367:85|423:109,1,181.500005538941
365,260,87322,2,0,P|357:214|378:164,1,90.7500027694703
426,314,87665,1,0,0:0:0:0:
288,298,87837,1,0,0:0:0:0:
288,298,87922,1,0,0:0:0:0:
288,298,88008,1,0,0:0:0:0:
436,221,88180,2,0,L|484:214,1,45.3750013847352
283,155,88351,5,0,0:0:0:0:
142,220,90580,5,0,0:0:0:0:
256,96,90751,1,0,0:0:0:0:
256,96,90922,2,0,L|263:141,1,41.25
332,254,91094,6,0,B|312:210|332:178|332:178|352:142|332:94,1,165
200,35,91608,1,0,0:0:0:0:
114,187,91780,2,0,L|208:184,1,82.5
332,95,92122,1,0,0:0:0:0:
403,261,92294,6,0,P|320:244|307:170,1,165
472,220,92808,2,0,B|480:263|480:263|472:310,1,82.5
397,169,93151,2,0,P|429:138|472:130,1,82.5
403,261,93494,1,0,0:0:0:0:
213,309,93665,6,0,P|144:283|126:193,1,165
167,47,94180,2,0,L|174:143,1,82.5
213,309,94522,2,0,L|220:213,1,82.5
296,118,94865,1,0,0:0:0:0:
344,213,95037,2,0,L|296:207,1,41.25
381,285,95208,6,0,B|508:271|508:271|478:305,1,165
325,350,95722,1,0,0:0:0:0:
336,109,95894,1,0,0:0:0:0:
403,189,96065,1,0,0:0:0:0:
273,284,96237,1,0,0:0:0:0:
132,141,96408,6,0,P|180:74|281:69,1,165
199,228,96922,2,0,L|117:221,1,82.5
257,309,97265,2,0,L|339:302,1,82.5
341,118,97608,2,0,L|259:111,1,82.5
192,150,97865,1,0,0:0:0:0:
192,150,97951,6,0,B|144:134|108:150|108:150|76:166|28:150,1,165
147,225,98465,1,0,0:0:0:0:
156,42,98637,1,0,0:0:0:0:
70,82,98808,1,0,0:0:0:0:
147,225,98980,1,0,0:0:0:0:
322,160,99151,6,0,P|317:60|266:32,1,165
283,235,99665,2,0,P|321:243|372:231,1,82.5
210,167,100008,1,0,0:0:0:0:
187,266,100180,1,0,0:0:0:0:
322,160,100351,1,0,0:0:0:0:
133,53,100522,6,0,B|119:113|119:113|129:152|129:152|113:220,1,165
195,348,101037,2,0,L|186:257,1,82.5
243,108,101380,1,0,0:0:0:0:
298,257,101551,1,0,0:0:0:0:
362,109,101722,1,0,0:0:0:0:
156,191,101894,1,0,0:0:0:0:
156,191,101980,1,0,0:0:0:0:
156,191,102065,6,0,L|73:184,1,82.5
140,65,102408,1,0,0:0:0:0:
232,264,102580,2,0,B|355:254|355:254|321:292,1,165
165,335,103094,1,0,0:0:0:0:
210,172,103265,6,0,P|284:150|299:65,1,165
119,30,103780,1,0,0:0:0:0:
116,54,103865,1,0,0:0:0:0:
114,79,103951,1,0,0:0:0:0:
111,103,104037,1,0,0:0:0:0:
80,120,104122,5,0,0:0:0:0:
81,140,104207,1,0,0:0:0:0:
83,161,104293,1,0,0:0:0:0:
84,181,104379,1,0,0:0:0:0:
117,204,104465,5,0,0:0:0:0:
116,220,104550,1,0,0:0:0:0:
115,236,104636,1,0,0:0:0:0:
114,253,104722,1,0,0:0:0:0:
113,269,104808,6,0,L|211:264,1,82.5
373,144,105151,2,0,P|330:208|243:195,1,165
315,66,105665,1,0,0:0:0:0:
445,181,105837,2,0,P|431:221|395:257,1,82.5
250,201,106180,5,0,0:0:0:0:
418,90,106351,1,0,0:0:0:0:
238,120,106522,1,0,0:0:0:0:
311,331,106694,2,0,L|318:235,1,82.5
161,133,107037,2,0,L|174:217,1,82.5
307,35,107380,5,0,0:0:0:0:
256,192,107465,12,0,110294,0:0:0:0:
