osu file format v14

[General]
AudioFilename: audio.mp3
AudioLeadIn: 0
PreviewTime: 65380
Countdown: 0
SampleSet: Soft
StackLeniency: 0.3
Mode: 0
LetterboxInBreaks: 0
WidescreenStoryboard: 1

[Editor]
DistanceSpacing: 1
BeatDivisor: 4
GridSize: 8
TimelineZoom: 2.4

[Metadata]
Title:Torchlight~Yume no akari~
TitleUnicode:Torchlight~夢の灯り~
Artist:KiraraQuintet
ArtistUnicode:KiraraQuintet
Creator:Meyrink
Version:Maffe's Easy
Source:きららファンタジア
Tags:Manga Time Kirara Meets Fantasy RPG Fantasia Dream light Aniplex ドリコム Drecom 園田智也 Kentaro Sonoda 楠木ともり Tomori Kusunoki ランプ Lamp Ranpu 高野麻里佳 Marika Kōno クレア Claire 和氣あず未 Azumi Waki ポルカ Polka Poruka 松井恵理子 Eriko Matsui コルク Koruku Cork 桑原由気 Yūki Kuwahara
BeatmapID:1497341
BeatmapSetID:707658

[Difficulty]
HPDrainRate:2
CircleSize:2.9
OverallDifficulty:2.5
ApproachRate:3
SliderMultiplier:0.899999999999999
SliderTickRate:1

[Events]
//Background and Video events
0,0,"Wallpaper.jpg",0,0
//Break Periods
//Storyboard Layer 0 (Background)
//Storyboard Layer 1 (Fail)
//Storyboard Layer 2 (Pass)
//Storyboard Layer 3 (Foreground)
//Storyboard Sound Samples

[TimingPoints]
580,342.857142857143,4,2,1,80,1,0
22522,-100,4,2,1,70,0,0
44465,-100,4,2,1,75,0,0
66237,-100,4,2,1,85,0,1
88351,-100,4,2,1,80,0,0
107551,-100,4,2,1,70,0,0
110294,-100,4,2,1,50,0,0

[Colours]
Combo1 : 143,248,149
Combo2 : 255,177,100
Combo3 : 106,173,255
Combo4 : 11,255,224
Combo5 : 253,176,217
Combo6 : 207,156,235

[HitObjects]
76,180,580,6,0,B|154:159|154:159|260:183,1,180,4|8,0:0|0:0,0:0:0:0:
318,239,1608,1,8,0:0:0:0:
383,177,1951,2,0,L|374:31,2,135,0|0|4,0:0|0:0|0:3,0:0:0:0:
459,224,3322,6,0,L|441:318,1,89.9999999999999,4|8,0:0|0:0,0:0:0:0:
369,366,4008,2,0,B|319:377|281:375|281:375|263:353|256:326,1,135,8|4,0:0|0:0,0:0:0:0:
269,200,5037,1,8,0:0:0:0:
125,241,5380,6,0,L|16:222,2,89.9999999999999,8|8|4,0:0|0:0|0:0,0:0:0:0:
169,162,6408,6,0,P|168:108|156:58,2,89.9999999999999,8|2|8,0:0|0:0|0:0,0:0:0:0:
220,235,7437,2,0,L|325:269,1,89.9999999999999,2|8,0:0|0:0,0:0:0:0:
357,335,8122,2,0,L|462:301,1,89.9999999999999,2|8,0:0|0:0,0:0:0:0:
476,223,8808,6,0,P|467:127|415:49,1,180,2|2,0:0|0:0,0:0:0:0:
338,26,9837,1,8,0:0:0:0:
311,112,10180,6,0,L|220:127,1,89.9999999999999,4|8,0:0|0:0,0:0:0:0:
184,208,10865,2,0,L|275:223,1,89.9999999999999,4|8,0:0|0:0,0:0:0:0:
312,303,11551,6,0,B|191:321|191:321|130:296,1,180,4|2,0:0|0:0,0:0:0:0:
67,356,12580,1,8,0:0:0:0:
16,281,12922,6,0,L|11:137,2,135,2|0|12,0:0|0:0|0:0,0:0:0:0:
95,324,14294,6,0,P|142:299|183:298,1,89.9999999999999,2|8,0:0|0:0,0:0:0:0:
263,325,14980,2,0,P|341:329|379:281,2,135,2|4|8,0:0|0:0|0:0,0:0:0:0:
191,269,16351,6,0,L|82:278,1,89.9999999999999,0|8,0:0|0:0,0:0:0:0:
52,200,17037,6,0,P|135:171|198:87,1,180,4|2,0:0|0:0,0:0:0:0:
281,112,18065,1,8,0:0:0:0:
347,51,18408,6,0,B|422:68|422:68|490:167,1,180,0|2,0:0|0:0,0:0:0:0:
428,227,19437,1,10,0:0:0:0:
347,187,19780,6,0,L|251:193,1,89.9999999999999,0|8,0:0|0:0,0:0:0:0:
171,221,20465,2,0,P|93:210|61:164,1,135,2|4,0:0|0:0,0:0:0:0:
81,79,21322,5,0,0:0:0:0:
163,42,21665,2,0,L|310:69,1,135,4|8,0:0|0:0,0:0:0:0:
385,61,22522,5,4,0:0:0:0:
430,138,22865,2,0,L|422:232,2,89.9999999999999,8|2|8,0:0|0:0|0:0,0:0:0:0:
505,88,23894,2,0,L|482:-2,1,89.9999999999999,0|8,0:0|0:0,0:0:0:0:
400,37,24580,2,0,P|370:45|299:17,1,89.9999999999999,2|8,0:0|0:0,0:0:0:0:
229,1,25265,6,0,L|134:20,1,89.9999999999999,2|8,0:0|0:0,0:0:0:0:
103,101,25951,2,0,L|198:120,1,89.9999999999999,0|8,0:0|0:0,0:0:0:0:
218,204,26637,2,0,L|123:223,1,89.9999999999999,0|8,0:0|0:0,0:0:0:0:
86,300,27322,1,2,0:0:0:0:
207,358,27837,6,0,B|293:374|293:374|353:345,1,135,4|8,0:0|0:0,0:0:0:0:
370,270,28694,1,2,0:0:0:0:
336,139,29208,2,0,L|196:123,1,135,4|8,0:0|0:0,0:0:0:0:
137,186,30065,1,2,0:0:0:0:
252,256,30580,6,0,L|356:262,1,89.9999999999999,4|0,0:0|0:0,0:0:0:0:
429,281,31265,2,0,P|424:247|432:185,1,89.9999999999999,4|0,0:0|0:0,0:0:0:0:
484,119,31951,2,0,P|489:85|481:23,1,89.9999999999999,4|0,0:0|0:0,0:0:0:0:
397,1,32637,1,4,0:0:0:0:
314,36,32980,1,4,0:0:0:0:
181,60,33494,5,4,0:0:0:0:
233,133,33837,2,0,L|223:230,2,89.9999999999999,8|2|8,0:0|0:0|0:0,0:0:0:0:
311,88,34866,2,0,L|406:122,1,89.9999999999999,0|8,0:0|0:0,0:0:0:0:
455,185,35551,2,0,P|463:215|435:286,1,89.9999999999999,2|8,0:0|0:0,0:0:0:0:
372,319,36237,5,2,0:0:0:0:
283,302,36580,2,0,L|256:203,2,89.9999999999999,8|0|8,0:0|0:0|0:0,0:0:0:0:
211,356,37609,2,0,P|168:353|120:322,1,89.9999999999999,0|8,0:0|0:0,0:0:0:0:
90,248,38294,1,2,0:0:0:0:
118,118,38808,6,0,B|226:74|226:74|336:125,1,225,4|2,0:0|0:0,0:0:0:0:
364,248,40180,6,0,B|256:292|256:292|146:241,1,225,4|2,0:0|0:0,0:0:0:0:
113,118,41551,1,4,0:0:0:0:
216,31,42065,5,8,0:0:0:0:
278,95,42408,2,0,L|415:104,2,135,2|4|8,0:0|0:0|0:0,0:0:0:0:
223,166,43780,2,0,L|129:176,1,89.9999999999999,0|8,0:0|0:0,0:0:0:0:
90,254,44465,6,0,L|282:277,1,180,4|2,0:0|0:0,0:0:0:0:
337,334,45494,1,8,0:0:0:0:
401,270,45837,2,0,L|386:169,1,89.9999999999999,2|8,0:0|0:0,0:0:0:0:
317,124,46522,2,0,L|332:23,1,89.9999999999999,2|8,0:0|0:0,0:0:0:0:
242,55,47208,6,0,P|154:72|76:20,1,180,4|0,0:0|0:0,0:0:0:0:
12,86,48237,1,8,0:0:0:0:
34,173,48580,2,0,L|129:189,1,89.9999999999999,2|8,0:0|0:0,0:0:0:0:
191,246,49265,2,0,P|233:231|288:242,1,89.9999999999999,2|8,0:0|0:0,0:0:0:0:
363,262,49951,6,0,L|368:75,1,180,4|2,0:0|0:0,0:0:0:0:
319,5,50980,1,8,0:0:0:0:
258,71,51322,2,0,P|209:71|166:53,1,89.9999999999999,2|8,0:0|0:0,0:0:0:0:
86,24,52008,2,0,P|86:73|68:116,1,89.9999999999999,2|12,0:0|0:0,0:0:0:0:
18,183,52694,6,0,B|123:229|123:229|192:214,1,180,4|0,0:0|0:0,0:0:0:0:
241,143,53722,1,8,0:0:0:0:
319,186,54065,2,0,L|303:285,1,89.9999999999999,2|8,0:0|0:0,0:0:0:0:
350,352,54751,1,2,0:0:0:0:
473,221,55437,6,0,B|453:103|453:103|396:73,1,180,4|2,0:0|0:0,0:0:0:0:
314,44,56465,1,8,0:0:0:0:
238,93,56808,2,0,L|251:193,1,89.9999999999999,2|8,0:0|0:0,0:0:0:0:
308,250,57494,2,0,P|345:225|406:231,1,89.9999999999999,2|8,0:0|0:0,0:0:0:0:
473,256,58180,6,0,B|501:189|501:189|473:123,1,135,4|2,0:0|0:0,0:0:0:0:
408,73,59037,1,2,0:0:0:0:
323,104,59380,6,0,P|265:77|187:91,1,135,4|8,0:0|0:0,0:0:0:0:
129,146,60237,1,2,0:0:0:0:
172,273,60751,6,0,B|245:243|245:243|303:269,1,135,4|8,0:0|0:0,0:0:0:0:
375,307,61608,2,0,L|382:207,1,89.9999999999999,2|8,0:0|0:0,0:0:0:0:
348,133,62294,6,0,L|255:144,1,89.9999999999999,2|8,0:0|0:0,0:0:0:0:
179,100,62980,1,2,0:0:0:0:
87,198,63494,6,0,L|70:56,1,135,4|8,0:0|0:0,0:0:0:0:
158,83,64351,2,0,L|255:88,1,89.9999999999999,8|8,0:0|0:0,0:0:0:0:
328,127,65037,1,8,0:0:0:0:
44,263,66237,6,0,B|108:239|108:239|180:271,1,135,4|8,0:0|0:0,0:0:0:0:
200,350,67094,1,2,0:0:0:0:
284,318,67437,1,8,0:0:0:0:
351,377,67780,6,0,L|454:383,1,89.9999999999999,0|8,0:0|0:0,0:0:0:0:
497,312,68465,2,0,L|480:215,1,89.9999999999999,2|8,0:0|0:0,0:0:0:0:
422,155,69151,2,0,B|314:186|314:186|244:149,1,180,2|0,0:0|0:0,0:0:0:0:
129,207,70351,6,0,B|187:245|187:245|200:310,1,135,4|8,0:0|0:0,0:0:0:0:
270,365,71208,1,2,0:0:0:0:
329,297,71551,1,8,0:0:0:0:
291,215,71894,6,0,L|311:30,1,180,4|2,0:0|0:0,0:0:0:0:
422,111,73094,2,0,L|405:246,1,135,4|8,0:0|0:0,0:0:0:0:
335,302,73951,2,0,L|236:313,1,89.9999999999999,2|8,0:0|0:0,0:0:0:0:
164,351,74637,5,4,0:0:0:0:
74,250,75151,2,0,L|83:149,1,89.9999999999999,2|2,0:0|0:0,0:0:0:0:
125,81,75837,2,0,P|192:68|258:101,1,135,4|8,0:0|0:0,0:0:0:0:
294,172,76694,1,2,0:0:0:0:
396,259,77208,6,0,B|333:286|333:286|260:267,1,135,4|8,0:0|0:0,0:0:0:0:
224,347,78065,1,2,0:0:0:0:
154,290,78408,1,8,0:0:0:0:
123,374,78751,6,0,L|20:380,1,89.9999999999999,2|8,0:0|0:0,0:0:0:0:
2,294,79437,2,0,P|9:248|-3:189,1,89.9999999999999,2|8,0:0|0:0,0:0:0:0:
73,148,80122,2,0,B|147:176|147:176|251:142,1,180,4|0,0:0|0:0,0:0:0:0:
367,91,81322,6,0,P|342:139|357:226,1,135,4|8,0:0|0:0,0:0:0:0:
417,278,82179,1,2,0:0:0:0:
374,357,82522,1,8,0:0:0:0:
284,344,82865,6,0,L|233:168,1,180,4|2,0:0|0:0,0:0:0:0:
103,136,84065,2,0,P|94:207|133:267,1,135,4|8,0:0|0:0,0:0:0:0:
206,296,84922,2,0,L|305:307,1,89.9999999999999,2|8,0:0|0:0,0:0:0:0:
376,266,85608,6,0,L|392:76,1,180,4|2,0:0|0:0,0:0:0:0:
264,133,86808,2,0,P|199:132|142:90,1,135,4|8,0:0|0:0,0:0:0:0:
58,65,87665,1,8,0:0:0:0:
72,153,88008,1,8,0:0:0:0:
44,238,88351,1,4,0:3:0:0:
393,323,89722,6,0,L|407:226,1,89.9999999999999,0|0,0:0|0:0,0:0:0:0:
326,190,90408,2,0,L|312:93,1,89.9999999999999,0|8,0:0|0:0,0:0:0:0:
232,142,91094,6,0,P|152:164|57:116,1,180,4|2,0:0|0:0,0:0:0:0:
37,40,92122,1,8,0:0:0:0:
125,24,92465,2,0,L|215:37,1,89.9999999999999,0|8,0:0|0:0,0:0:0:0:
283,94,93151,1,2,0:0:0:0:
160,151,93665,6,0,B|165:211|165:211|135:292,1,135,4|8,0:0|0:0,0:0:0:0:
190,355,94522,2,0,L|286:332,1,89.9999999999999,2|8,0:0|0:0,0:0:0:0:
341,269,95208,2,0,L|349:165,1,89.9999999999999,2|8,0:0|0:0,0:0:0:0:
377,93,95894,1,2,0:0:0:0:
260,160,96408,6,0,P|204:133|121:142,1,135,4|8,0:0|0:0,0:0:0:0:
57,186,97265,2,0,L|46:279,1,89.9999999999999,2|8,0:0|0:0,0:0:0:0:
96,350,97951,2,0,L|189:371,1,89.9999999999999,2|8,0:0|0:0,0:0:0:0:
242,301,98637,1,2,0:0:0:0:
363,360,99151,6,0,L|377:217,1,135,4|8,0:0|0:0,0:0:0:0:
368,135,100008,1,2,0:0:0:0:
273,231,100522,6,0,P|215:209|135:229,1,135,4|8,0:0|0:0,0:0:0:0:
65,264,101380,2,0,L|50:168,1,89.9999999999999,2|8,0:0|0:0,0:0:0:0:
105,103,102065,6,0,L|207:108,1,89.9999999999999,4|8,0:0|0:0,0:0:0:0:
280,136,102751,1,0,0:0:0:0:
437,48,103437,6,0,L|446:140,1,89.9999999999999,0|8,0:0|0:0,0:0:0:0:
365,177,104122,2,0,L|356:269,1,89.9999999999999,2|8,0:0|0:0,0:0:0:0:
367,356,104808,5,4,0:0:0:0:
283,321,105151,2,0,L|180:334,2,89.9999999999999,8|2|8,0:0|0:0|0:0,0:0:0:0:
318,237,106180,1,2,0:0:0:0:
184,219,106694,5,2,0:0:0:0:
168,130,107037,1,2,0:0:0:0:
152,42,107380,1,6,0:0:0:0:
