osu file format v14

[General]
AudioFilename: audio.mp3
AudioLeadIn: 0
PreviewTime: 65380
Countdown: 0
SampleSet: Soft
StackLeniency: 0.7
Mode: 0
LetterboxInBreaks: 0
WidescreenStoryboard: 0

[Editor]
Bookmarks: 580,22522,44465,55437,66237,91094
DistanceSpacing: 0.8
BeatDivisor: 4
GridSize: 4
TimelineZoom: 2.4

[Metadata]
Title:Torchlight~Yume no akari~
TitleUnicode:Torchlight~夢の灯り~
Artist:KiraraQuintet
ArtistUnicode:KiraraQuintet
Creator:Meyrink
Version:Insane
Source:きららファンタジア
Tags:Manga Time Kirara Meets Fantasy RPG Fantasia Dream light Aniplex ドリコム Drecom 園田智也 Kentaro Sonoda 楠木ともり Tomori Kusunoki ランプ Lamp Ranpu 高野麻里佳 Marika Kōno クレア Claire 和氣あず未 Azumi Waki ポルカ Polka Poruka 松井恵理子 Eriko Matsui コルク Koruku Cork 桑原由気 Yūki Kuwahara
BeatmapID:1496328
BeatmapSetID:707658

[Difficulty]
HPDrainRate:7
CircleSize:4
OverallDifficulty:8
ApproachRate:9
SliderMultiplier:1.8
SliderTickRate:1

[Events]
//Background and Video events
0,0,"Wallpaper.jpg",0,0
//Break Periods
//Storyboard Layer 0 (Background)
//Storyboard Layer 1 (Fail)
//Storyboard Layer 2 (Pass)
//Storyboard Layer 3 (Foreground)
//Storyboard Sound Samples

[TimingPoints]
580,342.857142857143,4,2,1,60,1,0
46865,-83.3333333333333,4,2,1,60,0,0
47208,-100,4,2,1,60,0,0
52008,-83.3333333333333,4,2,1,60,0,0
52694,-100,4,2,1,60,0,0
66237,-100,4,2,1,70,0,1
88351,-100,4,2,1,60,0,0

[Colours]
Combo1 : 136,255,196
Combo2 : 255,177,100
Combo3 : 106,173,255
Combo4 : 11,255,224
Combo5 : 253,176,217

[HitObjects]
40,295,408,5,2,0:0:0:0:
40,295,494,1,2,0:0:0:0:
40,295,580,2,0,P|97:230|181:249,1,180,4|8,0:0|0:0,0:0:0:0:
291,324,1094,1,0,0:0:0:0:
291,324,1180,1,8,0:0:0:0:
291,324,1265,2,0,P|303:280|310:236,1,90,8|0,0:0|0:0,0:0:0:0:
157,55,1608,2,0,P|164:99|176:142,1,90,8|0,0:0|0:0,0:0:0:0:
204,171,1865,1,8,0:0:0:0:
204,171,1951,6,0,L|291:150,1,90,8|0,0:0|0:0,0:0:0:0:
439,185,2294,1,8,0:0:0:0:
328,56,2465,1,0,0:0:0:0:
328,56,2551,1,8,0:0:0:0:
328,56,2637,1,8,0:0:0:0:
254,250,2808,1,8,0:3:0:0:
371,137,2980,1,4,0:3:0:0:
230,36,3151,1,8,0:3:0:0:
469,158,3322,6,0,P|380:172|291:188,1,180,4|8,0:0|0:0,0:0:0:0:
175,229,3836,1,8,0:0:0:0:
175,229,3922,1,8,0:0:0:0:
175,229,4008,1,8,0:0:0:0:
328,352,4180,2,0,L|341:309,1,45,0|8,0:0|0:0,0:0:0:0:
291,187,4351,2,0,L|278:230,1,45,0|8,0:0|0:0,0:0:0:0:
182,341,4522,6,0,B|117:358|117:358|18:303,1,180,4|8,0:0|0:0,0:0:0:0:
116,103,5037,1,8,0:0:0:0:
170,261,5208,1,8,0:0:0:0:
18,303,5380,1,8,0:0:0:0:
188,167,5551,1,0,0:0:0:0:
188,167,5637,1,0,0:0:0:0:
188,167,5722,1,8,0:0:0:0:
262,378,5894,1,8,0:0:0:0:
262,378,5980,1,8,0:0:0:0:
262,378,6065,6,0,P|296:289|334:204,1,180,4|8,0:0|0:0,0:0:0:0:
299,81,6580,1,8,0:0:0:0:
299,81,6666,1,8,0:0:0:0:
299,81,6751,1,0,0:0:0:0:
251,266,6922,1,0,0:0:0:0:
444,213,7094,2,0,P|400:204|356:196,1,90,8|0,0:0|0:0,0:0:0:0:
209,60,7437,6,0,P|270:-1|356:13,1,180,0|8,0:0|0:0,0:0:0:0:
502,80,7951,1,0,0:0:0:0:
502,80,8037,1,8,0:0:0:0:
502,80,8122,2,0,P|458:89|412:108,1,90,8|0,0:0|0:0,0:0:0:0:
256,122,8465,2,0,P|272:163|281:207,1,90,8|0,0:0|0:0,0:0:0:0:
401,319,8808,6,0,P|314:314|247:371,1,180,4|8,0:0|0:0,0:0:0:0:
103,353,9322,1,0,0:0:0:0:
103,353,9408,1,8,0:0:0:0:
103,353,9494,1,8,0:0:0:0:
224,242,9665,1,0,0:0:0:0:
44,167,9837,1,8,0:0:0:0:
169,74,10008,1,0,0:0:0:0:
169,74,10094,1,8,0:0:0:0:
169,74,10180,6,0,P|153:162|139:251,1,180,4|8,0:0|0:0,0:0:0:0:
364,176,10694,1,0,0:0:0:0:
364,176,10780,1,8,0:0:0:0:
364,176,10865,2,0,P|319:168|275:160,1,90,8|0,0:0|0:0,0:0:0:0:
82,321,11208,1,8,0:0:0:0:
222,266,11380,2,0,P|223:243|220:222,1,45,0|8,0:0|0:0,0:0:0:0:
165,121,11551,6,0,P|81:97|17:155,1,180,4|8,0:0|0:0,0:0:0:0:
133,283,12065,1,0,0:0:0:0:
133,284,12151,1,8,0:0:0:0:
133,283,12237,2,0,P|177:273|221:265,1,90,8|0,0:0|0:0,0:0:0:0:
321,101,12580,1,8,0:0:0:0:
326,122,12665,1,0,0:0:0:0:
332,144,12751,1,0,0:0:0:0:
338,166,12837,1,0,0:0:0:0:
344,187,12922,6,0,P|300:177|256:169,1,90,4|0,0:0|0:0,0:0:0:0:
486,112,13265,1,8,0:0:0:0:
403,279,13437,1,0,0:0:0:0:
403,279,13522,1,8,0:0:0:0:
403,279,13608,1,0,0:0:0:0:
242,181,13780,1,8,0:0:0:0:
332,35,13951,1,12,0:0:0:0:
101,25,14294,6,0,P|120:112|137:201,2,180,4|8|0,0:0|0:0|0:0,0:0:0:0:
18,137,15151,1,0,0:0:0:0:
211,245,15322,1,8,0:0:0:0:
18,357,15494,1,4,0:0:0:0:
204,120,15837,5,0,0:0:0:0:
292,309,16008,2,0,L|116:267,1,180,4|0,0:0|0:0,0:0:0:0:
29,175,16522,1,8,0:0:0:0:
29,175,16694,1,8,0:0:0:0:
153,99,16865,1,0,0:0:0:0:
153,99,16951,1,0,0:0:0:0:
153,99,17037,6,0,P|162:142|169:187,1,90,4|0,0:0|0:0,0:0:0:0:
373,161,17380,2,0,P|329:151|284:144,1,90,8|0,0:0|0:0,0:0:0:0:
285,344,17722,2,0,P|291:299|301:255,1,90
91,316,18065,2,0,P|135:306|180:299,1,90,8|0,0:0|0:0,0:0:0:0:
388,236,18408,6,0,P|328:173|243:189,1,180,0|8,0:0|0:0,0:0:0:0:
362,354,18922,1,0,0:0:0:0:
491,280,19094,2,0,B|514:232|514:232|489:107,1,180,0|8,0:0|0:0,0:0:0:0:
274,56,19608,1,0,0:0:0:0:
274,56,19694,1,2,0:0:0:0:
275,56,19780,6,0,P|320:50|365:46,1,90
410,203,20122,2,0,P|365:197|320:193,1,90,8|0,0:0|0:0,0:0:0:0:
159,227,20465,1,0,0:0:0:0:
244,128,20637,1,0,0:0:0:0:
297,322,20808,1,8,0:0:0:0:
69,260,20980,6,0,P|158:247|247:234,1,180,4|0,0:0|0:0,0:0:0:0:
379,249,21494,1,8,0:0:0:0:
298,69,21665,2,0,P|214:53|164:123,1,180,4|0,0:0|0:0,0:0:0:0:
130,257,22180,1,8,0:0:0:0:
130,257,22265,1,8,0:0:0:0:
130,257,22351,1,8,0:0:0:0:
278,304,22522,6,0,P|264:215|244:128,1,180,4|8,0:0|0:0,0:0:0:0:
171,19,23037,1,0,0:0:0:0:
319,78,23208,2,0,P|362:80|408:83,1,90
176,163,23551,1,8,0:0:0:0:
333,271,23722,6,0,P|243:278|155:296,1,180
56,198,24237,1,8,0:0:0:0:
155,295,24408,1,0,0:0:0:0:
1,376,24580,2,0,P|10:331|18:287,1,90
192,131,24922,2,0,P|200:175|208:219,1,90,8|0,0:0|0:0,0:0:0:0:
273,368,25265,6,0,B|221:351|174:390|174:390|133:383|123:341,1,180,0|8,0:0|0:0,0:0:0:0:
95,169,25780,1,0,0:0:0:0:
95,169,25951,2,0,P|48:184|6:191,1,90
218,281,26294,2,0,P|257:203|231:116,1,180,8|0,0:0|0:0,0:0:0:0:
105,284,26808,5,0,0:0:0:0:
213,368,26980,2,0,P|257:360|311:352,1,90,8|0,0:0|0:0,0:0:0:0:
162,199,27322,2,0,P|117:191|64:183,1,90
0,282,27665,1,8,0:0:0:0:
237,288,27837,6,0,B|270:243|270:243|249:120,1,180,4|0,0:0|0:0,0:0:0:0:
227,1,28351,1,8,0:0:0:0:
137,147,28522,1,0,0:0:0:0:
311,201,28694,1,0,0:0:0:0:
231,100,28865,1,0,0:0:0:0:
397,41,29037,1,8,0:0:0:0:
393,242,29208,6,0,P|305:224|216:216,1,180,4|0,0:0|0:0,0:0:0:0:
137,147,29722,1,8,0:0:0:0:
209,300,29894,1,0,0:0:0:0:
218,112,30065,1,0,0:0:0:0:
55,192,30237,1,0,0:0:0:0:
137,352,30408,1,8,0:0:0:0:
308,272,30580,6,0,B|367:248|367:248|423:271|439:333,1,180,4|0,0:0|0:0,0:0:0:0:
308,383,31094,1,8,0:0:0:0:
186,275,31265,2,0,B|202:212|202:212|200:160|200:160|216:99,1,180,4|0,0:0|0:0,0:0:0:0:
295,20,31780,1,8,0:0:0:0:
73,25,31951,6,0,P|15:90|25:177,1,180,4|0,0:0|0:0,0:0:0:0:
120,261,32465,1,8,0:0:0:0:
236,163,32637,1,0,0:0:0:0:
104,114,32808,1,8,0:0:0:0:
234,274,32980,1,0,0:0:0:0:
70,119,33151,1,8,0:0:0:0:
311,32,33322,1,8,0:0:0:0:
311,32,33408,1,8,0:0:0:0:
311,32,33494,6,0,P|296:110|284:210,1,180,4|8,0:0|0:0,0:0:0:0:
286,337,34008,1,0,0:0:0:0:
465,228,34180,2,0,P|421:235|377:243,1,90
183,310,34522,1,8,0:0:0:0:
105,185,34694,6,0,P|194:196|283:209,1,180
394,199,35208,1,8,0:0:0:0:
285,47,35380,1,0,0:0:0:0:
469,78,35551,2,0,P|425:92|382:103,1,90
259,178,35894,2,0,P|215:167|172:153,1,90,8|0,0:0|0:0,0:0:0:0:
0,88,36237,6,0,P|12:177|20:266,1,180,0|8,0:0|0:0,0:0:0:0:
122,152,36751,1,0,0:0:0:0:
209,279,36922,2,0,P|218:235|233:192,1,90
321,56,37265,2,0,P|405:42|462:107,1,180,8|0,0:0|0:0,0:0:0:0:
507,245,37780,5,0,0:0:0:0:
507,245,37951,2,0,P|463:234|418:228,1,90,8|0,0:0|0:0,0:0:0:0:
263,250,38294,1,8,0:0:0:0:
442,360,38465,1,0,0:0:0:0:
247,257,38637,1,8,0:0:0:0:
397,130,38808,6,0,P|389:220|370:308,1,180,4|0,0:0|0:0,0:0:0:0:
157,316,39322,1,8,0:0:0:0:
287,228,39494,1,0,0:0:0:0:
323,380,39665,1,0,0:0:0:0:
183,242,39837,1,0,0:0:0:0:
320,125,40008,1,8,0:0:0:0:
429,292,40180,6,0,B|378:315|378:315|256:294,1,180,4|0,0:0|0:0,0:0:0:0:
100,186,40694,2,0,L|189:175,1,90,8|0,0:0|0:0,0:0:0:0:
299,114,41037,1,0,0:0:0:0:
222,267,41208,1,0,0:0:0:0:
100,95,41380,1,8,0:0:0:0:
334,32,41551,6,0,P|315:120|303:209,1,180,4|0,0:0|0:0,0:0:0:0:
285,345,42065,1,8,0:0:0:0:
128,249,42237,1,0,0:0:0:0:
214,153,42408,1,0,0:0:0:0:
16,176,42580,1,0,0:0:0:0:
123,348,42751,1,8,0:0:0:0:
257,242,42922,6,0,B|317:206|317:206|366:221|421:238,1,180,4|0,0:0|0:0,0:0:0:0:
501,326,43437,1,8,0:0:0:0:
490,168,43608,2,8,P|404:139|318:111,1,180,4|8,0:0|0:0,0:0:0:0:
194,107,44122,1,0,0:0:0:0:
192,109,44208,1,0,0:0:0:0:
190,111,44294,1,0,0:0:0:0:
188,113,44380,1,0,0:0:0:0:
186,115,44465,6,0,P|195:72|204:27,1,90,4|0,0:0|0:0,0:0:0:0:
298,212,44808,2,0,P|211:198|141:252,1,180,8|0,0:0|0:0,0:0:0:0:
110,348,45322,1,0,0:0:0:0:
236,297,45494,2,0,P|223:340|213:384,1,90,8|0,0:0|0:0,0:0:0:0:
34,276,45837,6,0,P|24:231|11:188,1,90
176,84,46180,1,8,0:0:0:0:
100,215,46351,1,0,0:0:0:0:
270,261,46522,1,0,0:0:0:0:
125,355,46694,1,0,0:0:0:0:
225,186,46865,2,0,P|302:180|354:239,1,161.999995056153,4|0,0:0|0:0,0:0:0:0:
403,314,47208,6,0,P|376:228|390:140,1,180,4|8,0:0|0:0,0:0:0:0:
436,5,47722,1,0,0:0:0:0:
436,5,47894,2,0,P|391:14|347:23,1,90
220,72,48237,1,8,0:0:0:0:
359,175,48408,1,0,0:0:0:0:
111,170,48580,6,0,P|156:179|200:188,1,90
400,281,48922,2,0,P|355:271|311:263,1,90,8|0,0:0|0:0,0:0:0:0:
190,317,49265,1,0,0:0:0:0:
304,148,49437,1,0,0:0:0:0:
304,148,49522,1,0,0:0:0:0:
304,148,49608,1,8,0:0:0:0:
389,294,49780,1,0,0:0:0:0:
214,180,49951,6,0,P|213:136|228:93,1,90,4|0,0:0|0:0,0:0:0:0:
485,74,50294,2,0,P|435:145|348:155,1,180,8|0,0:0|0:0,0:0:0:0:
379,50,50808,1,0,0:0:0:0:
482,173,50980,2,0,P|473:217|467:261,1,90,8|0,0:0|0:0,0:0:0:0:
300,291,51322,5,0,0:0:0:0:
380,189,51494,1,0,0:0:0:0:
430,359,51665,1,8,0:0:0:0:
252,278,51837,1,0,0:0:0:0:
419,109,52008,6,0,P|463:174|445:251,1,161.999995056153,4|0,0:0|0:0,0:0:0:0:
399,325,52351,2,0,P|319:313|239:302,1,161.999995056153,4|0,0:0|0:0,0:0:0:0:
150,202,52694,6,0,P|239:215|328:228,1,180,4|8,0:0|0:0,0:0:0:0:
416,104,53208,1,0,0:0:0:0:
242,190,53380,1,0,0:0:0:0:
402,303,53551,1,0,0:0:0:0:
334,154,53722,1,8,0:0:0:0:
244,342,53894,1,2,0:0:0:0:
244,342,53980,1,0,0:0:0:0:
244,342,54065,5,0,0:0:0:0:
178,126,54237,1,0,0:0:0:0:
321,261,54408,1,8,0:0:0:0:
145,358,54580,1,0,0:0:0:0:
145,358,54665,1,8,0:0:0:0:
145,358,54751,5,8,0:0:0:0:
226,216,54922,1,8,0:0:0:0:
7,146,55094,1,8,0:3:0:0:
7,146,55180,1,0,3:0:0:0:
7,146,55265,1,0,3:0:0:0:
7,146,55351,1,0,3:0:0:0:
7,146,55437,6,0,P|51:138|95:130,1,90,4|0,0:0|0:0,0:0:0:0:
244,241,55780,2,0,P|199:248|155:256,1,90,8|0,0:0|0:0,0:0:0:0:
