osu file format v14

[General]
AudioFilename: audio.mp3
AudioLeadIn: 0
PreviewTime: 30080
Countdown: 1
SampleSet: Normal
StackLeniency: 0.7
Mode: 0
LetterboxInBreaks: 0
WidescreenStoryboard: 0

[Editor]
DistanceSpacing: 1.1
BeatDivisor: 4
GridSize: 32
TimelineZoom: 1.9

[Metadata]
Title:Kagetsu
TitleUnicode:Kagetsu
Artist:Kirara Magic
ArtistUnicode:Kirara Magic
Creator:Staniczek
Version:
Source:
Tags:
BeatmapID:2018985
BeatmapSetID:964387

[Difficulty]
HPDrainRate:7
CircleSize:4
OverallDifficulty:7
ApproachRate:9
SliderMultiplier:1.4
SliderTickRate:1

[Events]
//Background and Video events
//Break Periods
//Storyboard Layer 0 (Background)
//Storyboard Layer 1 (Fail)
//Storyboard Layer 2 (Pass)
//Storyboard Layer 3 (Foreground)
//Storyboard Sound Samples

[TimingPoints]
0,468.75,4,1,0,100,1,0
73242,-50,4,1,0,100,0,0
77109,-200,4,1,0,100,0,0
86367,-66.6666666666667,4,1,0,100,0,0
87421,-200,4,1,0,100,0,0
92226,-100,4,1,0,100,0,0
98085,-50,4,1,0,100,0,0

[HitObjects]
256,192,1992,5,0,0:0:0:0:
320,192,2460,1,0,0:0:0:0:
320,160,2578,1,0,0:0:0:0:
320,128,2695,1,0,0:0:0:0:
256,128,2929,1,0,0:0:0:0:
256,192,3398,1,0,0:0:0:0:
224,192,3515,1,0,0:0:0:0:
192,192,3632,1,0,0:0:0:0:
320,192,3867,1,0,0:0:0:0:
256,64,4335,5,0,0:0:0:0:
128,192,4570,1,0,0:0:0:0:
256,352,4804,1,0,0:0:0:0:
384,192,5039,1,0,0:0:0:0:
352,192,5156,1,0,0:0:0:0:
320,192,5273,1,0,0:0:0:0:
128,192,5507,1,0,0:0:0:0:
256,192,5742,1,0,0:0:0:0:
256,192,6210,5,0,0:0:0:0:
256,64,6445,5,0,0:0:0:0:
256,96,6562,1,0,0:0:0:0:
256,128,6679,1,0,0:0:0:0:
256,192,6914,1,0,0:0:0:0:
256,224,7148,1,0,0:0:0:0:
320,192,7382,1,0,0:0:0:0:
192,192,7617,1,0,0:0:0:0:
256,128,7851,1,0,0:0:0:0:
384,96,8320,5,0,0:0:0:0:
384,128,8554,1,0,0:0:0:0:
384,160,8789,1,0,0:0:0:0:
352,192,8906,1,0,0:0:0:0:
320,224,9023,1,0,0:0:0:0:
384,256,9257,1,0,0:0:0:0:
320,320,9492,2,0,L|224:320,1,70
96,96,9960,6,0,L|192:96,1,70
160,160,10429,2,0,L|64:160,1,70
192,192,10898,1,0,0:0:0:0:
256,32,11132,1,0,0:0:0:0:
352,256,11367,1,0,0:0:0:0:
96,224,11835,5,0,0:0:0:0:
320,160,12070,1,0,0:0:0:0:
256,256,12304,1,0,0:0:0:0:
96,128,12539,1,0,0:0:0:0:
128,128,12656,1,0,0:0:0:0:
160,128,12773,1,0,0:0:0:0:
352,128,13007,1,0,0:0:0:0:
256,192,13242,5,0,0:0:0:0:
256,192,13710,1,0,0:0:0:0:
256,192,13945,1,0,0:0:0:0:
256,224,14062,1,0,0:0:0:0:
256,224,14179,1,0,0:0:0:0:
256,320,14414,1,0,0:0:0:0:
384,192,14648,1,0,0:0:0:0:
288,96,14882,1,0,0:0:0:0:
192,224,15117,1,0,0:0:0:0:
448,96,15351,1,0,0:0:0:0:
320,96,15585,6,0,L|268:172,1,70
192,64,16054,1,0,0:0:0:0:
192,192,16289,1,0,0:0:0:0:
320,128,16523,1,0,0:0:0:0:
192,128,16757,1,0,0:0:0:0:
64,128,16992,1,0,0:0:0:0:
192,288,17226,1,0,0:0:0:0:
192,64,17460,1,0,0:0:0:0:
352,192,17695,1,0,0:0:0:0:
256,64,17929,1,0,0:0:0:0:
256,192,18164,1,0,0:0:0:0:
128,128,18398,1,0,0:0:0:0:
352,128,18632,1,0,0:0:0:0:
256,192,18867,5,0,0:0:0:0:
320,192,19101,2,0,L|384:192,3,35
384,192,19570,1,0,0:0:0:0:
192,192,19804,1,0,0:0:0:0:
160,96,20039,5,0,0:0:0:0:
288,96,20273,1,0,0:0:0:0:
224,96,20507,1,0,0:0:0:0:
128,192,20742,2,0,L|224:192,1,70
384,96,21210,1,0,0:0:0:0:
384,288,21445,1,0,0:0:0:0:
480,192,21679,1,0,0:0:0:0:
352,192,21914,2,0,L|352:128,2,35
224,192,22382,1,0,0:0:0:0:
128,288,22617,1,0,0:0:0:0:
64,160,22851,1,0,0:0:0:0:
256,192,23320,5,0,0:0:0:0:
256,192,23554,1,0,0:0:0:0:
256,64,23789,1,0,0:0:0:0:
320,128,24023,1,0,0:0:0:0:
224,128,24257,1,0,0:0:0:0:
256,64,24492,6,0,L|352:64,1,70
256,192,24960,1,0,0:0:0:0:
128,96,25195,1,0,0:0:0:0:
125,159,25429,2,0,P|99:189|120:210,1,70
256,224,25898,1,0,0:0:0:0:
256,96,26132,1,0,0:0:0:0:
352,96,26367,1,0,0:0:0:0:
384,128,26484,1,0,0:0:0:0:
416,160,26601,1,0,0:0:0:0:
320,160,26835,5,0,0:0:0:0:
320,96,27070,1,0,0:0:0:0:
416,128,27304,1,0,0:0:0:0:
416,192,27539,1,0,0:0:0:0:
288,192,27773,1,0,0:0:0:0:
128,160,28007,5,0,0:0:0:0:
141,180,28125,1,2,0:0:0:0:
159,200,28242,1,2,0:0:0:0:
185,216,28359,1,0,0:0:0:0:
216,231,28476,1,2,0:0:0:0:
252,242,28593,1,2,0:0:0:0:
293,249,28710,1,0,0:0:0:0:
338,246,28828,1,2,0:0:0:0:
373,212,28945,1,2,0:0:0:0:
396,165,29062,1,0,0:0:0:0:
377,112,29179,1,2,0:0:0:0:
331,74,29296,1,0,0:0:0:0:
269,58,29414,1,2,0:0:0:0:
203,68,29531,1,0,0:0:0:0:
140,99,29648,1,2,0:0:0:0:
87,150,29765,1,2,0:0:0:0:
68,234,29882,1,0,0:0:0:0:
192,96,30117,6,2,L|192:160,1,35
256,96,30585,2,2,L|256:160,1,35
320,96,31054,2,2,L|320:160,1,35
384,160,31406,5,0,0:0:0:0:
352,192,31523,1,0,0:0:0:0:
448,256,31757,1,0,0:0:0:0:
256,96,31992,2,0,P|288:64|320:64,1,70,2|0,0:0|0:0,0:0:0:0:
320,192,32460,1,0,0:0:0:0:
288,192,32578,1,0,0:0:0:0:
256,192,32695,1,0,0:0:0:0:
288,64,32929,2,2,B|320:32|320:32|352:64,1,70
384,192,33398,1,0,0:0:0:0:
320,192,33515,1,0,0:0:0:0:
256,192,33632,1,0,0:0:0:0:
256,96,33867,1,0,0:0:0:0:
384,32,34101,1,0,0:0:0:0:
384,96,34336,5,0,0:0:0:0:
384,128,34453,1,0,0:0:0:0:
384,160,34570,1,0,0:0:0:0:
384,224,34687,2,4,P|352:256|288:224,1,105
256,192,35273,5,0,0:0:0:0:
192,128,35507,1,0,0:0:0:0:
128,224,35742,1,0,0:0:0:0:
224,288,35976,1,0,0:0:0:0:
288,128,36210,1,0,0:0:0:0:
384,192,36445,1,0,0:0:0:0:
302,101,36679,2,0,P|256:66|224:79,1,70
202,95,37148,2,0,P|211:135|263:132,1,70
312,165,37617,2,0,P|365:145|357:113,1,70
256,64,38085,5,0,0:0:0:0:
256,352,38320,1,0,0:0:0:0:
32,192,38554,1,0,0:0:0:0:
480,192,38789,1,0,0:0:0:0:
256,32,39023,1,0,0:0:0:0:
256,352,39257,1,0,0:0:0:0:
256,192,39492,6,0,B|256:128|256:128|288:128,1,70
320,128,39960,1,2,0:0:0:0:
320,160,40078,1,2,0:0:0:0:
320,192,40195,1,2,0:0:0:0:
320,256,40429,2,0,B|320:320|320:320|288:320,1,70
256,320,40898,1,2,0:0:0:0:
256,288,41015,1,2,0:0:0:0:
256,256,41132,1,2,0:0:0:0:
256,224,41367,2,0,B|256:160|256:160|288:160,1,70
320,160,41835,2,0,B|320:224|320:224|288:224,1,70
256,224,42304,2,0,B|256:160|256:160|288:160,1,70
256,160,42773,1,0,0:0:0:0:
256,32,43007,1,0,0:0:0:0:
160,160,43242,1,0,0:0:0:0:
352,160,43476,1,0,0:0:0:0:
256,288,43710,1,0,0:0:0:0:
256,192,43945,5,0,0:0:0:0:
288,160,44062,1,0,0:0:0:0:
320,128,44179,1,0,0:0:0:0:
416,192,44414,1,0,0:0:0:0:
384,256,44648,2,0,L|288:256,1,70
288,288,45117,2,0,L|384:288,1,70
416,288,45585,2,0,B|416:224|416:224|384:224,1,70
352,224,46054,2,0,B|352:288|352:288|384:288,1,70
384,288,46523,1,0,0:0:0:0:
256,192,46757,1,0,0:0:0:0:
256,192,46992,6,0,B|288:160|288:160|320:192,1,70
352,224,47460,1,2,0:0:0:0:
384,256,47578,1,2,0:0:0:0:
416,256,47695,1,2,0:0:0:0:
480,256,47929,2,0,B|512:224|512:224|480:192,1,70
448,160,48398,1,2,0:0:0:0:
416,128,48515,1,2,0:0:0:0:
384,128,48632,1,2,0:0:0:0:
256,128,48867,6,0,P|224:96|192:128,1,70
160,160,49335,1,2,0:0:0:0:
192,192,49453,1,2,0:0:0:0:
224,224,49570,1,2,0:0:0:0:
320,256,49804,2,0,B|352:224|352:224|320:192,1,70
288,192,50273,2,0,B|256:160|256:160|288:128,1,70
352,128,50742,1,0,0:0:0:0:
288,64,50976,1,0,0:0:0:0:
224,128,51210,1,0,0:0:0:0:
256,192,51445,6,0,B|224:160|224:160|256:128,1,70
288,128,51914,2,0,L|384:128,1,70
384,160,52382,1,0,0:0:0:0:
288,64,52617,1,0,0:0:0:0:
160,192,52851,1,0,0:0:0:0:
288,192,53085,1,0,0:0:0:0:
288,320,53320,1,0,0:0:0:0:
256,192,53554,1,0,0:0:0:0:
416,96,53789,1,0,0:0:0:0:
416,192,54023,1,0,0:0:0:0:
256,192,54257,1,0,0:0:0:0:
256,192,54492,6,0,B|224:160|224:160|192:160,1,70
256,192,54960,1,2,0:0:0:0:
256,224,55078,1,2,0:0:0:0:
256,256,55195,1,2,0:0:0:0:
256,320,55429,2,0,B|288:352|288:352|320:352,1,70
384,352,55898,1,2,0:0:0:0:
384,320,56015,1,2,0:0:0:0:
352,288,56132,1,2,0:0:0:0:
256,224,56367,2,0,B|288:192|288:192|288:160,1,70
288,128,56835,2,0,B|256:96|256:96|224:96,1,70
192,96,57304,2,0,B|160:128|160:128|160:160,1,70
256,192,57773,5,0,0:0:0:0:
288,64,58007,1,0,0:0:0:0:
352,128,58242,1,0,0:0:0:0:
192,160,58476,1,0,0:0:0:0:
320,256,58710,6,0,L|384:256,2,35
256,256,59179,1,0,0:0:0:0:
224,160,59414,1,0,0:0:0:0:
160,256,59648,1,0,0:0:0:0:
320,192,59882,1,0,0:0:0:0:
221,287,60117,6,0,L|157:223,1,70
128,256,60585,2,0,L|192:320,1,70
256,224,61054,1,0,0:0:0:0:
256,192,61171,1,0,0:0:0:0:
256,160,61289,1,0,0:0:0:0:
192,160,61406,1,0,0:0:0:0:
128,160,61523,1,0,0:0:0:0:
128,192,61640,1,0,0:0:0:0:
224,96,61875,1,0,0:0:0:0:
288,224,62109,5,0,0:0:0:0:
281,150,62226,5,0,0:0:0:0:
341,108,62343,5,0,0:0:0:0:
408,139,62461,5,0,0:0:0:0:
414,212,62578,5,0,0:0:0:0:
354,255,62695,5,0,0:0:0:0:
192,288,62812,6,0,L|128:288,2,35
256,288,63281,2,0,L|256:224,1,35
256,192,63515,2,0,L|192:192,1,35
160,192,63750,2,0,L|160:256,1,35
320,256,63984,6,0,L|352:224,1,35
384,192,64218,2,0,L|352:160,1,35
320,128,64453,2,0,L|288:160,1,35
192,192,64687,2,0,L|160:160,1,35
224,64,64921,2,0,B|320:64|320:64|384:128,1,175
416,160,65742,1,0,0:0:0:0:
256,192,65976,1,0,0:0:0:0:
416,96,66210,1,0,0:0:0:0:
480,224,66445,1,0,0:0:0:0:
256,192,66679,6,0,L|256:128,1,35
160,64,66914,2,0,L|96:64,1,35
32,160,67148,2,0,L|32:224,1,35
128,320,67382,2,0,L|192:320,1,35
256,192,67617,2,0,L|256:128,1,35
128,192,67968,6,0,B|160:160|160:160|160:160,2,35
192,224,68320,1,0,0:0:0:0:
224,192,68437,1,0,0:0:0:0:
256,160,68554,1,0,0:0:0:0:
288,160,68672,1,0,0:0:0:0:
320,192,68789,1,0,0:0:0:0:
352,224,68906,1,0,0:0:0:0:
384,224,69023,1,0,0:0:0:0:
416,192,69140,1,0,0:0:0:0:
448,160,69257,1,0,0:0:0:0:
448,96,69492,6,2,B|352:96|352:96|320:128,1,140
288,64,70195,5,0,0:0:0:0:
96,192,70429,1,0,0:0:0:0:
288,224,70664,1,0,0:0:0:0:
224,64,70898,1,0,0:0:0:0:
96,96,71132,6,0,L|128:64,1,35
384,64,71367,2,0,L|416:96,1,35
416,288,71601,2,0,L|384:320,1,35
128,320,71835,2,0,L|96:288,1,35
160,192,72070,2,0,L|160:128,1,35
224,160,72304,2,0,L|224:224,1,35
288,192,72539,2,0,L|288:128,1,35
352,160,72773,2,0,L|352:224,1,35
416,192,73007,2,0,L|416:128,1,35
192,192,73242,6,0,B|256:128|256:128|384:128,1,210
352,192,73710,1,0,0:0:0:0:
320,224,73828,1,0,0:0:0:0:
288,256,73945,1,0,0:0:0:0:
128,256,74062,2,0,B|96:224|96:224|128:192,1,70
64,160,74297,2,0,L|0:224,1,70
64,256,74531,2,0,B|96:288|96:288|128:288,1,70
192,288,74766,2,0,B|192:224|192:224|160:224,1,70
192,160,75000,1,0,0:0:0:0:
192,192,75117,1,0,0:0:0:0:
128,224,75234,6,0,L|128:64,1,140
192,96,75585,2,0,L|192:256,1,140
256,256,75937,2,0,L|384:160,1,140
416,128,76289,2,0,L|256:128,1,140
192,128,76640,1,0,0:0:0:0:
192,192,76758,1,0,0:0:0:0:
192,256,76875,1,0,0:0:0:0:
192,320,76992,1,0,0:0:0:0:
256,320,77109,6,0,L|256:256,1,52.5
320,224,77929,1,0,0:0:0:0:
320,320,78164,2,0,L|352:320,1,17.5
352,288,78398,2,0,L|320:288,1,17.5
320,256,78632,2,0,L|352:256,1,17.5
384,256,78867,2,0,L|384:288,1,17.5
384,320,79101,2,0,L|416:320,1,17.5
448,320,79335,2,0,L|448:288,1,17.5
384,192,79804,1,0,0:0:0:0:
224,192,80039,6,0,L|224:160,1,17.5
192,160,80273,2,0,L|192:192,1,17.5
160,192,80507,2,0,L|160:160,1,17.5
160,128,80742,1,0,0:0:0:0:
256,96,81679,5,0,0:0:0:0:
256,128,81914,2,0,L|288:128,1,17.5
288,160,82148,2,0,L|256:160,1,17.5
256,192,82382,2,0,L|288:192,1,17.5
256,256,82617,2,0,L|288:256,2,17.5
352,96,83789,6,0,L|384:64,2,35
320,128,84492,1,0,0:0:0:0:
256,192,85429,1,0,0:0:0:0:
256,192,85664,2,0,L|288:224,2,35
256,256,86367,2,0,B|256:192|224:160|192:192|192:256|192:320|256:320|320:288|288:128,1,367.500014019013
256,32,87539,2,0,L|288:64,2,35
256,128,88242,1,0,0:0:0:0:
256,192,88476,2,0,L|160:256,1,105
320,256,89414,6,0,L|320:224,1,17.5
352,256,89648,2,0,L|352:224,1,17.5
384,256,89882,2,0,L|384:224,1,17.5
416,256,90117,2,0,L|416:224,1,17.5
256,160,91054,5,2,0:0:0:0:
352,160,91289,2,0,L|384:128,1,35
448,160,91757,2,0,L|416:192,1,35
256,192,92226,5,0,0:0:0:0:
128,192,92460,2,0,L|128:128,2,35
128,96,92929,1,0,0:0:0:0:
416,192,93398,2,0,L|416:128,2,35
416,96,93867,1,0,0:0:0:0:
288,192,94335,2,0,L|288:256,2,35
288,288,94804,1,0,0:0:0:0:
256,224,95039,5,0,0:0:0:0:
189,202,95156,1,0,0:0:0:0:
189,132,95273,1,0,0:0:0:0:
256,110,95390,1,0,0:0:0:0:
297,167,95507,1,0,0:0:0:0:
384,224,95742,2,0,L|416:256,1,35
221,212,96445,1,0,0:0:0:0:
256,151,96562,1,0,0:0:0:0:
291,212,96679,1,0,0:0:0:0:
256,192,96914,5,0,0:0:0:0:
256,192,97148,1,0,0:0:0:0:
256,192,97382,1,0,0:0:0:0:
256,192,97500,1,0,0:0:0:0:
256,192,97617,2,0,L|352:192,1,70
384,288,98085,2,0,L|184:290,1,140
96,288,98554,2,0,L|95:174,2,70
96,352,98906,1,0,0:0:0:0:
128,352,99023,1,0,0:0:0:0:
160,352,99140,1,0,0:0:0:0:
192,352,99257,1,0,0:0:0:0:
351,320,99492,6,0,B|482:283|422:167|422:167|374:189|365:180,1,210
320,32,99960,1,0,0:0:0:0:
160,96,100195,1,0,0:0:0:0:
288,192,100429,1,0,0:0:0:0:
384,128,100664,1,0,0:0:0:0:
64,224,100898,1,0,0:0:0:0:
320,256,101132,1,0,0:0:0:0:
224,128,101367,1,0,0:0:0:0:
192,320,101601,1,0,0:0:0:0:
256,128,101835,1,0,0:0:0:0:
256,192,102070,2,0,L|353:194,2,70
192,192,102539,5,0,0:0:0:0:
224,224,102656,1,0,0:0:0:0:
256,256,102773,1,0,0:0:0:0:
288,288,102890,1,0,0:0:0:0:
320,288,103007,1,0,0:0:0:0:
480,288,103242,1,0,0:0:0:0:
352,128,103945,5,0,0:0:0:0:
320,96,104062,1,0,0:0:0:0:
288,64,104179,1,0,0:0:0:0:
256,64,104296,1,0,0:0:0:0:
224,96,104414,1,0,0:0:0:0:
192,128,104531,1,0,0:0:0:0:
160,160,104648,1,0,0:0:0:0:
160,192,104765,1,0,0:0:0:0:
192,224,104882,1,0,0:0:0:0:
224,256,105000,1,0,0:0:0:0:
256,256,105117,1,0,0:0:0:0:
256,64,105585,6,0,B|160:128|160:128|158:192,1,140
352,192,106289,5,0,0:0:0:0:
352,192,106406,1,0,0:0:0:0:
352,192,106523,1,0,0:0:0:0:
448,192,106757,1,0,0:0:0:0:
160,64,106992,6,0,L|159:264,1,140
192,64,107460,1,0,0:0:0:0:
202,212,107695,1,0,0:0:0:0:
224,160,107929,1,0,0:0:0:0:
256,160,108046,1,0,0:0:0:0:
288,160,108164,1,0,0:0:0:0:
288,256,108398,1,0,0:0:0:0:
160,256,108632,1,0,0:0:0:0:
160,96,108867,1,0,0:0:0:0:
288,96,109101,1,0,0:0:0:0:
320,128,109218,1,0,0:0:0:0:
352,160,109335,1,0,0:0:0:0:
384,192,109453,1,0,0:0:0:0:
416,224,109570,1,0,0:0:0:0:
256,192,109804,5,0,0:0:0:0:
288,160,109921,1,0,0:0:0:0:
320,128,110039,1,0,0:0:0:0:
352,288,110273,1,0,0:0:0:0:
288,192,110507,1,0,0:0:0:0:
128,192,110742,1,0,0:0:0:0:
