osu file format v14

[General]
AudioFilename: Kotoba ni Dekinai Omoi.mp3
AudioLeadIn: 1223
PreviewTime: 59159
Countdown: 0
SampleSet: Soft
StackLeniency: 0.6
Mode: 0
LetterboxInBreaks: 0
WidescreenStoryboard: 1

[Editor]
Bookmarks: 19600,38424,59600,78424,101953
DistanceSpacing: 1.2
BeatDivisor: 2
GridSize: 16
TimelineZoom: 1

[Metadata]
Title:Kotoba ni Dekinai Omoi
TitleUnicode:言葉にできない想い
Artist:Kinugasa Michio
ArtistUnicode:衣笠道雄
Creator:Pata-Mon
Version:Normal
Source:WHITE ALBUM2
Tags:Leaf ホワイトアルバム2 WHITE ALBUM 2 WA2 WA 2 Leaf Galgame 小木曽雪菜 Ogiso Setsuna 冬馬かずさ Touma Kazusa Instrumental
BeatmapID:1076565
BeatmapSetID:394020

[Difficulty]
HPDrainRate:4
CircleSize:4
OverallDifficulty:4
ApproachRate:5
SliderMultiplier:1.5
SliderTickRate:1

[Events]
//Background and Video events
0,0,"BG.jpg",0,0
//Break Periods
//Storyboard Layer 0 (Background)
//Storyboard Layer 1 (Fail)
//Storyboard Layer 2 (Pass)
//Storyboard Layer 3 (Foreground)
//Storyboard Sound Samples

[TimingPoints]
777,588.235294117647,4,2,1,30,1,0
59600,-100,4,2,1,30,0,1
97394,-100,4,2,1,5,0,1
100776,-100,4,2,1,30,0,0

[Colours]
Combo1 : 96,96,0
Combo2 : 0,128,0
Combo3 : 0,0,128
Combo4 : 128,0,0

[HitObjects]
106,244,777,6,0,B|179:260|252:229|252:229|287:254|323:249,1,225,2|0,0:0|0:0,0:0:0:0:
395,195,1953,1,2,0:0:0:0:
312,160,2247,2,0,P|242:132|168:133,1,150,0|0,0:0|0:0,0:0:0:0:
119,209,3129,2,0,P|55:183|79:120,1,150,2|0,0:0|0:0,0:0:0:0:
259,120,4306,1,10,0:0:0:0:
259,120,4600,2,0,P|293:104|322:81,2,75,0|0|0,0:0|0:0|0:0,0:0:0:0:
173,147,5482,6,0,B|202:214|280:207|280:207|300:256|343:270,1,225,2|0,0:0|0:0,0:0:0:0:
433,270,6659,2,0,P|464:250|486:219,1,75,2|0,0:0|0:0,0:0:0:0:
364,87,7541,2,0,P|332:106|310:137,1,75,0|2,0:0|0:0,0:0:0:0:
207,284,8424,2,0,P|156:229|132:159,1,150,0|10,0:0|0:0,0:0:0:0:
310,137,9600,2,0,P|341:117|363:86,1,75
440,40,10188,6,0,B|471:95|430:133|457:186,1,150,2|0,0:0|0:0,0:0:0:0:
504,263,11071,1,0,0:0:0:0:
427,310,11365,2,0,B|373:337|335:296|280:327,1,150,2|0,0:0|0:0,0:0:0:0:
204,374,12247,1,0,0:0:0:0:
157,297,12541,2,0,P|85:296|48:358,2,150,2|0|10,0:0|0:0|0:0,0:0:0:0:
297,184,14306,2,0,P|309:148|313:111,1,75
364,37,14894,6,0,B|409:30|409:30|460:51|511:35,2,150,2|0|2,0:0|0:0|0:0,0:0:0:0:
185,10,16659,1,0,0:0:0:0:
140,88,16953,1,0,0:0:0:0:
198,157,17247,2,0,P|270:155|319:101,1,150,2|0,0:0|0:0,0:0:0:0:
140,88,18424,2,0,P|107:153|134:221,1,150,10|0,0:0|0:0,0:0:0:0:
312,245,19600,6,0,P|335:343|236:368,1,225
167,311,20776,1,2,0:0:0:0:
80,286,21071,2,0,P|44:342|103:374,1,150
167,311,21953,2,0,P|241:303|316:311,1,150,2|0,0:0|0:0,0:0:0:0:
484,373,23129,1,10,0:0:0:0:
484,373,23424,2,0,P|448:383|410:384,2,75,0|0|0,0:0|0:0|0:0,0:0:0:0:
512,287,24306,6,0,B|444:186|402:267|331:165,1,225,2|0,0:0|0:0,0:0:0:0:
291,86,25482,2,0,P|326:76|363:81,1,75,2|0,0:0|0:0,0:0:0:0:
271,236,26365,1,0,0:0:0:0:
194,282,26659,2,0,P|119:285|49:259,2,150,2|0|10,0:0|0:0|0:0,0:0:0:0:
329,162,28424,1,0,0:0:0:0:
302,76,28718,1,0,0:0:0:0:
375,23,29012,6,0,P|437:63|471:129,1,150,2|0,0:0|0:0,0:0:0:0:
464,219,29894,1,0,0:0:0:0:
390,168,30188,2,0,P|327:208|293:274,1,150,2|0,0:0|0:0,0:0:0:0:
301,363,31070,1,0,0:0:0:0:
219,325,31365,2,0,P|145:311|72:325,1,150,2|0,0:0|0:0,0:0:0:0:
9,261,32247,2,0,P|2:224|0:186,1,75,0|10,0:0|0:0,0:0:0:0:
76,139,32835,2,0,P|83:102|85:64,2,75,0|0|0,0:0|0:0|0:0,0:0:0:0:
139,203,33718,6,0,P|206:234|280:237,1,150,2|0,0:0|0:0,0:0:0:0:
390,94,34894,2,0,P|322:62|248:59,1,150,2|0,0:0|0:0,0:0:0:0:
280,237,36071,2,0,P|276:311|244:378,2,150,2|0|10,0:0|0:0|0:0,0:0:0:0:
24,150,38129,1,0,0:0:0:0:
0,62,38424,6,0,B|39:52|39:52|90:84|142:83,1,150,2|0,0:0|0:0,0:0:0:0:
231,70,39306,1,0,0:0:0:0:
271,150,39600,2,0,P|307:157|344:161,1,75,2|0,0:0|0:0,0:0:0:0:
389,82,40188,2,0,P|425:74|462:70,1,75,0|0,0:0|0:0,0:0:0:0:
512,145,40776,2,0,B|499:182|499:182|511:234|498:292,2,150,2|0|10,0:0|0:0|0:0,0:0:0:0:
255,228,42835,1,0,0:0:0:0:
341,201,43129,6,0,P|369:133|338:67,1,150,2|0,0:0|0:0,0:0:0:0:
255,228,44306,2,0,P|303:282|376:283,1,150,2|0,0:0|0:0,0:0:0:0:
269,139,45482,2,0,P|198:157|165:222,2,150,2|0|10,0:0|0:0|0:0,0:0:0:0:
460,330,47541,1,0,0:0:0:0:
407,257,47835,6,0,P|395:184|407:110,1,150,2|0,0:0|0:0,0:0:0:0:
460,37,48718,1,0,0:0:0:0:
371,26,49012,2,0,P|340:47|321:79,1,75,2|0,0:0|0:0,0:0:0:0:
248,133,49600,2,0,P|216:113|194:83,1,75,0|0,0:0|0:0,0:0:0:0:
147,7,50188,2,0,P|106:67|123:138,2,150,2|0|10,0:0|0:0|0:0,0:0:0:0:
241,260,52247,1,0,0:0:0:0:
174,320,52541,6,0,P|99:323|30:296,1,150,2|0,0:0|0:0,0:0:0:0:
0,212,53424,1,0,0:0:0:0:
78,167,53718,2,0,P|152:170|221:143,1,150,2|0,0:0|0:0,0:0:0:0:
252,59,54601,1,0,0:0:0:0:
340,42,54894,2,0,B|400:42|420:90|480:90,2,150,2|0|10,0:0|0:0|0:0,0:0:0:0:
140,341,57247,2,0,B|80:341|60:293|0:293,2,150,2|0|2,0:0|0:0|0:0,0:0:0:0:
409,324,59306,1,0,0:0:0:0:
480,269,59600,6,0,P|490:232|493:195,1,75,2|0,0:0|0:0,0:0:0:0:
415,150,60188,2,0,P|404:113|401:76,1,75
315,50,60776,2,0,P|272:102|325:143,1,150,2|0,0:0|0:0,0:0:0:0:
415,150,61659,1,0,0:0:0:0:
438,237,61953,2,0,P|410:262|377:279,1,75,2|0,0:0|0:0,0:0:0:0:
305,225,62541,2,0,P|269:213|231:211,1,75
198,294,63129,2,0,P|132:328|59:316,1,150,10|0,0:0|0:0,0:0:0:0:
0,249,64012,1,0,0:0:0:0:
35,166,64306,6,0,P|100:131|173:143,1,150,2|0,0:0|0:0,0:0:0:0:
231,211,65188,1,0,0:0:0:0:
289,280,65482,2,0,P|361:291|426:256,1,150,2|2,0:0|0:0,0:0:0:0:
439,75,66659,2,0,B|356:91|340:173|340:173|305:158|265:165,1,225,2|0,0:0|0:0,0:0:0:0:
182,199,67835,1,10,0:0:0:0:
182,199,68129,2,0,P|165:232|164:269,2,75
253,254,69012,6,0,P|326:264|397:242,1,150,2|0,0:0|0:0,0:0:0:0:
459,177,69894,2,0,P|404:131|420:61,1,150,2|0,0:0|0:0,0:0:0:0:
342,18,70776,2,0,P|305:9|268:7,1,75,2|0,0:0|0:0,0:0:0:0:
194,59,71365,2,0,B|194:115|154:131|154:201,2,150,2|0|10,0:0|0:0|0:0,0:0:0:0:
397,236,73424,1,0,0:0:0:0:
390,146,73718,6,0,P|329:104|258:121,1,150,2|0,0:0|0:0,0:0:0:0:
397,236,74894,2,0,P|461:201|478:130,1,150,2|0,0:0|0:0,0:0:0:0:
336,20,76071,2,0,P|272:55|255:126,1,150,2|0,0:0|0:0,0:0:0:0:
275,213,76953,1,0,0:0:0:0:
211,276,77247,2,0,P|141:296|78:258,1,150,10|0,0:0|0:0,0:0:0:0:
38,178,78129,1,0,0:0:0:0:
65,92,78424,6,0,P|96:72|133:68,1,75,2|0,0:0|0:0,0:0:0:0:
126,158,79012,2,0,P|162:153|194:134,1,75
262,72,79600,2,0,P|333:93|406:80,1,150,2|0,0:0|0:0,0:0:0:0:
476,23,80482,1,0,0:0:0:0:
491,112,80776,2,0,P|487:149|477:185,1,75,2|0,0:0|0:0,0:0:0:0:
401,234,81365,2,0,P|405:271|415:307,1,75,0|0,0:0|0:0,0:0:0:0:
357,376,81953,2,0,P|284:370|240:311,1,150,10|0,0:0|0:0,0:0:0:0:
249,222,82835,1,0,0:0:0:0:
167,259,83129,6,0,P|94:253|50:194,1,150,2|0,0:0|0:0,0:0:0:0:
59,105,84012,1,0,0:0:0:0:
132,53,84306,2,0,P|204:58|248:116,1,150,2|2,0:0|0:0,0:0:0:0:
421,67,85482,2,0,B|453:147|397:211|428:288,1,225,2|0,0:0|0:0,0:0:0:0:
473,367,86659,1,10,0:0:0:0:
473,367,86953,2,0,P|437:378|400:374,2,75,0|0|0,0:0|0:0|0:0,0:0:0:0:
428,288,87835,6,0,P|356:267|282:275,1,150,2|0,0:0|0:0,0:0:0:0:
211,330,88718,2,0,P|173:329|136:321,2,75,2|0|0,0:0|0:0|0:0,0:0:0:0:
282,275,89600,2,0,P|278:237|280:200,1,75,2|0,0:0|0:0,0:0:0:0:
305,114,90188,2,0,B|343:124|361:161|361:161|399:171|417:208,2,150,2|0|10,0:0|0:0|0:0,0:0:0:0:
70,248,92247,1,0,0:0:0:0:
157,225,92541,6,0,P|190:207|216:181,1,75,2|0,0:0|0:0,0:0:0:0:
256,101,93129,1,0,0:0:0:0:
345,258,93718,2,0,P|400:208|431:140,1,150,2|0,0:0|0:0,0:0:0:0:
256,101,94894,2,0,P|221:114|184:120,1,75,2|0,0:0|0:0,0:0:0:0:
137,43,95482,2,0,P|102:29|65:23,1,75,0|0,0:0|0:0,0:0:0:0:
6,91,96071,2,0,P|9:165|42:231,1,150,10|0,0:0|0:0,0:0:0:0:
184,120,97247,5,2,0:0:0:0:
256,192,97394,12,10,100776,0:0:0:0:
