osu file format v14

[General]
AudioFilename: audio.mp3
AudioLeadIn: 0
PreviewTime: 61621
Countdown: 0
SampleSet: Normal
StackLeniency: 0.7
Mode: 1
LetterboxInBreaks: 0
WidescreenStoryboard: 0

[Editor]
Bookmarks: 1451,6936,12422,17908,26136,37107,48078,53564,59050,61793,72764,83735,89221
DistanceSpacing: 1.1
BeatDivisor: 4
GridSize: 32
TimelineZoom: 2.3

[Metadata]
Title:Mogitate Fruit Girls (TV Size)
TitleUnicode:も・ぎ・た・て♥フルーツガールズ (TV Size)
Artist:Kinoshita Ringo (CV: Tamura Yukari) & Nakazawa Minori (CV: Hanazawa Kana)
ArtistUnicode:木下林檎 (CV:田村ゆかり) & 中沢農 (CV:花澤香菜)
Creator:Creamy Candy
Version:Roger's Oni
Source:のうりん
Tags:ending ed nourin no-rin ][ -GH- ][ Roger anime japanese pop jpop j-pop
BeatmapID:2648387
BeatmapSetID:1193386

[Difficulty]
HPDrainRate:6
CircleSize:2
OverallDifficulty:5.5
ApproachRate:0
SliderMultiplier:1.4
SliderTickRate:1

[Events]
//Background and Video events
0,0,"bg nourin 1.jpg",0,70
//Break Periods
//Storyboard Layer 0 (Background)
//Storyboard Layer 1 (Fail)
//Storyboard Layer 2 (Pass)
//Storyboard Layer 3 (Foreground)
//Storyboard Layer 4 (Overlay)
//Storyboard Sound Samples

[TimingPoints]
1451,342.857142857143,4,1,0,80,1,0
6936,-100,4,1,0,90,0,0
12422,-100,4,1,0,95,0,0
17908,-100,4,1,0,100,0,0
26136,342.857142857143,4,1,0,90,1,0
35650,-100,4,1,0,80,0,0
35736,-100,4,1,0,70,0,0
35821,-100,4,1,0,60,0,0
37021,-100,4,1,0,85,0,0
37107,-100,4,1,0,95,0,0
61793,342.857142857143,4,1,0,100,1,1
83735,-100,4,1,0,95,0,0
86478,-100,4,1,0,80,0,0

[HitObjects]
256,352,1451,5,4,0:0:0:0:
256,352,1793,1,8,0:0:0:0:
256,352,1965,1,8,0:0:0:0:
256,352,2308,1,0,0:0:0:0:
256,352,2479,1,8,0:0:0:0:
256,352,2822,1,0,0:0:0:0:
256,352,3165,1,8,0:0:0:0:
256,352,3336,1,8,0:0:0:0:
256,352,3508,1,0,0:0:0:0:
256,352,3679,1,0,0:0:0:0:
256,352,3851,1,8,0:0:0:0:
256,352,4193,1,4,0:0:0:0:
256,352,4536,1,8,0:0:0:0:
256,352,4708,1,8,0:0:0:0:
256,352,5051,1,0,0:0:0:0:
256,352,5222,1,8,0:0:0:0:
256,352,5565,1,8,0:0:0:0:
256,352,5736,1,0,0:0:0:0:
256,352,5822,1,0,0:0:0:0:
256,352,5908,1,8,0:0:0:0:
256,352,6079,1,8,0:0:0:0:
256,352,6165,1,8,0:0:0:0:
256,352,6251,1,0,0:0:0:0:
256,352,6336,1,0,0:0:0:0:
256,352,6422,1,0,0:0:0:0:
256,352,6593,1,8,0:0:0:0:
256,352,6936,1,12,0:0:0:0:
256,352,7622,1,0,0:0:0:0:
256,352,8308,1,8,0:0:0:0:
256,352,8651,1,0,0:0:0:0:
256,352,8822,1,0,0:0:0:0:
256,352,8993,1,0,0:0:0:0:
256,352,9336,1,8,0:0:0:0:
256,352,9679,1,0,0:0:0:0:
256,352,10022,1,8,0:0:0:0:
256,352,10193,1,0,0:0:0:0:
256,352,10365,1,8,0:0:0:0:
256,352,10708,1,0,0:0:0:0:
256,352,10879,1,0,0:0:0:0:
256,352,11051,1,8,0:0:0:0:
256,352,11736,1,8,0:0:0:0:
256,352,11822,1,8,0:0:0:0:
256,352,11908,1,0,0:0:0:0:
256,352,11993,1,0,0:0:0:0:
256,352,12079,1,8,0:0:0:0:
256,352,12251,1,8,0:0:0:0:
256,352,12422,1,4,0:0:0:0:
256,352,12765,1,8,0:0:0:0:
256,352,12936,1,0,0:0:0:0:
256,352,13108,1,0,0:0:0:0:
256,352,13193,1,0,0:0:0:0:
256,352,13279,1,0,0:0:0:0:
256,352,13451,1,8,0:0:0:0:
256,352,13622,1,0,0:0:0:0:
256,352,13708,1,0,0:0:0:0:
256,352,13793,1,8,0:0:0:0:
256,352,13965,1,0,0:0:0:0:
256,352,14136,1,0,0:0:0:0:
256,352,14308,1,12,0:0:0:0:
256,352,14651,1,0,0:0:0:0:
256,352,14736,1,0,0:0:0:0:
256,352,14822,1,8,0:0:0:0:
256,352,14908,1,8,0:0:0:0:
256,352,14993,1,8,0:0:0:0:
256,352,15165,1,4,0:0:0:0:
256,352,15422,1,4,0:0:0:0:
256,352,15679,1,4,0:0:0:0:
256,352,15851,1,12,0:0:0:0:
256,352,16108,1,12,0:0:0:0:
256,352,16365,1,12,0:0:0:0:
256,352,16536,1,4,0:0:0:0:
256,352,16879,1,8,0:0:0:0:
256,352,17051,1,0,0:0:0:0:
256,352,17136,1,0,0:0:0:0:
256,352,17222,1,8,0:0:0:0:
256,352,17393,1,0,0:0:0:0:
256,352,17565,1,8,0:0:0:0:
256,352,17908,1,12,0:0:0:0:
256,352,18079,1,0,0:0:0:0:
256,352,18165,1,0,0:0:0:0:
256,352,18251,1,0,0:0:0:0:
256,352,18422,1,8,0:0:0:0:
256,352,18593,1,0,0:0:0:0:
256,352,18765,1,8,0:0:0:0:
256,352,18851,1,0,0:0:0:0:
256,352,18936,1,0,0:0:0:0:
256,352,19108,1,8,0:0:0:0:
256,352,19451,1,0,0:0:0:0:
256,352,19622,1,8,0:0:0:0:
256,352,19793,1,8,0:0:0:0:
256,352,19879,1,8,0:0:0:0:
256,352,19965,1,8,0:0:0:0:
256,352,20136,1,0,0:0:0:0:
256,352,20308,1,8,0:0:0:0:
256,352,20479,1,8,0:0:0:0:
256,352,20651,1,0,0:0:0:0:
256,352,20822,1,0,0:0:0:0:
256,352,20993,1,8,0:0:0:0:
256,352,21165,1,0,0:0:0:0:
256,352,21251,1,0,0:0:0:0:
256,352,21336,1,0,0:0:0:0:
256,352,21508,1,8,0:0:0:0:
256,352,21679,1,0,0:0:0:0:
256,352,21851,1,8,0:0:0:0:
256,352,22193,1,8,0:0:0:0:
256,352,22279,1,8,0:0:0:0:
256,352,22365,1,0,0:0:0:0:
256,352,22536,1,8,0:0:0:0:
256,352,22708,1,0,0:0:0:0:
256,352,22879,1,8,0:0:0:0:
256,352,23051,1,0,0:0:0:0:
256,352,23136,1,0,0:0:0:0:
256,352,23222,1,0,0:0:0:0:
256,352,23393,1,12,0:0:0:0:
256,352,23565,1,0,0:0:0:0:
256,352,23736,1,8,0:0:0:0:
256,352,23908,1,4,0:0:0:0:
256,352,24251,1,4,0:0:0:0:
256,352,24593,1,12,0:0:0:0:
256,352,24936,1,8,0:0:0:0:
256,352,25022,1,8,0:0:0:0:
256,352,25108,1,0,0:0:0:0:
256,352,25193,1,0,0:0:0:0:
256,352,25279,1,0,0:0:0:0:
256,352,25451,1,12,0:0:0:0:
256,352,25622,1,12,0:0:0:0:
256,352,26136,1,4,0:0:0:0:
256,352,26478,1,0,0:0:0:0:
256,352,26650,1,0,0:0:0:0:
256,352,26821,1,8,0:0:0:0:
256,352,26993,1,0,0:0:0:0:
256,352,27164,1,8,0:0:0:0:
256,352,27336,1,8,0:0:0:0:
256,352,27507,1,0,0:0:0:0:
256,352,27850,1,0,0:0:0:0:
256,352,28021,1,0,0:0:0:0:
256,352,28193,1,8,0:0:0:0:
256,352,28278,1,0,0:0:0:0:
256,352,28364,1,0,0:0:0:0:
256,352,28536,1,0,0:0:0:0:
256,352,28707,1,8,0:0:0:0:
256,352,28878,1,0,0:0:0:0:
256,352,29221,1,8,0:0:0:0:
256,352,29393,1,0,0:0:0:0:
256,352,29564,1,8,0:0:0:0:
256,352,29736,1,0,0:0:0:0:
256,352,29907,1,0,0:0:0:0:
256,352,30078,1,8,0:0:0:0:
256,352,30250,1,0,0:0:0:0:
256,352,30593,1,8,0:0:0:0:
256,352,30764,1,0,0:0:0:0:
256,352,30936,1,8,0:0:0:0:
256,352,31021,1,0,0:0:0:0:
256,352,31107,1,0,0:0:0:0:
256,352,31278,1,8,0:0:0:0:
256,352,31450,1,8,0:0:0:0:
256,352,31621,1,0,0:0:0:0:
256,352,31964,1,8,0:0:0:0:
256,352,32136,1,0,0:0:0:0:
256,352,32307,1,0,0:0:0:0:
256,352,32393,1,0,0:0:0:0:
256,352,32478,1,0,0:0:0:0:
256,352,32650,1,8,0:0:0:0:
256,352,32821,1,8,0:0:0:0:
256,352,32993,1,0,0:0:0:0:
256,352,33336,1,8,0:0:0:0:
256,352,33507,1,0,0:0:0:0:
256,352,33678,1,8,0:0:0:0:
256,352,33764,1,0,0:0:0:0:
256,352,33850,1,0,0:0:0:0:
256,352,34021,1,8,0:0:0:0:
256,352,34193,1,0,0:0:0:0:
256,352,34364,1,8,0:0:0:0:
256,352,34707,1,8,0:0:0:0:
256,352,34878,1,0,0:0:0:0:
256,352,35050,1,0,0:0:0:0:
256,352,35136,1,0,0:0:0:0:
256,352,35221,1,0,0:0:0:0:
256,352,35393,1,8,0:0:0:0:
256,352,35564,1,0,0:0:0:0:
256,352,35650,1,0,0:0:0:0:
256,352,35736,1,8,0:0:0:0:
256,352,35907,1,0,0:0:0:0:
256,352,36078,1,8,0:0:0:0:
256,352,36250,1,8,0:0:0:0:
256,352,36421,1,0,0:0:0:0:
256,352,36593,1,8,0:0:0:0:
256,352,36764,1,8,0:0:0:0:
256,352,36936,1,0,0:0:0:0:
256,352,37107,1,4,0:0:0:0:
256,352,37450,1,8,0:0:0:0:
256,352,37621,1,0,0:0:0:0:
256,352,37707,1,0,0:0:0:0:
256,352,37793,1,8,0:0:0:0:
256,352,37964,1,0,0:0:0:0:
256,352,38136,1,8,0:0:0:0:
256,352,38307,1,8,0:0:0:0:
256,352,38478,1,0,0:0:0:0:
256,352,38564,1,0,0:0:0:0:
256,352,38650,1,0,0:0:0:0:
256,352,38821,1,8,0:0:0:0:
256,352,38993,1,0,0:0:0:0:
256,352,39164,1,8,0:0:0:0:
256,352,39336,1,0,0:0:0:0:
256,352,39507,1,8,0:0:0:0:
256,352,39593,1,0,0:0:0:0:
256,352,39678,1,8,0:0:0:0:
256,352,39850,1,0,0:0:0:0:
256,352,40193,1,8,0:0:0:0:
256,352,40364,1,0,0:0:0:0:
256,352,40450,1,0,0:0:0:0:
256,352,40536,1,8,0:0:0:0:
256,352,40707,1,0,0:0:0:0:
256,352,40878,1,8,0:0:0:0:
256,352,41050,1,8,0:0:0:0:
256,352,41221,1,0,0:0:0:0:
256,352,41393,1,0,0:0:0:0:
256,352,41564,1,8,0:0:0:0:
256,352,41736,1,0,0:0:0:0:
256,352,41821,1,0,0:0:0:0:
256,352,41907,1,8,0:0:0:0:
256,352,42078,1,0,0:0:0:0:
256,352,42250,1,8,0:0:0:0:
256,352,42421,1,8,0:0:0:0:
256,352,42507,1,8,0:0:0:0:
256,352,42593,1,0,0:0:0:0:
256,352,42936,1,8,0:0:0:0:
256,352,43107,1,0,0:0:0:0:
256,352,43193,1,0,0:0:0:0:
256,352,43278,1,8,0:0:0:0:
256,352,43450,1,0,0:0:0:0:
256,352,43621,1,8,0:0:0:0:
256,352,43793,1,8,0:0:0:0:
256,352,43964,1,0,0:0:0:0:
256,352,44050,1,0,0:0:0:0:
256,352,44136,1,0,0:0:0:0:
256,352,44307,1,8,0:0:0:0:
256,352,44478,1,0,0:0:0:0:
256,352,44564,1,0,0:0:0:0:
256,352,44650,1,8,0:0:0:0:
256,352,44821,1,0,0:0:0:0:
256,352,44993,1,8,0:0:0:0:
256,352,45164,1,0,0:0:0:0:
256,352,45250,1,8,0:0:0:0:
256,352,45336,1,0,0:0:0:0:
256,352,45678,1,8,0:0:0:0:
256,352,45850,1,0,0:0:0:0:
256,352,45936,1,0,0:0:0:0:
256,352,46021,1,0,0:0:0:0:
256,352,46193,1,8,0:0:0:0:
256,352,46364,1,0,0:0:0:0:
256,352,46536,1,12,0:0:0:0:
256,352,46878,1,0,0:0:0:0:
256,352,47050,1,8,0:0:0:0:
256,352,47221,1,0,0:0:0:0:
256,352,47393,1,8,0:0:0:0:
256,352,47478,1,0,0:0:0:0:
256,352,47564,1,8,0:0:0:0:
256,352,47650,1,8,0:0:0:0:
256,352,47736,1,0,0:0:0:0:
256,352,47907,1,8,0:0:0:0:
256,352,48078,1,0,0:0:0:0:
256,352,48250,1,0,0:0:0:0:
256,352,48421,1,4,0:0:0:0:
256,352,48764,1,4,0:0:0:0:
256,352,49107,1,8,0:0:0:0:
256,352,49278,1,12,0:0:0:0:
256,352,49621,1,0,0:0:0:0:
256,352,49793,1,8,0:0:0:0:
256,352,50136,1,8,0:0:0:0:
256,352,50307,1,0,0:0:0:0:
256,352,50393,1,0,0:0:0:0:
256,352,50478,1,8,0:0:0:0:
256,352,50650,1,8,0:0:0:0:
256,352,50821,1,0,0:0:0:0:
256,352,50993,1,0,0:0:0:0:
256,352,51164,1,12,0:0:0:0:
256,352,51507,1,12,0:0:0:0:
256,352,51850,1,0,0:0:0:0:
256,352,52021,1,4,0:0:0:0:
256,352,52364,1,8,0:0:0:0:
256,352,52536,1,0,0:0:0:0:
256,352,52707,1,8,0:0:0:0:
256,352,52793,1,0,0:0:0:0:
256,352,52878,1,0,0:0:0:0:
256,352,53050,1,0,0:0:0:0:
256,352,53221,1,8,0:0:0:0:
256,352,53393,1,0,0:0:0:0:
256,352,53736,1,8,0:0:0:0:
256,352,53907,1,0,0:0:0:0:
256,352,54078,1,8,0:0:0:0:
256,352,54250,1,0,0:0:0:0:
256,352,54421,1,8,0:0:0:0:
256,352,54507,1,0,0:0:0:0:
256,352,54593,1,8,0:0:0:0:
256,352,54764,1,0,0:0:0:0:
256,352,55107,1,0,0:0:0:0:
256,352,55278,1,8,0:0:0:0:
256,352,55450,1,0,0:0:0:0:
256,352,55621,1,0,0:0:0:0:
256,352,55707,1,8,0:0:0:0:
256,352,55793,1,0,0:0:0:0:
256,352,55964,1,8,0:0:0:0:
256,352,56136,1,8,0:0:0:0:
256,352,56307,1,0,0:0:0:0:
256,352,56650,1,8,0:0:0:0:
256,352,56821,1,0,0:0:0:0:
256,352,56993,1,0,0:0:0:0:
256,352,57078,1,0,0:0:0:0:
256,352,57164,1,0,0:0:0:0:
256,352,57336,1,8,0:0:0:0:
256,352,57507,1,0,0:0:0:0:
256,352,57593,1,8,0:0:0:0:
256,352,57678,1,0,0:0:0:0:
256,352,58021,1,8,0:0:0:0:
256,352,58193,1,0,0:0:0:0:
256,352,58364,1,8,0:0:0:0:
256,352,58450,1,0,0:0:0:0:
256,352,58536,1,0,0:0:0:0:
256,352,58707,1,8,0:0:0:0:
256,352,59050,1,12,0:0:0:0:
256,352,59307,1,4,0:0:0:0:
256,352,59564,1,12,0:0:0:0:
256,352,59736,1,12,0:0:0:0:
256,352,59993,1,4,0:0:0:0:
256,352,60250,1,12,0:0:0:0:
256,352,60421,1,0,0:0:0:0:
256,352,60593,1,0,0:0:0:0:
256,352,60678,1,0,0:0:0:0:
256,352,60764,1,8,0:0:0:0:
256,352,60936,1,8,0:0:0:0:
256,352,61021,1,8,0:0:0:0:
256,352,61107,1,0,0:0:0:0:
256,352,61193,1,0,0:0:0:0:
256,352,61278,1,0,0:0:0:0:
256,352,61450,1,8,0:0:0:0:
256,352,61793,1,12,0:0:0:0:
256,352,62050,1,0,0:0:0:0:
256,352,62135,1,8,0:0:0:0:
256,352,62307,1,0,0:0:0:0:
256,352,62478,1,0,0:0:0:0:
256,352,62564,1,0,0:0:0:0:
256,352,62650,1,0,0:0:0:0:
256,352,62821,1,8,0:0:0:0:
256,352,63164,1,8,0:0:0:0:
256,352,63335,1,0,0:0:0:0:
256,352,63421,1,0,0:0:0:0:
256,352,63507,1,8,0:0:0:0:
256,352,63678,1,0,0:0:0:0:
256,352,63850,1,8,0:0:0:0:
256,352,63935,1,8,0:0:0:0:
256,352,64021,1,0,0:0:0:0:
256,352,64193,1,8,0:0:0:0:
256,352,64364,1,0,0:0:0:0:
256,352,64450,1,0,0:0:0:0:
256,352,64535,1,8,0:0:0:0:
256,352,64621,1,8,0:0:0:0:
256,352,64707,1,0,0:0:0:0:
256,352,64878,1,8,0:0:0:0:
256,352,65050,1,0,0:0:0:0:
256,352,65221,1,0,0:0:0:0:
256,352,65307,1,0,0:0:0:0:
256,352,65393,1,0,0:0:0:0:
256,352,65564,1,8,0:0:0:0:
256,352,65735,1,0,0:0:0:0:
256,352,65821,1,0,0:0:0:0:
256,352,65907,1,8,0:0:0:0:
256,352,66250,1,8,0:0:0:0:
256,352,66421,1,0,0:0:0:0:
256,352,66593,1,8,0:0:0:0:
256,352,66678,1,8,0:0:0:0:
256,352,66764,1,0,0:0:0:0:
256,352,66850,1,0,0:0:0:0:
256,352,66935,1,0,0:0:0:0:
256,352,67107,1,0,0:0:0:0:
256,352,67278,1,12,0:0:0:0:
256,352,67535,1,0,0:0:0:0:
256,352,67621,1,8,0:0:0:0:
256,352,67793,1,0,0:0:0:0:
256,352,67964,1,8,0:0:0:0:
256,352,68050,1,0,0:0:0:0:
256,352,68135,1,8,0:0:0:0:
256,352,68307,1,0,0:0:0:0:
256,352,68478,1,8,0:0:0:0:
256,352,68564,1,8,0:0:0:0:
256,352,68650,1,0,0:0:0:0:
256,352,68735,1,0,0:0:0:0:
256,352,68821,1,0,0:0:0:0:
256,352,68993,1,8,0:0:0:0:
256,352,69164,1,0,0:0:0:0:
256,352,69250,1,0,0:0:0:0:
256,352,69335,1,8,0:0:0:0:
256,352,69507,1,0,0:0:0:0:
256,352,69678,1,8,0:0:0:0:
256,352,70021,1,8,0:0:0:0:
256,352,70193,1,0,0:0:0:0:
256,352,70278,1,0,0:0:0:0:
256,352,70364,1,8,0:0:0:0:
256,352,70535,1,0,0:0:0:0:
256,352,70707,1,8,0:0:0:0:
256,352,70793,1,0,0:0:0:0:
256,352,70878,1,8,0:0:0:0:
256,352,70964,1,8,0:0:0:0:
256,352,71050,1,0,0:0:0:0:
256,352,71221,1,0,0:0:0:0:
256,352,71307,1,0,0:0:0:0:
256,352,71393,1,8,0:0:0:0:
256,352,71564,1,0,0:0:0:0:
256,352,71735,1,8,0:0:0:0:
256,352,71907,1,8,0:0:0:0:
256,352,71993,1,8,0:0:0:0:
256,352,72078,1,8,0:0:0:0:
256,352,72335,1,8,0:0:0:0:
256,352,72593,1,8,0:0:0:0:
256,352,72764,1,4,0:0:0:0:
256,352,73107,1,12,0:0:0:0:
256,352,73278,1,0,0:0:0:0:
256,352,73450,1,8,0:0:0:0:
256,352,73535,1,0,0:0:0:0:
256,352,73621,1,0,0:0:0:0:
256,352,73793,1,8,0:0:0:0:
256,352,74135,1,8,0:0:0:0:
256,352,74307,1,0,0:0:0:0:
256,352,74393,1,0,0:0:0:0:
256,352,74478,1,8,0:0:0:0:
256,352,74650,1,0,0:0:0:0:
256,352,74821,1,8,0:0:0:0:
256,352,74907,1,8,0:0:0:0:
256,352,74993,1,0,0:0:0:0:
256,352,75164,1,8,0:0:0:0:
256,352,75335,1,0,0:0:0:0:
256,352,75421,1,0,0:0:0:0:
256,352,75507,1,8,0:0:0:0:
256,352,75593,1,8,0:0:0:0:
256,352,75678,1,0,0:0:0:0:
256,352,75850,1,8,0:0:0:0:
256,352,76021,1,0,0:0:0:0:
256,352,76193,1,8,0:0:0:0:
256,352,76278,1,0,0:0:0:0:
256,352,76364,1,0,0:0:0:0:
256,352,76535,1,8,0:0:0:0:
256,352,76707,1,0,0:0:0:0:
256,352,76793,1,0,0:0:0:0:
256,352,76878,1,8,0:0:0:0:
256,352,77221,1,8,0:0:0:0:
256,352,77393,1,0,0:0:0:0:
256,352,77564,1,0,0:0:0:0:
256,352,77650,1,0,0:0:0:0:
256,352,77735,1,8,0:0:0:0:
256,352,77821,1,0,0:0:0:0:
256,352,77907,1,8,0:0:0:0:
256,352,78078,1,0,0:0:0:0:
256,352,78250,1,12,0:0:0:0:
256,352,78507,1,0,0:0:0:0:
256,352,78593,1,8,0:0:0:0:
256,352,78764,1,0,0:0:0:0:
256,352,78935,1,0,0:0:0:0:
256,352,79021,1,0,0:0:0:0:
256,352,79107,1,0,0:0:0:0:
256,352,79278,1,8,0:0:0:0:
256,352,79450,1,0,0:0:0:0:
256,352,79535,1,0,0:0:0:0:
256,352,79621,1,8,0:0:0:0:
256,352,79793,1,0,0:0:0:0:
256,352,79964,1,0,0:0:0:0:
256,352,80135,1,12,0:0:0:0:
256,352,80478,1,0,0:0:0:0:
256,352,80564,1,0,0:0:0:0:
256,352,80650,1,8,0:0:0:0:
256,352,80735,1,8,0:0:0:0:
256,352,80821,1,8,0:0:0:0:
256,352,80993,1,4,0:0:0:0:
256,352,81250,1,4,0:0:0:0:
256,352,81507,1,4,0:0:0:0:
256,352,81678,1,12,0:0:0:0:
256,352,81935,1,12,0:0:0:0:
256,352,82193,1,12,0:0:0:0:
256,352,82364,1,4,0:0:0:0:
256,352,82707,1,8,0:0:0:0:
256,352,82878,1,0,0:0:0:0:
256,352,82964,1,0,0:0:0:0:
256,352,83050,1,8,0:0:0:0:
256,352,83221,1,0,0:0:0:0:
256,352,83393,1,8,0:0:0:0:
256,352,83735,1,12,0:0:0:0:
256,352,83907,1,0,0:0:0:0:
256,352,83993,1,0,0:0:0:0:
256,352,84078,1,8,0:0:0:0:
256,352,84250,1,4,0:0:0:0:
256,352,84593,1,4,0:0:0:0:
256,352,84935,1,12,0:0:0:0:
256,352,85107,1,0,0:0:0:0:
256,352,85278,1,8,0:0:0:0:
256,352,85364,1,8,0:0:0:0:
256,352,85450,1,0,0:0:0:0:
256,352,85535,1,0,0:0:0:0:
256,352,85621,1,0,0:0:0:0:
256,352,85793,1,12,0:0:0:0:
256,352,85964,1,12,0:0:0:0:
256,352,86307,1,4,0:0:0:0:
256,192,86478,8,0,89221,0:0:0:0:
