osu file format v14

[General]
AudioFilename: audio.mp3
AudioLeadIn: 0
PreviewTime: 61621
Countdown: 0
SampleSet: Normal
StackLeniency: 0.7
Mode: 1
LetterboxInBreaks: 0
WidescreenStoryboard: 0

[Editor]
Bookmarks: 1451,6936,12422,17908,26136,37107,48078,53564,59050,61793,72764,83735,89221
DistanceSpacing: 1.1
BeatDivisor: 2
GridSize: 32
TimelineZoom: 1.4

[Metadata]
Title:Mogitate Fruit Girls (TV Size)
TitleUnicode:も・ぎ・た・て♥フルーツガールズ (TV Size)
Artist:Kinoshita Ringo (CV: Tamura Yukari) & Nakazawa Minori (CV: Hanazawa Kana)
ArtistUnicode:木下林檎 (CV:田村ゆかり) & 中沢農 (CV:花澤香菜)
Creator:Creamy Candy
Version:Roger's Futsuu
Source:のうりん
Tags:ending ed nourin no-rin ][ -GH- ][ Roger anime japanese pop jpop j-pop
BeatmapID:2648438
BeatmapSetID:1193386

[Difficulty]
HPDrainRate:7
CircleSize:2
OverallDifficulty:4
ApproachRate:0
SliderMultiplier:1.4
SliderTickRate:1

[Events]
//Background and Video events
0,0,"bg nourin 1.jpg",0,70
//Break Periods
//Storyboard Layer 0 (Background)
//Storyboard Layer 1 (Fail)
//Storyboard Layer 2 (Pass)
//Storyboard Layer 3 (Foreground)
//Storyboard Layer 4 (Overlay)
//Storyboard Sound Samples

[TimingPoints]
1451,342.857142857143,4,1,0,80,1,0
6936,-100,4,1,0,90,0,0
12422,-100,4,1,0,95,0,0
17908,-100,4,1,0,100,0,0
26136,342.857142857143,4,1,0,90,1,0
35650,-100,4,1,0,80,0,0
35736,-100,4,1,0,70,0,0
35821,-100,4,1,0,60,0,0
37021,-100,4,1,0,85,0,0
37107,-100,4,1,0,95,0,0
61793,342.857142857143,4,1,0,100,1,1
83735,-100,4,1,0,95,0,0
86478,-100,4,1,0,80,0,0

[HitObjects]
256,352,1451,5,4,0:0:0:0:
256,352,1793,1,8,0:0:0:0:
256,352,2479,1,8,0:0:0:0:
256,352,2822,1,0,0:0:0:0:
256,352,3508,1,8,0:0:0:0:
256,352,3851,1,8,0:0:0:0:
256,352,4193,1,4,0:0:0:0:
256,352,4536,1,8,0:0:0:0:
256,352,5222,1,8,0:0:0:0:
256,352,5565,1,0,0:0:0:0:
256,352,5736,1,0,0:0:0:0:
256,352,5908,1,8,0:0:0:0:
256,352,6079,1,8,0:0:0:0:
256,352,6251,1,0,0:0:0:0:
256,352,6593,1,8,0:0:0:0:
256,352,6936,1,12,0:0:0:0:
256,352,7622,1,0,0:0:0:0:
256,352,8308,1,8,0:0:0:0:
256,352,8993,1,0,0:0:0:0:
256,352,9336,1,8,0:0:0:0:
256,352,9679,1,0,0:0:0:0:
256,352,10365,1,8,0:0:0:0:
256,352,10708,1,0,0:0:0:0:
256,352,11051,1,8,0:0:0:0:
256,352,11736,1,0,0:0:0:0:
256,352,12079,1,8,0:0:0:0:
256,352,12251,1,8,0:0:0:0:
256,352,12422,1,4,0:0:0:0:
256,352,12936,1,8,0:0:0:0:
256,352,13108,1,0,0:0:0:0:
256,352,13451,1,8,0:0:0:0:
256,352,13793,1,0,0:0:0:0:
256,352,13965,1,0,0:0:0:0:
256,352,14308,1,12,0:0:0:0:
256,352,14822,1,8,0:0:0:0:
256,352,15165,1,4,0:0:0:0:
256,352,15422,1,4,0:0:0:0:
256,352,15851,1,12,0:0:0:0:
256,352,16108,1,12,0:0:0:0:
256,352,16536,1,4,0:0:0:0:
256,352,16879,1,8,0:0:0:0:
256,352,17222,1,0,0:0:0:0:
256,352,17393,1,0,0:0:0:0:
256,352,17565,1,8,0:0:0:0:
256,352,17908,1,12,0:0:0:0:
256,352,18251,1,0,0:0:0:0:
256,352,18422,1,8,0:0:0:0:
256,352,18765,1,8,0:0:0:0:
256,352,19108,1,8,0:0:0:0:
256,352,19793,1,0,0:0:0:0:
256,352,19965,1,8,0:0:0:0:
256,352,20308,1,8,0:0:0:0:
256,352,20651,1,0,0:0:0:0:
256,352,20993,1,8,0:0:0:0:
256,352,21336,1,0,0:0:0:0:
256,352,21508,1,0,0:0:0:0:
256,352,21851,1,8,0:0:0:0:
256,352,22193,1,0,0:0:0:0:
256,352,22365,1,0,0:0:0:0:
256,352,22536,1,8,0:0:0:0:
256,352,23051,1,0,0:0:0:0:
256,352,23393,1,12,0:0:0:0:
256,352,23908,1,4,0:0:0:0:
256,352,24251,1,4,0:0:0:0:
256,352,24593,1,12,0:0:0:0:
256,352,25108,1,0,0:0:0:0:
256,352,25451,1,12,0:0:0:0:
256,352,25622,1,12,0:0:0:0:
256,352,26136,1,4,0:0:0:0:
256,352,26821,1,8,0:0:0:0:
256,352,27164,1,8,0:0:0:0:
256,352,27507,1,0,0:0:0:0:
256,352,28193,1,8,0:0:0:0:
256,352,28536,1,0,0:0:0:0:
256,352,28707,1,0,0:0:0:0:
256,352,28878,1,8,0:0:0:0:
256,352,29564,1,0,0:0:0:0:
256,352,29907,1,8,0:0:0:0:
256,352,30250,1,0,0:0:0:0:
256,352,30936,1,8,0:0:0:0:
256,352,31278,1,8,0:0:0:0:
256,352,31450,1,8,0:0:0:0:
256,352,31621,1,0,0:0:0:0:
256,352,32307,1,0,0:0:0:0:
256,352,32650,1,8,0:0:0:0:
256,352,32993,1,0,0:0:0:0:
256,352,33336,1,8,0:0:0:0:
256,352,33678,1,0,0:0:0:0:
256,352,34021,1,0,0:0:0:0:
256,352,34364,1,8,0:0:0:0:
256,352,34878,1,0,0:0:0:0:
256,352,35050,1,8,0:0:0:0:
256,352,35393,1,0,0:0:0:0:
256,352,35736,1,8,0:0:0:0:
256,352,37107,1,4,0:0:0:0:
256,352,37793,1,8,0:0:0:0:
256,352,38136,1,8,0:0:0:0:
256,352,38478,1,0,0:0:0:0:
256,352,38821,1,0,0:0:0:0:
256,352,39164,1,8,0:0:0:0:
256,352,39507,1,0,0:0:0:0:
256,352,39678,1,0,0:0:0:0:
256,352,39850,1,8,0:0:0:0:
256,352,40536,1,0,0:0:0:0:
256,352,40878,1,8,0:0:0:0:
256,352,41221,1,0,0:0:0:0:
256,352,41564,1,0,0:0:0:0:
256,352,41907,1,8,0:0:0:0:
256,352,42250,1,8,0:0:0:0:
256,352,42421,1,8,0:0:0:0:
256,352,42593,1,0,0:0:0:0:
256,352,43278,1,8,0:0:0:0:
256,352,43621,1,8,0:0:0:0:
256,352,43964,1,0,0:0:0:0:
256,352,44307,1,8,0:0:0:0:
256,352,44478,1,0,0:0:0:0:
256,352,44650,1,8,0:0:0:0:
256,352,44993,1,8,0:0:0:0:
256,352,45164,1,8,0:0:0:0:
256,352,45336,1,0,0:0:0:0:
256,352,45678,1,8,0:0:0:0:
256,352,46193,1,0,0:0:0:0:
256,352,46536,1,12,0:0:0:0:
256,352,47050,1,8,0:0:0:0:
256,352,47393,1,0,0:0:0:0:
256,352,47564,1,0,0:0:0:0:
256,352,47907,1,8,0:0:0:0:
256,352,48421,1,4,0:0:0:0:
256,352,48764,1,4,0:0:0:0:
256,352,49278,1,12,0:0:0:0:
256,352,49621,1,0,0:0:0:0:
256,352,49793,1,8,0:0:0:0:
256,352,50307,1,0,0:0:0:0:
256,352,50478,1,0,0:0:0:0:
256,352,50650,1,8,0:0:0:0:
256,352,51164,1,12,0:0:0:0:
256,352,51507,1,12,0:0:0:0:
256,352,52021,1,4,0:0:0:0:
256,352,52364,1,8,0:0:0:0:
256,352,52536,1,0,0:0:0:0:
256,352,53221,1,8,0:0:0:0:
256,352,53564,1,0,0:0:0:0:
256,352,53907,1,8,0:0:0:0:
256,352,54078,1,8,0:0:0:0:
256,352,54250,1,0,0:0:0:0:
256,352,54764,1,0,0:0:0:0:
256,352,55107,1,0,0:0:0:0:
256,352,55278,1,8,0:0:0:0:
256,352,55621,1,0,0:0:0:0:
256,352,55964,1,8,0:0:0:0:
256,352,56136,1,0,0:0:0:0:
256,352,56307,1,8,0:0:0:0:
256,352,56821,1,8,0:0:0:0:
256,352,56993,1,0,0:0:0:0:
256,352,57678,1,0,0:0:0:0:
256,352,58021,1,8,0:0:0:0:
256,352,58193,1,8,0:0:0:0:
256,352,58364,1,0,0:0:0:0:
256,352,58707,1,0,0:0:0:0:
256,352,59050,1,12,0:0:0:0:
256,352,59307,1,12,0:0:0:0:
256,352,59736,1,12,0:0:0:0:
256,352,59993,1,12,0:0:0:0:
256,352,60421,1,0,0:0:0:0:
256,352,60764,1,8,0:0:0:0:
256,352,60936,1,8,0:0:0:0:
256,352,61107,1,0,0:0:0:0:
256,352,61278,1,0,0:0:0:0:
256,352,61450,1,8,0:0:0:0:
256,352,61793,1,12,0:0:0:0:
256,352,62478,1,0,0:0:0:0:
256,352,62821,1,8,0:0:0:0:
256,352,63164,1,0,0:0:0:0:
256,352,63335,1,0,0:0:0:0:
256,352,63507,1,8,0:0:0:0:
256,352,63850,1,0,0:0:0:0:
256,352,64193,1,8,0:0:0:0:
256,352,64364,1,8,0:0:0:0:
256,352,64535,1,0,0:0:0:0:
256,352,64878,1,8,0:0:0:0:
256,352,65221,1,0,0:0:0:0:
256,352,65393,1,0,0:0:0:0:
256,352,65564,1,8,0:0:0:0:
256,352,65735,1,8,0:0:0:0:
256,352,65907,1,0,0:0:0:0:
256,352,66593,1,8,0:0:0:0:
256,352,66764,1,0,0:0:0:0:
256,352,66935,1,0,0:0:0:0:
256,352,67278,1,12,0:0:0:0:
256,352,67964,1,0,0:0:0:0:
256,352,68307,1,8,0:0:0:0:
256,352,68478,1,8,0:0:0:0:
256,352,68650,1,0,0:0:0:0:
256,352,68993,1,0,0:0:0:0:
256,352,69335,1,8,0:0:0:0:
256,352,70021,1,0,0:0:0:0:
256,352,70364,1,8,0:0:0:0:
256,352,70535,1,0,0:0:0:0:
256,352,70707,1,8,0:0:0:0:
256,352,71050,1,0,0:0:0:0:
256,352,71221,1,0,0:0:0:0:
256,352,71393,1,8,0:0:0:0:
256,352,71735,1,0,0:0:0:0:
256,352,72078,1,8,0:0:0:0:
256,352,72335,1,8,0:0:0:0:
256,352,72593,1,8,0:0:0:0:
256,352,72764,1,4,0:0:0:0:
256,352,73450,1,8,0:0:0:0:
256,352,73793,1,0,0:0:0:0:
256,352,74135,1,8,0:0:0:0:
256,352,74307,1,8,0:0:0:0:
256,352,74478,1,0,0:0:0:0:
256,352,74821,1,8,0:0:0:0:
256,352,75164,1,0,0:0:0:0:
256,352,75335,1,0,0:0:0:0:
256,352,75507,1,8,0:0:0:0:
256,352,75850,1,0,0:0:0:0:
256,352,76193,1,8,0:0:0:0:
256,352,76364,1,8,0:0:0:0:
256,352,76535,1,0,0:0:0:0:
256,352,76707,1,0,0:0:0:0:
256,352,76878,1,8,0:0:0:0:
256,352,77564,1,8,0:0:0:0:
256,352,77735,1,0,0:0:0:0:
256,352,77907,1,0,0:0:0:0:
256,352,78250,1,12,0:0:0:0:
256,352,78764,1,8,0:0:0:0:
256,352,78935,1,0,0:0:0:0:
256,352,79278,1,8,0:0:0:0:
256,352,79621,1,0,0:0:0:0:
256,352,79793,1,0,0:0:0:0:
256,352,80135,1,12,0:0:0:0:
256,352,80650,1,8,0:0:0:0:
256,352,80993,1,4,0:0:0:0:
256,352,81250,1,4,0:0:0:0:
256,352,81678,1,12,0:0:0:0:
256,352,81935,1,12,0:0:0:0:
256,352,82364,1,4,0:0:0:0:
256,352,82707,1,8,0:0:0:0:
256,352,83050,1,0,0:0:0:0:
256,352,83221,1,0,0:0:0:0:
256,352,83393,1,8,0:0:0:0:
256,352,83735,1,12,0:0:0:0:
256,352,84250,1,4,0:0:0:0:
256,352,84593,1,4,0:0:0:0:
256,352,84935,1,12,0:0:0:0:
256,352,85450,1,0,0:0:0:0:
256,352,85793,1,12,0:0:0:0:
256,352,85964,1,12,0:0:0:0:
256,352,86307,1,4,0:0:0:0:
256,192,86478,8,0,89221,0:0:0:0:
