osu file format v14

[General]
AudioFilename: audio.mp3
AudioLeadIn: 0
PreviewTime: 61621
Countdown: 0
SampleSet: Soft
StackLeniency: 0.7
Mode: 0
LetterboxInBreaks: 0
WidescreenStoryboard: 1

[Editor]
Bookmarks: 1451,4193,6936,12422,17908,26136,37107,48078,53564,59050,61793,72764,83735,89221
DistanceSpacing: 1.4
BeatDivisor: 4
GridSize: 32
TimelineZoom: 3.899998

[Metadata]
Title:Mogitate Fruit Girls (TV Size)
TitleUnicode:も・ぎ・た・て♥フルーツガールズ (TV Size)
Artist:Kinoshita Ringo (CV: Tamura Yukari) & Nakazawa Minori (CV: Hanazawa Kana)
ArtistUnicode:木下林檎 (CV:田村ゆかり) & 中沢農 (CV:花澤香菜)
Creator:Creamy Candy
Version:Normal
Source:のうりん
Tags:ending ed nourin no-rin ][ -GH- ][ Roger anime japanese pop jpop j-pop
BeatmapID:2648382
BeatmapSetID:1193386

[Difficulty]
HPDrainRate:4
CircleSize:3.4
OverallDifficulty:4
ApproachRate:5
SliderMultiplier:1.1
SliderTickRate:1

[Events]
//Background and Video events
0,0,"3.jpg",0,0
//Break Periods
//Storyboard Layer 0 (Background)
//Storyboard Layer 1 (Fail)
//Storyboard Layer 2 (Pass)
//Storyboard Layer 3 (Foreground)
//Storyboard Layer 4 (Overlay)
//Storyboard Sound Samples

[TimingPoints]
1451,342.857142857143,4,2,144,66,1,0
5393,-100,4,2,144,55,0,0
5565,-100,4,2,144,66,0,0
5908,-100,4,2,144,55,0,0
6079,-100,4,2,144,44,0,0
6936,-100,4,2,144,66,0,0
11736,-100,4,2,144,44,0,0
11907,-100,4,2,144,55,0,0
12079,-100,4,2,144,66,0,0
12250,-100,4,2,144,77,0,0
14479,-100,4,2,144,55,0,0
14650,-100,4,2,144,66,0,0
14822,-100,4,2,144,77,0,0
14993,-100,4,2,144,77,0,0
25107,-100,4,2,144,55,0,0
25279,-100,4,2,144,66,0,0
25451,-100,4,2,144,77,0,0
26136,342.857142857143,4,2,144,66,1,0
35736,-100,4,2,144,55,0,0
36421,-100,4,2,144,66,0,0
37107,-100,4,2,144,66,0,0
48421,-100,4,2,144,77,0,0
60593,-100,4,2,144,66,0,0
60764,-100,4,2,144,55,0,0
60936,-100,4,2,144,44,0,0
61021,-100,4,2,144,55,0,0
61107,-100,4,2,144,66,0,0
61793,342.857142857143,4,2,144,88,1,1
72078,-100,4,2,144,88,0,0
72764,-100,4,2,144,88,0,1
83735,-100,4,2,144,88,0,0
89221,-100,4,2,144,5,0,0

[Colours]
Combo1 : 218,168,182
Combo2 : 87,91,124
Combo3 : 124,148,172
Combo4 : 164,112,130

[HitObjects]
379,273,1451,6,0,P|430:295|482:314,2,110,4|8|0,1:0|2:1|0:0,0:0:0:0:
325,283,2308,1,0,1:0:0:0:
224,237,2651,2,0,P|235:291|243:346,2,110,0|0|8,0:0|0:0|2:1,0:0:0:0:
253,191,3508,1,0,0:0:0:0:
349,137,3851,1,8,2:1:0:0:
317,31,4193,2,0,P|251:43|196:50,2,110,4|8|0,1:0|2:1|0:0,0:0:0:0:
370,46,5051,1,0,1:0:0:0:
454,116,5393,1,0,1:0:0:0:
454,116,5565,6,0,P|438:166|435:183,1,55,2|2,1:0|1:2,0:0:0:0:
455,220,5908,2,0,P|448:246|438:272,1,55,2|2,1:2|1:2,0:0:0:0:
455,325,6251,1,0,1:0:0:0:
350,358,6593,2,0,P|306:336|288:333,1,55,8|0,2:0|0:0,0:0:0:0:
263,293,6936,6,0,P|206:353|127:348,1,165,4|0,1:0|0:0,0:0:0:0:
90,310,7622,1,2,2:0:0:0:
11,104,8308,6,0,P|82:118|147:126,1,110,2|2,2:0|2:0,0:0:0:0:
222,84,8993,2,0,P|208:155|200:220,1,110,2|2,2:0|2:0,0:0:0:0:
297,248,9679,2,0,P|351:256|405:267,1,110,2|2,2:1|2:0,0:0:0:0:
440,162,10365,2,0,P|385:153|331:142,1,110,2|2,2:1|2:0,0:0:0:0:
245,74,11051,1,2,2:1:0:0:
70,207,11736,2,0,P|85:231|95:256,1,55,2|2,2:3|2:3,0:0:0:0:
129,298,12079,2,0,P|156:290|183:284,1,55,0|0,1:0|1:0,0:0:0:0:
226,250,12422,6,0,P|270:281|324:293,1,110,4|8,1:0|2:0,0:0:0:0:
362,189,13108,2,0,P|317:157|263:145,1,110,0|8,1:0|2:0,0:0:0:0:
159,110,13793,2,0,P|164:137|172:176,2,55,4|0|8,1:2|1:0|2:0,0:0:0:0:
171,55,14308,2,0,P|224:42|276:26,1,110,4|0,1:0|1:0,0:0:0:0:
377,82,14993,1,0,1:0:0:0:
377,82,15165,6,0,P|381:38|386:-11,2,82.5,4|4|2,1:2|1:2|2:0,0:0:0:0:
335,118,15851,2,0,P|331:159|326:200,2,82.5,4|4|2,1:2|1:2|2:0,0:0:0:0:
282,102,16536,1,4,1:0:0:0:
188,159,16879,2,0,P|134:144|80:133,1,110,8|0,2:0|1:0,0:0:0:0:
2,211,17565,1,8,2:0:0:0:
71,295,17908,6,0,P|65:347|60:375,2,55,4|0|8,1:0|0:0|2:0,0:0:0:0:
115,261,18422,1,0,3:0:0:0:
197,333,18765,1,0,3:0:0:0:
296,285,19108,2,0,B|398:291|337:211|465:231,1,165,0|8,3:0|2:0,0:0:0:0:
508,141,19965,2,0,P|513:120|529:83,2,55,0|0|8,1:0|3:0|2:0,0:0:0:0:
452,144,20479,1,0,3:0:0:0:
452,144,20651,6,0,P|398:132|344:119,1,110,0|8,1:0|2:0,0:0:0:0:
264,46,21336,1,0,1:0:0:0:
264,46,21508,1,0,3:0:0:0:
172,107,21851,6,0,P|195:175|212:230,1,110,0|0,3:0|3:0,0:0:0:0:
172,255,22365,1,8,2:0:0:0:
172,255,22536,2,0,P|95:245|42:241,1,110,0|0,3:0|3:0,0:0:0:0:
15,213,23051,1,10,2:0:0:0:
50,109,23393,6,0,P|35:66|31:46,2,55,4|2|2,1:0|1:2|2:0,0:0:0:0:
101,130,23908,1,4,1:2:0:0:
208,151,24251,1,4,1:2:0:0:
278,66,24593,2,0,P|347:59|453:34,1,165,4|2,1:0|2:0,0:0:0:0:
507,132,25451,1,4,1:2:0:0:
507,132,25622,1,4,1:2:0:0:
398,256,26136,6,0,P|345:240|288:225,1,110,4|2,1:0|1:2,0:0:0:0:
221,141,26821,2,0,P|207:194|191:246,1,110,2|2,1:2|1:2,0:0:0:0:
144,271,27336,1,2,2:0:0:0:
144,271,27507,2,0,P|78:251|34:237,1,110,2|2,1:2|1:2,0:0:0:0:
0,350,28193,2,0,P|52:365|105:382,1,110,2|2,1:2|1:2,0:0:0:0:
157,365,28707,1,2,2:0:0:0:
157,365,28878,6,0,P|214:335|234:278,1,110,2|2,1:2|1:2,0:0:0:0:
165,208,29564,2,0,P|148:136|141:89,1,110,2|2,1:2|1:2,0:0:0:0:
174,55,30078,1,2,2:0:0:0:
174,55,30250,2,0,P|225:98|286:97,1,110,2|2,1:2|1:2,0:0:0:0:
358,42,30936,2,0,P|411:34|480:23,1,110,2|2,1:2|1:2,0:0:0:0:
507,63,31450,1,2,2:0:0:0:
507,63,31621,1,0,1:2:0:0:
488,171,31964,6,0,P|479:225|471:279,2,110,2|2|2,1:2|1:2|1:2,0:0:0:0:
388,124,32993,2,0,P|396:69|404:15,2,110,2|2|2,1:2|1:2|1:2,0:0:0:0:
299,190,34021,1,2,1:2:0:0:
197,147,34364,2,0,P|142:134|90:121,1,110,2|0,1:2|1:2,0:0:0:0:
38,141,34878,1,2,2:0:0:0:
38,141,35050,2,0,P|-6:202|5:250,1,110,2|0,1:2|1:2,0:0:0:0:
50,329,35736,1,6,1:2:0:0:
317,366,37107,6,0,P|361:358|436:344,1,110,4|10,1:0|2:0,0:0:0:0:
455,228,37793,2,0,P|400:238|346:247,1,110,2|10,1:2|2:0,0:0:0:0:
294,215,38307,1,2,2:0:0:0:
294,215,38478,2,0,P|254:175|272:113,1,110,2|10,1:2|2:0,0:0:0:0:
339,33,39164,2,0,P|352:99|368:163,1,110,2|10,1:2|2:0,0:0:0:0:
410,176,39678,1,2,2:0:0:0:
410,176,39850,6,0,P|464:166|518:156,1,110,2|10,1:2|2:0,0:0:0:0:
478,258,40536,2,0,P|424:268|370:278,1,110,2|10,1:2|2:0,0:0:0:0:
319,255,41050,1,2,2:0:0:0:
319,255,41221,2,0,P|275:282|274:349,1,110,2|10,1:2|2:0,0:0:0:0:
162,369,41907,2,0,P|147:314|129:250,1,110,2|10,1:2|2:0,0:0:0:0:
145,209,42421,1,2,2:0:0:0:
145,209,42593,1,0,1:2:0:0:
52,150,42936,6,0,P|54:96|117:70,1,110,10|2,2:0|1:2,0:0:0:0:
206,113,43621,2,0,P|233:119|260:126,1,55,10|0,2:0|0:0,0:0:0:0:
310,104,43964,2,0,B|327:48|327:48|388:9,2,110,2|10|2,1:2|2:0|1:2,0:0:0:0:
357,203,44993,1,10,2:0:0:0:
437,278,45336,6,0,P|460:362|468:398,2,110,2|10|0,1:2|2:0|1:2,0:0:0:0:
455,226,46193,2,0,P|470:176|475:161,1,55,2|10,2:0|2:0,0:0:0:0:
495,123,46536,1,4,1:0:0:0:
443,31,46878,1,0,1:0:0:0:
443,31,47050,1,8,2:0:0:0:
334,44,47393,2,0,P|298:58|275:66,1,55,0|0,1:0|1:0,0:0:0:0:
229,48,47736,1,8,2:0:0:0:
229,48,47907,1,0,1:0:0:0:
75,107,48421,6,0,P|62:53|49:0,2,110,4|4|8,1:2|1:2|2:0,0:0:0:0:
119,139,49278,1,4,1:0:0:0:
81,242,49621,1,0,1:0:0:0:
81,242,49793,2,0,P|101:315|110:366,1,110,8|0,2:0|1:0,0:0:0:0:
215,371,50478,1,8,2:0:0:0:
302,304,50821,2,0,P|347:292|370:281,1,55,8|4,2:3|2:3,0:0:0:0:
408,275,51164,6,0,P|419:328|434:381,2,110,4|4|8,1:2|1:2|2:0,0:0:0:0:
432,225,52021,1,4,1:0:0:0:
480,126,52364,1,0,1:0:0:0:
480,126,52536,2,0,P|436:123|369:94,1,110,10|2,2:0|1:2,0:0:0:0:
316,5,53221,1,8,2:0:0:0:
224,66,53564,6,0,P|171:91|109:106,2,110,0|8|0,1:0|2:0|1:0,0:0:0:0:
284,160,54593,2,0,P|279:187|277:214,1,55,12|0,2:0|0:0,0:0:0:0:
238,254,54936,2,0,P|242:291|247:369,1,110,0|8,1:0|2:0,0:0:0:0:
137,347,55621,1,0,1:0:0:0:
57,271,55964,2,0,L|45:200,1,55,12|0,2:0|0:0,0:0:0:0:
41,162,56307,2,0,P|91:152|121:83,1,110,0|8,1:0|2:0,0:0:0:0:
148,58,56821,1,0,0:0:0:0:
148,58,56993,2,0,P|197:66|376:91,1,220,0|0,1:0|1:0,0:0:0:0:
447,15,58021,5,8,2:0:0:0:
484,118,58364,1,0,1:0:0:0:
406,196,58707,1,8,2:0:0:0:
300,166,59050,2,0,P|252:181|202:192,2,82.5,4|4|4,1:2|1:2|1:2,0:0:0:0:
297,110,59736,2,0,P|345:95|395:84,2,82.5,4|4|4,1:2|1:2|1:2,0:0:0:0:
253,77,60421,1,6,1:2:0:0:
173,172,61793,6,0,P|228:154|294:133,1,110,4|8,1:0|2:0,0:0:0:0:
357,213,62478,2,0,P|304:229|252:246,1,110,0|8,1:0|2:0,0:0:0:0:
146,279,63164,2,0,L|140:350,1,55,0|0,1:0|0:0,0:0:0:0:
174,377,63507,2,0,L|244:365,1,55,8|0,2:0|0:0,0:0:0:0:
281,355,63850,1,0,1:0:0:0:
357,275,64193,2,0,P|364:248|373:222,1,55,8|0,2:0|0:0,0:0:0:0:
408,180,64535,6,0,P|462:169|489:117,2,110,0|8|0,1:0|2:0|1:0,0:0:0:0:
381,72,65564,1,8,2:0:0:0:
273,50,65907,2,0,P|180:38|142:33,1,110,0|8,1:0|2:0,0:0:0:0:
65,86,66593,2,0,L|82:145,1,55,0|0,1:0|0:0,0:0:0:0:
58,189,66935,2,0,L|73:241,1,55,8|0,2:0|0:0,0:0:0:0:
56,294,67278,6,0,P|80:348|135:350,1,110,4|8,1:0|2:0,0:0:0:0:
216,291,67964,2,0,P|254:280|276:276,1,55,0|0,1:0|0:0,0:0:0:0:
306,317,68307,2,0,P|351:308|370:306,1,55,8|0,2:0|0:0,0:0:0:0:
390,260,68650,2,0,P|420:215|415:161,1,110,0|8,1:0|2:0,0:0:0:0:
310,122,69335,2,0,P|280:166|285:220,1,110,0|8,1:0|2:0,0:0:0:0:
211,302,70021,6,0,P|140:289|83:279,1,110,2|8,1:2|2:0,0:0:0:0:
62,244,70535,1,0,0:0:0:0:
62,244,70707,2,0,P|73:203|79:179,1,55,2|0,1:2|0:0,0:0:0:0:
110,147,71050,2,0,P|121:106|127:82,1,55,8|0,2:0|0:0,0:0:0:0:
153,47,71393,1,2,1:2:0:0:
235,119,71735,1,8,2:0:0:0:
330,76,72078,2,0,P|320:29|307:-18,2,82.5,4|4|4,1:2|1:2|1:2,0:0:0:0:
375,107,72764,6,0,P|365:163|356:227,1,110,4|8,1:0|2:0,0:0:0:0:
327,262,73278,1,0,0:0:0:0:
327,262,73450,2,0,P|282:293|229:285,1,110,0|8,1:0|2:0,0:0:0:0:
125,249,74135,2,0,P|99:257|72:264,1,55,0|0,1:0|0:0,0:0:0:0:
36,222,74478,2,0,L|51:168,1,55,8|0,2:0|0:0,0:0:0:0:
55,114,74821,1,0,1:0:0:0:
157,65,75164,2,0,P|184:58|210:50,1,55,8|0,2:0|0:0,0:0:0:0:
264,59,75507,6,0,P|292:15|365:5,2,110,0|8|0,1:0|2:0|1:0,0:0:0:0:
221,160,76535,1,8,2:0:0:0:
283,252,76878,2,0,P|337:244|392:235,1,110,0|8,1:0|2:0,0:0:0:0:
484,175,77564,2,0,L|471:249,1,55,0|0,1:0|0:0,0:0:0:0:
505,274,77907,2,0,L|492:348,1,55,8|0,2:0|0:0,0:0:0:0:
458,369,78250,6,0,P|391:366|362:310,1,110,4|8,1:0|2:0,0:0:0:0:
323,300,78764,1,0,0:0:0:0:
323,300,78935,2,0,P|269:319|204:339,1,110,4|8,1:2|2:0,0:0:0:0:
109,319,79621,2,0,P|115:346|119:373,2,55,4|0|8,1:0|1:0|2:0,0:0:0:0:
139,273,80135,6,0,P|150:200|161:140,1,110,4|0,1:0|1:0,0:0:0:0:
92,74,80821,1,0,1:0:0:0:
92,74,80993,2,0,P|52:85|14:99,2,82.5,4|4|2,1:2|1:2|1:0,0:0:0:0:
146,82,81678,2,0,P|186:71|224:57,2,82.5,4|4|2,1:2|1:2|1:0,0:0:0:0:
146,137,82364,1,4,1:0:0:0:
240,193,82707,6,0,P|231:247|223:302,1,110,8|0,2:0|1:0,0:0:0:0:
306,373,83393,1,8,2:0:0:0:
410,340,83735,2,0,P|422:290|427:270,1,55,4|2,1:0|1:2,0:0:0:0:
460,247,84078,1,2,2:0:0:0:
460,247,84250,2,0,P|438:196|382:187,1,110,4|4,1:2|1:2,0:0:0:0:
310,262,84935,6,0,P|228:281|196:289,1,110,4|0,1:0|1:0,0:0:0:0:
155,260,85450,1,8,2:0:0:0:
178,152,85793,1,4,1:2:0:0:
178,152,85964,2,0,P|223:139|243:133,1,55,4|8,1:2|2:0,0:0:0:0:
283,151,86307,1,4,1:0:0:0:
256,192,86478,12,0,89221,0:0:0:0:
