osu file format v14

[General]
AudioFilename: audio.mp3
AudioLeadIn: 0
PreviewTime: 61621
Countdown: 0
SampleSet: Soft
StackLeniency: 0.4
Mode: 0
LetterboxInBreaks: 0
WidescreenStoryboard: 1

[Editor]
Bookmarks: 1451,4193,6936,12422,17908,26136,37107,48078,53564,59050,61793,72764,83735,89221
DistanceSpacing: 1.2
BeatDivisor: 4
GridSize: 32
TimelineZoom: 3.899998

[Metadata]
Title:Mogitate Fruit Girls (TV Size)
TitleUnicode:も・ぎ・た・て♥フルーツガールズ (TV Size)
Artist:Kinoshita Ringo (CV: Tamura Yukari) & Nakazawa Minori (CV: Hanazawa Kana)
ArtistUnicode:木下林檎 (CV:田村ゆかり) & 中沢農 (CV:花澤香菜)
Creator:Creamy Candy
Version:Insane
Source:のうりん
Tags:ending ed nourin no-rin ][ -GH- ][ Roger anime japanese pop jpop j-pop
BeatmapID:2648381
BeatmapSetID:1193386

[Difficulty]
HPDrainRate:6
CircleSize:3.6
OverallDifficulty:7.5
ApproachRate:9
SliderMultiplier:1.6
SliderTickRate:1

[Events]
//Background and Video events
0,0,"4.jpg",0,0
//Break Periods
//Storyboard Layer 0 (Background)
//Storyboard Layer 1 (Fail)
//Storyboard Layer 2 (Pass)
//Storyboard Layer 3 (Foreground)
//Storyboard Layer 4 (Overlay)
//Storyboard Sound Samples

[TimingPoints]
1451,342.857142857143,4,2,1,44,1,0
5393,-100,4,2,1,30,0,0
5565,-83.3333333333333,4,2,2,66,0,0
5650,-83.3333333333333,4,2,3,66,0,0
5736,-83.3333333333333,4,2,4,66,0,0
5821,-83.3333333333333,4,2,5,66,0,0
5908,-83.3333333333333,4,2,6,55,0,0
5993,-83.3333333333333,4,2,7,55,0,0
6079,-83.3333333333333,4,2,146,44,0,0
6165,-83.3333333333333,4,2,147,44,0,0
6251,-166.666666666667,4,2,148,44,0,0
6422,-166.666666666667,4,2,1,19,0,0
6508,-166.666666666667,4,2,1,5,0,0
6593,-71.4285714285714,4,2,1,19,0,0
6850,-71.4285714285714,4,2,1,5,0,0
6936,-250,4,2,11,66,0,0
7622,-250,4,2,1,66,0,0
8308,-125,4,2,12,66,0,0
8651,-125,4,2,13,66,0,0
8993,-125,4,2,14,66,0,0
9336,-125,4,2,15,66,0,0
9679,-125,4,2,16,66,0,0
10022,-125,4,2,17,66,0,0
10365,-125,4,2,18,66,0,0
10708,-125,4,2,14,66,0,0
11051,-125,4,2,18,66,0,0
11736,-125,4,2,19,44,0,0
11821,-125,4,2,1,19,0,0
11908,-100,4,2,20,55,0,0
11993,-100,4,2,1,30,0,0
12079,-83.3333333333333,4,2,21,66,0,0
12164,-83.3333333333333,4,2,1,44,0,0
12251,-71.4285714285714,4,2,22,77,0,0
12336,-71.4285714285714,4,2,1,59,0,0
12422,-71.4285714285714,4,2,23,77,0,0
12679,-71.4285714285714,4,2,23,5,0,0
12765,-100,4,2,1,59,0,0
12936,-100,4,2,24,77,0,0
13108,-100,4,2,23,77,0,0
13279,-100,4,2,1,59,0,0
13622,-100,4,2,22,77,0,0
13793,-100,4,2,25,77,0,0
13965,-100,4,2,22,77,0,0
14136,-100,4,2,26,77,0,0
14308,-100,4,2,27,77,0,0
14479,-100,4,2,1,30,0,0
14650,-100,4,2,1,44,0,0
14821,-100,4,2,1,59,0,0
14993,-100,4,2,28,77,0,0
15165,-100,4,2,29,77,0,0
15336,-100,4,2,29,5,0,0
15422,-100,4,2,30,77,0,0
15593,-100,4,2,30,5,0,0
15679,-100,4,2,31,77,0,0
15851,-83.3333333333333,4,2,32,77,0,0
16022,-83.3333333333333,4,2,32,5,0,0
16108,-83.3333333333333,4,2,33,77,0,0
16279,-83.3333333333333,4,2,33,5,0,0
16365,-83.3333333333333,4,2,34,77,0,0
16536,-83.3333333333333,4,2,35,77,0,0
16879,-100,4,2,1,59,0,0
17908,-100,4,2,26,77,0,0
18079,-100,4,2,24,77,0,0
18251,-100,4,2,26,77,0,0
18422,-100,4,2,35,77,0,0
18593,-100,4,2,1,59,0,0
18765,-83.3333333333333,4,2,27,77,0,0
18936,-83.3333333333333,4,2,1,59,0,0
19108,-142.857142857143,4,2,36,77,0,0
19279,-142.857142857143,4,2,1,59,0,0
19793,-142.857142857143,4,2,37,77,0,0
19879,-142.857142857143,4,2,38,77,0,0
19965,-142.857142857143,4,2,39,77,0,0
20136,-142.857142857143,4,2,38,77,0,0
20308,-142.857142857143,4,2,37,77,0,0
20479,-142.857142857143,4,2,26,77,0,0
20651,-100,4,2,22,77,0,0
20822,-100,4,2,26,77,0,0
20993,-100,4,2,22,77,0,0
21164,-100,4,2,26,77,0,0
21336,-100,4,2,40,77,0,0
21508,-100,4,2,36,77,0,0
21851,-71.4285714285714,4,2,41,77,0,0
22022,-71.4285714285714,4,2,1,59,0,0
22193,-71.4285714285714,4,2,42,77,0,0
22365,-71.4285714285714,4,2,43,77,0,0
22536,-100,4,2,42,77,0,0
22708,-100,4,2,1,59,0,0
23051,-100,4,2,44,77,0,0
23136,-100,4,2,45,77,0,0
23222,-100,4,2,46,77,0,0
23308,-100,4,2,47,77,0,0
23393,-100,4,2,37,77,0,0
23478,-100,4,2,37,5,0,0
23565,-100,4,2,48,77,0,0
23650,-100,4,2,48,5,0,0
23736,-100,4,2,49,77,0,0
23821,-100,4,2,49,5,0,0
23908,-100,4,2,50,77,0,0
24165,-100,4,2,50,5,0,0
24251,-100,4,2,28,77,0,0
24508,-100,4,2,28,5,0,0
24593,-90.9090909090909,4,2,51,77,0,0
24935,-90.9090909090909,4,2,1,59,0,0
25108,-90.9090909090909,4,2,52,55,0,0
25193,-90.9090909090909,4,2,6,55,0,0
25279,-90.9090909090909,4,2,53,66,0,0
25365,-90.9090909090909,4,2,54,66,0,0
25451,-71.4285714285714,4,2,39,77,0,0
25536,-71.4285714285714,4,2,39,5,0,0
25622,-71.4285714285714,4,2,39,77,0,0
26136,342.857142857143,4,2,1,44,1,0
26136,-125,4,2,1,44,0,0
26478,-125,4,2,55,44,0,0
31964,-125,4,2,56,66,0,0
32307,-125,4,2,12,66,0,0
32650,-125,4,2,57,66,0,0
32993,-125,4,2,12,66,0,0
33336,-125,4,2,57,66,0,0
33678,-125,4,2,58,66,0,0
34021,-125,4,2,12,66,0,0
34364,-100,4,2,56,66,0,0
34706,-100,4,2,1,44,0,0
34878,-100,4,2,59,66,0,0
35393,-100,4,2,1,44,0,0
35564,-100,4,2,60,66,0,0
35650,-100,4,2,61,66,0,0
35736,-100,4,2,62,55,0,0
35907,-100,4,2,63,55,0,0
36078,-100,4,2,64,55,0,0
36250,-100,4,2,65,55,0,0
36421,-100,4,2,66,66,0,0
36593,-100,4,2,67,66,0,0
36764,-100,4,2,68,66,0,0
36936,-100,4,2,69,66,0,0
37107,-100,4,2,1,44,0,0
37450,-100,4,2,55,44,0,0
42936,-100,4,2,17,66,0,0
43278,-100,4,2,58,66,0,0
43621,-100,4,2,57,66,0,0
43964,-100,4,2,12,66,0,0
44307,-100,4,2,57,66,0,0
44650,-100,4,2,58,66,0,0
44993,-100,4,2,12,66,0,0
45336,-100,4,2,70,66,0,0
45678,-100,4,2,55,44,0,0
46193,-100,4,2,71,66,0,0
46364,-100,4,2,72,66,0,0
46536,-100,4,2,73,66,0,0
46878,-100,4,2,1,44,0,0
47393,-100,4,2,74,66,0,0
47564,-100,4,2,75,66,0,0
47736,-100,4,2,76,66,0,0
47907,-100,4,2,77,66,0,0
48078,-100,4,2,1,44,0,0
48421,-71.4285714285714,4,2,78,77,0,0
48764,-71.4285714285714,4,2,79,77,0,0
49107,-71.4285714285714,4,2,80,77,0,0
49278,-71.4285714285714,4,2,81,77,0,0
49621,-71.4285714285714,4,2,26,77,0,0
49964,-71.4285714285714,4,2,1,59,0,0
50307,-71.4285714285714,4,2,76,77,0,0
50478,-71.4285714285714,4,2,28,77,0,0
50650,-100,4,2,76,77,0,0
50821,-100,4,2,1,59,0,0
51164,-71.4285714285714,4,2,82,77,0,0
51507,-71.4285714285714,4,2,83,77,0,0
51850,-71.4285714285714,4,2,84,77,0,0
52021,-71.4285714285714,4,2,85,77,0,0
52363,-71.4285714285714,4,2,22,77,0,0
52536,-71.4285714285714,4,2,31,77,0,0
52707,-71.4285714285714,4,2,55,59,0,0
53050,-71.4285714285714,4,2,86,77,0,0
53221,-71.4285714285714,4,2,28,77,0,0
53393,-71.4285714285714,4,2,87,77,0,0
53478,-71.4285714285714,4,2,1,59,0,0
53564,-100,4,2,1,59,0,0
53735,-100,4,2,28,77,0,0
53907,-100,4,2,51,77,0,0
54078,-100,4,2,28,77,0,0
54250,-100,4,2,76,77,0,0
54421,-100,4,2,88,77,0,0
54593,-83.3333333333333,4,2,88,77,0,0
54764,-83.3333333333333,4,2,82,77,0,0
54936,-100,4,2,1,59,0,0
55107,-100,4,2,76,77,0,0
55278,-100,4,2,28,77,0,0
55449,-100,4,2,76,77,0,0
55621,-100,4,2,32,77,0,0
55964,-100,4,2,89,77,0,0
56136,-100,4,2,26,77,0,0
56307,-100,4,2,78,77,0,0
56649,-100,4,2,1,59,0,0
56821,-100,4,2,77,77,0,0
56993,-100,4,2,82,77,0,0
57336,-100,4,2,1,59,0,0
58021,-100,4,2,10,77,0,0
58364,-100,4,2,90,77,0,0
58707,-100,4,2,87,77,0,0
58878,-100,4,2,1,59,0,0
59050,-71.4285714285714,4,2,91,77,0,0
59221,-71.4285714285714,4,2,91,5,0,0
59307,-71.4285714285714,4,2,91,77,0,0
59478,-71.4285714285714,4,2,91,5,0,0
59564,-71.4285714285714,4,2,92,77,0,0
59736,-62.5,4,2,91,77,0,0
59907,-62.5,4,2,91,5,0,0
59993,-62.5,4,2,93,77,0,0
60164,-62.5,4,2,93,5,0,0
60250,-62.5,4,2,94,77,0,0
60421,-83.3333333333333,4,2,95,77,0,0
60507,-83.3333333333333,4,2,55,59,0,0
60593,-83.3333333333333,4,2,55,44,0,0
60763,-83.3333333333333,4,2,55,30,0,0
60936,-200,4,2,55,19,0,0
61021,-200,4,2,55,30,0,0
61107,-200,4,2,55,44,0,0
61450,-62.5,4,2,55,44,0,0
61707,-62.5,4,2,55,5,0,0
61793,342.857142857143,4,2,96,88,1,1
61793,-71.4285714285714,4,2,96,88,0,1
62135,-71.4285714285714,4,2,1,77,0,1
62478,-100,4,2,97,88,0,1
62649,-100,4,2,1,77,0,1
63164,-100,4,2,98,88,0,1
63335,-100,4,2,1,77,0,1
63507,-100,4,2,99,88,0,1
63678,-100,4,2,1,77,0,1
63850,-100,4,2,100,88,0,1
64021,-100,4,2,1,77,0,1
64193,-100,4,2,96,88,0,1
64364,-100,4,2,1,77,0,1
64535,-125,4,2,101,88,0,1
64706,-125,4,2,1,77,0,1
64878,-100,4,2,102,88,0,1
65049,-100,4,2,1,77,0,1
65221,-83.3333333333333,4,2,96,88,0,1
65392,-83.3333333333333,4,2,1,77,0,1
65564,-71.4285714285714,4,2,100,88,0,1
65735,-71.4285714285714,4,2,1,77,0,1
65907,-71.4285714285714,4,2,96,88,0,1
66078,-71.4285714285714,4,2,1,77,0,1
66164,-71.4285714285714,4,2,1,5,0,1
66250,-100,4,2,1,77,0,1
66593,-100,4,2,103,88,0,1
66764,-100,4,2,104,88,0,1
66935,-100,4,2,103,88,0,1
67107,-100,4,2,79,88,0,1
67278,-100,4,2,105,88,0,1
67621,-100,4,2,1,77,0,1
67964,-100,4,2,103,88,0,1
68135,-100,4,2,104,88,0,1
68307,-100,4,2,103,88,0,1
68478,-100,4,2,79,88,0,1
68650,-100,4,2,106,88,0,1
68821,-100,4,2,1,77,0,1
68993,-100,4,2,99,88,0,1
69164,-100,4,2,1,77,0,1
69335,-100,4,2,106,88,0,1
69507,-100,4,2,1,77,0,1
70021,-100,4,2,107,88,0,1
70192,-100,4,2,1,77,0,1
70364,-100,4,2,24,88,0,1
70535,-100,4,2,28,88,0,1
70707,-100,4,2,108,88,0,1
70878,-100,4,2,28,88,0,1
71050,-100,4,2,50,88,0,1
71221,-100,4,2,109,88,0,1
71393,-100,4,2,110,88,0,1
71564,-100,4,2,111,88,0,1
71735,-100,4,2,112,88,0,1
71907,-100,4,2,113,88,0,1
71993,-100,4,2,1,77,0,1
72078,-71.4285714285714,4,2,114,88,0,0
72249,-71.4285714285714,4,2,114,5,0,0
72335,-71.4285714285714,4,2,115,88,0,0
72506,-71.4285714285714,4,2,115,5,0,0
72593,-71.4285714285714,4,2,113,88,0,0
72764,-71.4285714285714,4,2,116,88,0,1
73021,-71.4285714285714,4,2,116,5,0,1
73107,-58.8235294117647,4,2,1,77,0,1
73364,-58.8235294117647,4,2,1,5,0,1
73450,-100,4,2,97,88,0,1
73621,-100,4,2,1,77,0,1
74135,-100,4,2,98,88,0,1
74306,-100,4,2,1,77,0,1
74478,-100,4,2,99,88,0,1
74649,-100,4,2,1,77,0,1
74821,-100,4,2,100,88,0,1
74992,-100,4,2,1,77,0,1
75164,-100,4,2,96,88,0,1
75335,-100,4,2,1,77,0,1
75507,-125,4,2,101,88,0,1
75678,-125,4,2,1,77,0,1
75850,-100,4,2,102,88,0,1
76021,-100,4,2,1,77,0,1
76193,-83.3333333333333,4,2,96,88,0,1
76364,-83.3333333333333,4,2,1,77,0,1
76535,-71.4285714285714,4,2,100,88,0,1
76706,-71.4285714285714,4,2,1,77,0,1
76878,-71.4285714285714,4,2,96,88,0,1
77050,-71.4285714285714,4,2,1,77,0,1
77135,-71.4285714285714,4,2,1,5,0,1
77221,-100,4,2,1,77,0,1
77564,-100,4,2,103,88,0,1
77735,-100,4,2,104,88,0,1
77907,-100,4,2,103,88,0,1
78078,-100,4,2,79,88,0,1
78250,-100,4,2,106,88,0,1
78593,-100,4,2,1,77,0,1
78764,-100,4,2,117,88,0,1
78935,-100,4,2,118,88,0,1
79107,-100,4,2,1,77,0,1
79450,-100,4,2,109,88,0,1
79621,-100,4,2,119,88,0,1
79793,-100,4,2,120,88,0,1
79964,-100,4,2,77,88,0,1
80135,-100,4,2,121,88,0,1
80307,-100,4,2,122,88,0,1
80393,-100,4,2,123,88,0,1
80478,-100,4,2,124,88,0,1
80564,-100,4,2,125,88,0,1
80650,-62.5,4,2,126,88,0,1
80735,-62.5,4,2,40,88,0,1
80821,-62.5,4,2,127,88,0,1
80906,-62.5,4,2,40,88,0,1
80993,-62.5,4,2,128,88,0,1
81164,-62.5,4,2,128,5,0,1
81250,-62.5,4,2,129,88,0,1
81421,-62.5,4,2,129,5,0,1
81507,-62.5,4,2,130,88,0,1
81678,-55.5555555555556,4,2,131,88,0,1
81849,-55.5555555555556,4,2,131,5,0,1
81935,-55.5555555555556,4,2,132,88,0,1
82106,-55.5555555555556,4,2,132,5,0,1
82193,-55.5555555555556,4,2,133,88,0,1
82364,-100,4,2,134,88,0,1
82535,-100,4,2,1,77,0,1
83735,-100,4,2,135,88,0,0
83907,-100,4,2,111,88,0,0
84078,-100,4,2,136,88,0,0
84250,-71.4285714285714,4,2,137,88,0,0
84507,-71.4285714285714,4,2,137,5,0,0
84593,-55.5555555555556,4,2,138,88,0,0
84850,-55.5555555555556,4,2,138,5,0,0
84935,-200,4,2,139,88,0,0
85277,-200,4,2,1,77,0,0
85450,-200,4,2,126,88,0,0
85535,-200,4,2,40,88,0,0
85621,-200,4,2,140,88,0,0
85707,-200,4,2,141,88,0,0
85793,-62.5,4,2,142,88,0,0
86135,-62.5,4,2,1,77,0,0
86307,-62.5,4,2,143,88,0,0
89221,-62.5,4,2,143,5,0,0

[Colours]
Combo1 : 218,168,182
Combo2 : 87,91,124
Combo3 : 124,148,172
Combo4 : 164,112,130

[HitObjects]
298,298,1451,6,0,P|335:284|373:273,1,80,4|0,1:0|2:0,2:0:0:0:
341,158,1793,2,0,P|308:169|265:182,1,80,8|8,2:1|2:1,2:0:0:0:
92,236,2136,1,0,2:0:0:0:
92,236,2308,2,0,P|98:274|128:300,1,80,0|8,1:0|2:1,2:0:0:0:
265,349,2651,6,0,P|275:310|288:272,1,80,0|0,2:0|1:0,2:0:0:0:
205,146,2993,2,0,P|192:183|181:222,1,80,0|8,2:0|2:1,2:0:0:0:
26,330,3336,1,8,2:1:0:0:
265,260,3508,1,0,2:0:0:0:
86,67,3851,1,8,2:1:0:0:
397,99,4193,6,0,P|436:107|474:119,1,80,4|0,1:0|2:0,2:0:0:0:
498,264,4536,2,0,P|460:252|421:244,1,80,8|8,2:1|2:1,2:0:0:0:
312,196,4879,1,0,2:0:0:0:
312,196,5051,2,0,P|276:211|260:247,1,80,0|8,1:0|2:1,2:0:0:0:
79,384,5393,1,0,1:0:0:0:
132,211,5565,6,0,P|151:174|167:150,1,48,2|2,1:2|1:2,2:0:0:0:
131,327,5736,2,0,P|126:346|109:385,1,48,2|2,1:2|1:2,2:0:0:0:
257,236,5908,5,2,1:2:0:0:
282,276,5993,1,2,1:2:0:0:
324,299,6079,1,2,1:2:0:0:
371,300,6165,1,2,1:2:0:0:
414,279,6251,2,0,P|425:245|444:214,1,71.9999999999998,2|0,1:2|2:0,2:0:0:0:
512,172,6593,6,0,B|409:176|477:94|341:98,1,168,8|0,2:0|2:0,2:0:0:0:
263,57,6936,6,0,P|274:87|283:118,1,64,6|0,1:2|2:0,2:0:0:0:
170,201,7622,2,0,P|139:187|108:184,1,64,2|0,2:0|2:0,2:0:0:0:
80,205,8308,6,0,P|45:242|17:270,1,64,2|0,2:0|2:0,2:0:0:0:
99,336,8651,2,0,P|121:313|142:288,1,64,2|0,2:0|2:0,2:0:0:0:
350,335,8993,2,0,P|394:352|433:360,1,64,2|0,2:0|2:0,2:0:0:0:
269,231,9336,2,0,P|250:172|243:145,1,64,2|0,2:0|2:0,2:0:0:0:
158,295,9679,6,0,P|137:320|114:342,1,64,2|0,2:0|2:0,2:0:0:0:
381,239,10022,2,0,P|427:257|460:268,1,64,2|0,2:0|2:0,2:0:0:0:
330,131,10365,2,0,P|305:86|289:66,1,64,2|0,2:0|2:0,2:0:0:0:
119,2,10708,2,0,P|110:47|89:85,1,64,2|0,2:0|2:0,2:0:0:0:
11,185,11051,1,2,2:0:0:0:
30,185,11736,6,0,P|37:199|42:214,1,32,2|2,2:0|2:3,2:0:0:0:
116,263,11908,2,0,P|125:245|132:226,1,40,2|2,2:0|2:3,2:0:0:0:
214,151,12079,2,0,P|225:171|234:194,1,48,2|0,1:2|1:0,2:0:0:0:
327,276,12251,2,0,P|344:252|353:225,1,56,2|0,1:2|1:0,2:0:0:0:
512,203,12422,6,0,B|409:207|477:125|341:129,1,168,6|0,1:2|2:0,2:0:0:0:
356,133,12765,2,0,P|342:95|326:57,1,80,8|2,2:0|3:2,2:0:0:0:
209,251,13108,2,0,P|287:232|366:215,1,160,2|8,1:2|2:0,2:0:0:0:
483,303,13622,5,2,3:2:0:0:
311,196,13793,1,6,1:2:0:0:
453,313,13965,1,2,1:2:0:0:
483,151,14136,1,10,2:0:0:0:
346,359,14308,1,6,1:2:0:0:
208,251,14479,2,0,P|192:261|174:271,4,40,0|0|0|0|8,1:0|1:0|1:0|1:0|2:0,2:0:0:0:
326,83,14993,1,2,1:2:0:0:
239,167,15165,6,0,P|223:94|220:50,1,80,6|0,1:2|2:0,2:0:0:0:
243,79,15422,2,0,P|249:118|259:157,1,80,6|0,1:2|2:0,2:0:0:0:
341,223,15679,1,2,2:0:0:0:
138,139,15851,6,0,P|69:154|39:159,1,96,6|0,1:2|2:0,2:0:0:0:
14,272,16108,2,0,P|83:257|113:252,1,96,6|0,1:2|2:0,2:0:0:0:
213,314,16365,1,2,2:0:0:0:
213,314,16536,1,6,1:2:0:0:
448,361,16879,6,0,B|435:302|435:302|445:269|445:269|427:185,1,160,8|0,2:0|1:0,2:0:0:0:
352,154,17393,1,0,1:0:0:0:
352,154,17565,2,0,P|311:171|256:182,1,80,8|0,2:0|2:0,2:0:0:0:
165,268,17908,5,6,1:2:0:0:
229,81,18079,1,2,2:0:0:0:
156,291,18251,1,10,2:0:0:0:
18,179,18422,6,0,P|62:200|86:227,1,80,2|0,3:2|1:0,2:0:0:0:
191,102,18765,2,0,P|207:155|199:198,1,96,2|8,3:2|2:0,2:0:0:0:
358,237,19108,2,0,P|298:279|254:279,1,112,2|0,3:2|3:0,2:0:0:0:
87,378,19622,5,8,2:0:0:0:
228,198,19793,1,2,3:2:0:0:
228,198,19879,1,2,2:0:0:0:
228,198,19965,1,2,1:2:0:0:
303,370,20136,1,2,3:2:0:0:
106,227,20308,1,10,2:0:0:0:
280,350,20479,1,2,3:2:0:0:
430,274,20651,6,0,P|468:283|507:293,1,80,2|2,1:2|3:2,2:0:0:0:
295,179,20993,2,0,P|255:167|217:157,1,80,10|2,2:0|3:2,2:0:0:0:
413,92,21336,1,2,1:2:0:0:
296,318,21508,1,2,3:2:0:0:
296,330,21851,6,0,P|232:354|152:216,1,224,2|2,3:2|3:2,2:0:0:0:
182,60,22365,1,10,2:0:0:0:
2,197,22536,2,0,P|79:177|156:155,1,160,2|0,3:2|3:0,2:0:0:0:
220,13,23051,5,10,2:0:0:0:
239,47,23136,1,2,2:0:0:0:
272,69,23222,1,2,2:0:0:0:
311,75,23308,1,2,2:0:0:0:
349,62,23393,6,0,L|357:22,1,40,6|0,1:2|2:0,2:0:0:0:
458,204,23565,2,0,L|492:224,1,40,2|0,1:2|2:0,2:0:0:0:
275,224,23736,2,0,L|235:263,1,40,2|0,2:0|2:0,2:0:0:0:
413,132,23908,6,0,P|422:170|452:272,1,120,6|0,1:2|2:0,2:0:0:0:
327,321,24251,2,0,P|300:225|291:187,1,120,6|0,1:2|2:0,2:0:0:0:
307,196,24593,6,0,B|210:200|274:122|145:126,1,176,6|0,1:2|1:0,2:0:0:0:
71,231,25108,1,2,2:0:0:0:
71,231,25193,1,2,2:0:0:0:
71,231,25279,1,2,1:2:0:0:
71,231,25365,1,2,1:2:0:0:
71,230,25451,2,0,P|97:222|123:210,1,56,6|0,1:2|2:0,2:0:0:0:
254,36,25622,1,6,1:2:0:0:
77,249,26136,6,0,P|53:299|42:329,1,64,4|0,1:0|2:0,2:0:0:0:
157,384,26478,2,0,P|169:354|184:326,1,64,2|0,1:2|2:0,2:0:0:0:
279,273,26821,2,0,P|314:292|348:300,1,64,2|0,1:2|2:0,2:0:0:0:
460,276,27164,1,2,1:2:0:0:
460,276,27336,1,2,2:0:0:0:
450,172,27507,6,0,P|473:136|500:114,1,64,2|0,1:2|2:0,2:0:0:0:
433,270,27850,2,0,P|446:319|447:350,1,64,2|0,1:2|2:0,2:0:0:0:
344,209,28193,2,0,P|287:186|270:173,1,64,2|0,1:2|2:0,2:0:0:0:
225,101,28536,1,2,1:2:0:0:
225,101,28707,1,2,2:0:0:0:
27,22,28878,6,0,P|52:41|70:67,1,64,2|0,1:2|2:0,2:0:0:0:
167,174,29221,2,0,P|137:162|106:155,1,64,2|0,1:2|2:0,2:0:0:0:
0,258,29564,2,0,P|29:246|60:239,1,64,2|0,1:2|2:0,2:0:0:0:
174,319,29907,1,2,1:2:0:0:
174,319,30078,1,2,2:0:0:0:
328,136,30250,6,0,P|348:94|357:77,1,64,2|0,1:2|2:0,2:0:0:0:
235,162,30593,2,0,P|192:153|161:153,1,64,2|0,1:2|2:0,2:0:0:0:
317,226,30936,2,0,P|340:267|347:290,1,64,2|0,1:2|2:0,2:0:0:0:
399,149,31278,1,2,1:2:0:0:
399,149,31450,1,2,2:0:0:0:
244,296,31621,1,0,1:0:0:0:
320,357,31964,6,0,P|370:372|397:387,1,64,2|0,1:2|2:0,2:0:0:0:
459,244,32307,2,0,P|488:233|511:211,1,64,2|0,1:2|2:0,2:0:0:0:
303,171,32650,2,0,P|283:135|261:113,1,64,2|0,1:2|2:0,2:0:0:0:
191,335,32993,6,0,P|147:361|125:384,1,64,2|0,1:2|2:0,2:0:0:0:
0,287,33336,2,0,P|44:261|66:238,1,64,2|0,1:2|2:0,2:0:0:0:
219,193,33678,2,0,P|252:202|281:207,1,64,2|0,1:2|2:0,2:0:0:0:
42,26,34021,2,0,P|57:56|67:83,1,64,2|0,1:2|2:0,2:0:0:0:
125,200,34364,6,0,B|102:119|179:157|151:50,1,160,2|0,1:2|1:0,2:0:0:0:
42,26,34878,1,2,2:0:0:0:
219,193,35050,2,0,P|256:179|294:169,1,80,2|0,1:2|2:0,2:0:0:0:
119,128,35393,1,0,1:0:0:0:
296,33,35564,1,2,2:0:0:0:
296,33,35650,1,2,2:0:0:0:
296,33,35736,5,6,1:2:0:0:
362,91,35907,1,2,2:0:0:0:
440,114,36078,1,2,2:0:0:0:
485,109,36250,1,2,2:0:0:0:
512,89,36421,1,2,2:0:0:0:
438,105,36593,1,2,2:0:0:0:
386,172,36764,1,2,2:0:0:0:
359,257,36936,1,2,2:0:0:0:
407,341,37107,6,0,P|446:337|486:310,1,80,4|0,1:0|2:0,2:0:0:0:
449,204,37450,2,0,P|409:207|369:234,1,80,10|0,2:0|2:0,2:0:0:0:
222,291,37793,2,0,P|240:339|251:385,1,80,2|0,1:2|2:0,2:0:0:0:
352,218,38136,1,10,2:0:0:0:
352,218,38307,1,2,2:0:0:0:
110,268,38478,6,0,P|85:308|57:339,1,80,2|0,1:2|2:0,2:0:0:0:
102,159,38821,2,0,P|76:120|60:89,1,80,10|0,2:0|2:0,2:0:0:0:
206,202,39164,2,0,P|272:185|296:185,1,80,2|0,1:2|2:0,2:0:0:0:
181,104,39507,1,10,2:0:0:0:
181,104,39678,1,2,2:0:0:0:
437,214,39850,6,0,P|487:171|522:155,1,80,2|0,1:2|2:0,2:0:0:0:
331,104,40193,2,0,P|342:168|338:207,1,80,10|0,2:0|2:0,2:0:0:0:
484,59,40536,2,0,P|422:37|391:14,1,80,2|0,1:2|2:0,2:0:0:0:
253,154,40878,1,10,2:0:0:0:
253,154,41050,1,2,2:0:0:0:
409,289,41221,6,0,P|449:274|489:264,1,80,2|0,1:2|2:0,2:0:0:0:
366,206,41564,2,0,P|336:235|327:294,1,80,10|0,2:0|2:0,2:0:0:0:
219,347,41907,2,0,P|209:308|198:269,1,80,2|0,1:2|2:0,2:0:0:0:
135,173,42250,1,10,2:0:0:0:
135,173,42421,1,2,2:0:0:0:
299,286,42593,1,0,1:0:0:0:
119,190,42936,6,0,P|82:203|42:209,1,80,10|0,2:0|2:0,2:0:0:0:
123,79,43278,2,0,P|151:106|189:118,1,80,2|0,1:2|2:0,2:0:0:0:
329,19,43621,2,0,P|305:50|298:89,1,80,10|0,2:0|2:0,2:0:0:0:
455,215,43964,6,0,P|478:183|485:144,1,80,2|0,1:2|2:0,2:0:0:0:
336,231,44307,2,0,P|293:202|251:199,1,80,10|0,2:0|2:0,2:0:0:0:
197,325,44650,2,0,P|240:354|282:357,1,80,2|0,1:2|2:0,2:0:0:0:
431,382,44993,2,0,P|420:331|410:290,1,80,10|0,2:0|2:0,2:0:0:0:
479,68,45336,6,0,P|457:123|352:147,2,160,2|10|0,1:2|2:0|1:0,2:0:0:0:
387,50,46193,1,2,2:0:0:0:
387,50,46364,1,10,2:0:0:0:
253,147,46536,2,0,P|236:101|213:62,1,80,6|0,1:2|2:0,2:0:0:0:
95,24,46878,1,0,1:0:0:0:
271,170,47050,2,0,P|329:193|364:213,1,80,8|0,2:0|1:0,2:0:0:0:
157,277,47393,5,2,1:2:0:0:
76,210,47564,1,2,1:2:0:0:
238,334,47736,5,10,2:0:0:0:
392,297,47907,2,0,P|440:311|486:325,2,80,2|8|4,1:2|2:3|2:3,2:0:0:0:
331,222,48421,6,0,P|360:139|369:96,1,112,6|0,1:2|2:0,2:0:0:0:
163,250,48764,2,0,P|134:333|125:376,1,112,6|0,1:2|2:0,2:0:0:0:
28,154,49107,1,10,2:0:0:0:
265,304,49278,1,6,1:2:0:0:
284,322,49621,5,2,1:2:0:0:
284,322,49707,1,0,2:0:0:0:
284,322,49793,1,10,2:0:0:0:
198,345,49964,1,0,1:0:0:0:
138,276,50136,1,0,1:0:0:0:
239,222,50307,5,2,1:2:0:0:
239,222,50478,1,10,2:0:0:0:
239,222,50650,2,0,P|223:158|216:124,1,80,2|8,1:2|2:3,2:0:0:0:
375,326,50993,1,4,2:3:0:0:
138,276,51164,6,0,P|83:288|29:302,1,112,6|0,1:2|2:0,2:0:0:0:
23,133,51507,2,0,P|77:146|131:159,1,112,6|0,1:2|2:0,2:0:0:0:
324,224,51850,1,10,2:0:0:0:
227,1,52021,6,0,P|254:89|285:223,1,224,6|2,1:2|1:2,2:0:0:0:
362,292,52536,1,10,2:0:0:0:
484,277,52707,2,0,P|549:301|563:301,2,56,2|0|2,1:2|2:0|1:2,2:0:0:0:
407,193,53050,5,2,2:0:0:0:
407,193,53221,1,10,2:0:0:0:
497,70,53393,1,2,1:2:0:0:
497,70,53478,1,0,1:0:0:0:
497,70,53564,6,0,P|465:93|421:98,1,80,0|2,1:0|2:0,2:0:0:0:
273,2,53907,2,0,P|316:37|322:66,1,80,10|2,2:0|2:0,2:0:0:0:
284,252,54250,2,0,P|241:217|235:188,1,80,2|2,1:2|2:0,2:0:0:0:
74,205,54593,6,0,P|19:230|-17:247,1,96,14|2,2:0|2:0,2:0:0:0:
34,132,54936,6,0,P|59:163|96:178,1,80,0|2,1:0|2:0,2:0:0:0:
220,263,55278,2,0,P|256:222|252:175,1,80,10|2,2:0|2:0,2:0:0:0:
324,117,55621,2,0,P|304:53|299:26,1,80,2|0,1:2|2:0,2:0:0:0:
357,286,55964,5,14,2:0:0:0:
426,112,56136,1,2,2:0:0:0:
506,274,56307,2,0,B|403:278|471:196|335:200,1,160,2|8,1:2|2:0,2:0:0:0:
286,221,56821,1,2,2:0:0:0:
286,221,56993,2,0,P|239:245|201:256,1,80,2|0,1:2|2:0,2:0:0:0:
153,142,57336,2,0,P|200:118|238:107,1,80,8|0,2:0|2:0,2:0:0:0:
293,22,57678,1,0,1:0:0:0:
506,153,58021,6,0,P|484:75|479:48,1,80,10|0,2:0|2:0,2:0:0:0:
418,275,58364,2,0,P|430:313|439:351,1,80,2|0,1:2|2:0,2:0:0:0:
239,184,58707,1,10,2:0:0:0:
239,184,58878,1,0,1:0:0:0:
326,277,59050,6,0,P|256:297|195:323,1,112,6|0,1:2|2:0,2:0:0:0:
322,257,59307,2,0,P|374:276|428:291,1,112,6|0,1:2|2:0,2:0:0:0:
279,178,59564,1,6,1:2:0:0:
56,261,59736,6,0,P|75:200|109:146,1,128,6|0,1:2|2:0,2:0:0:0:
196,263,59993,2,0,P|168:320|150:382,1,128,6|0,1:2|2:0,2:0:0:0:
194,120,60250,1,6,1:2:0:0:
326,277,60421,6,0,P|254:286|168:193,1,192,6|2,1:2|2:0,2:0:0:0:
92,151,60936,6,0,P|59:112|23:104,1,80,2|0,2:0|2:0,2:0:0:0:
32,104,61450,6,0,P|134:124|190:24,1,192,8|0,2:0|2:0,2:0:0:0:
281,3,61793,6,0,B|301:80|301:80|282:129|282:129|310:234,1,224,6|8,1:2|2:0,2:0:0:0:
373,289,62307,1,0,3:0:0:0:
373,289,62478,2,0,P|435:251|443:215,1,80,2|0,1:2|3:0,2:0:0:0:
501,154,62821,2,0,P|474:124|436:113,1,80,8|0,2:0|3:0,2:0:0:0:
217,11,63164,6,0,P|237:71|244:94,1,80,2|0,1:2|3:0,2:0:0:0:
332,144,63507,2,0,P|352:84|359:61,1,80,10|0,2:0|3:0,2:0:0:0:
180,206,63850,2,0,P|134:230|85:257,1,80,2|0,1:2|3:0,2:0:0:0:
331,289,64193,2,0,P|390:316|421:330,1,80,10|0,2:0|3:0,2:0:0:0:
486,185,64535,6,0,P|502:144|517:121,1,64,2|0,1:2|3:0,2:0:0:0:
377,247,64878,2,0,P|389:291|411:334,1,80,10|0,2:0|3:0,2:0:0:0:
297,142,65221,2,0,P|274:96|243:60,1,96,2|0,1:2|3:0,2:0:0:0:
144,266,65564,2,0,P|121:333|116:384,1,112,10|0,2:0|3:0,2:0:0:0:
0,243,65907,6,0,B|103:247|35:165|171:169,1,168,2|0,1:2|2:0,2:0:0:0:
160,160,66250,2,0,P|208:180|246:192,1,80,8|0,2:0|3:0,2:0:0:0:
367,94,66593,5,2,1:2:0:0:
457,324,66764,1,2,3:2:0:0:
301,263,66935,1,10,2:0:0:0:
436,149,67107,1,2,3:2:0:0:
243,344,67278,6,0,P|184:373|147:403,1,80,6|0,1:2|2:0,2:0:0:0:
12,270,67621,2,0,P|71:241|108:211,1,80,8|0,2:0|3:0,2:0:0:0:
119,91,67964,5,2,1:2:0:0:
239,177,68135,1,2,3:2:0:0:
111,114,68307,5,10,2:0:0:0:
3,154,68478,1,2,3:2:0:0:
196,65,68650,6,0,P|219:19|238:-16,1,80,2|0,1:2|3:0,2:0:0:0:
344,212,68993,2,0,P|359:266|366:295,1,80,10|0,2:0|3:0,2:0:0:0:
496,128,69335,2,0,P|407:94|329:69,1,160,2|8,1:2|2:0,2:0:0:0:
345,73,70021,6,0,P|365:33|384:-12,1,80,2|0,1:2|3:0,2:0:0:0:
479,159,70364,2,0,P|460:194|444:231,1,80,10|2,2:0|3:2,2:0:0:0:
208,282,70707,1,2,1:2:0:0:
282,197,70878,1,2,3:2:0:0:
323,315,71050,1,10,2:0:0:0:
255,173,71221,1,2,3:2:0:0:
50,357,71393,5,2,1:2:0:0:
146,164,71564,1,2,1:2:0:0:
284,366,71735,1,10,2:0:0:0:
152,171,71907,1,2,1:2:0:0:
152,171,71993,1,0,1:0:0:0:
152,171,72078,6,0,P|163:132|183:62,1,112,6|0,1:2|2:0,2:0:0:0:
273,141,72335,2,0,P|263:179|242:254,1,112,6|0,1:2|2:0,2:0:0:0:
413,183,72593,1,6,1:2:0:0:
512,360,72764,6,0,P|413:348|386:274,1,168,6|0,1:2|2:0,2:0:0:0:
354,294,73107,2,0,P|372:183|397:41,1,204,8|0,2:0|2:0,2:0:0:0:
411,84,73450,6,0,P|461:104|496:112,1,80,2|0,1:2|3:0,2:0:0:0:
286,189,73793,2,0,P|247:199|210:215,1,80,8|0,2:0|3:0,2:0:0:0:
42,92,74135,6,0,P|18:43|12:12,1,80,2|0,1:2|3:0,2:0:0:0:
136,168,74478,2,0,P|112:228|109:271,1,80,10|0,2:0|3:0,2:0:0:0:
272,65,74821,2,0,P|311:45|349:36,1,80,2|0,1:2|3:0,2:0:0:0:
451,224,75164,2,0,P|472:273|478:300,1,80,10|0,2:0|3:0,2:0:0:0:
502,122,75507,6,0,P|449:102|431:82,1,64,2|0,1:2|3:0,2:0:0:0:
348,252,75850,2,0,P|295:272|277:292,1,80,10|0,2:0|3:0,2:0:0:0:
285,106,76193,2,0,P|239:93|196:62,1,96,2|0,1:2|3:0,2:0:0:0:
134,285,76535,2,0,P|80:301|35:337,1,112,10|0,2:0|3:0,2:0:0:0:
5,143,76878,6,0,P|87:158|168:180,1,168,2|0,1:2|2:0,2:0:0:0:
194,198,77221,2,0,P|223:158|262:127,1,80,8|0,2:0|3:0,2:0:0:0:
407,35,77564,5,2,1:2:0:0:
474,272,77735,1,2,3:2:0:0:
298,217,77907,1,10,2:0:0:0:
375,118,78078,1,2,3:2:0:0:
175,245,78250,6,0,P|109:261|62:261,1,80,6|0,1:2|2:0,2:0:0:0:
263,330,78593,1,8,2:0:0:0:
87,167,78764,1,2,3:2:0:0:
204,87,78935,2,0,P|187:157|171:266,1,160,6|8,1:2|2:0,2:0:0:0:
100,33,79450,5,2,3:2:0:0:
310,191,79621,1,6,1:2:0:0:
61,285,79793,1,2,1:2:0:0:
204,87,79964,1,10,2:0:0:0:
288,308,80135,1,6,1:2:0:0:
134,209,80307,5,2,1:2:0:0:
134,209,80393,1,2,1:2:0:0:
134,209,80478,1,2,1:2:0:0:
181,197,80564,1,2,1:2:0:0:
227,185,80650,2,0,L|211:255,1,64,10|2,2:0|2:0,2:0:0:0:
316,375,80821,2,0,L|330:313,1,64,2|2,1:2|2:0,2:0:0:0:
500,189,80993,6,0,P|437:207|370:218,1,128,6|0,1:2|2:0,2:0:0:0:
316,137,81250,2,0,P|379:126|440:108,1,128,6|0,1:2|2:0,2:0:0:0:
511,212,81507,1,2,1:2:0:0:
218,148,81678,6,0,P|183:61|148:-21,1,144,6|0,1:2|2:0,2:0:0:0:
316,137,81935,2,0,P|343:203|370:270,1,144,6|0,1:2|2:0,2:0:0:0:
105,143,82193,1,2,1:2:0:0:
13,282,82364,6,0,P|55:266|94:259,1,80,6|0,1:2|1:0,2:0:0:0:
290,277,82707,2,0,P|258:261|233:219,1,80,8|0,2:0|1:0,2:0:0:0:
173,83,83050,1,0,1:0:0:0:
173,83,83221,1,0,1:0:0:0:
388,194,83393,1,8,2:0:0:0:
192,336,83564,1,0,1:0:0:0:
238,163,83735,5,6,1:2:0:0:
362,341,83907,1,2,1:2:0:0:
367,101,84078,1,2,2:0:0:0:
512,297,84250,6,0,B|409:301|477:219|341:223,1,168,6|0,1:2|2:0,2:0:0:0:
296,157,84593,2,0,P|230:239|116:203,1,216,6|0,1:2|2:0,2:0:0:0:
94,233,84935,6,0,P|84:194|73:155,1,80,6|0,1:2|1:0,2:0:0:0:
57,12,85450,5,10,2:0:0:0:
81,52,85535,1,2,2:0:0:0:
121,79,85621,1,2,1:2:0:0:
168,86,85707,1,2,1:2:0:0:
214,72,85793,2,0,P|287:55|303:51,1,64,6|0,1:2|2:0,2:0:0:0:
448,186,85964,2,0,P|416:178|385:171,1,64,6|0,1:2|2:0,2:0:0:0:
291,263,86135,1,8,2:0:0:0:
411,27,86307,1,6,1:2:0:0:
256,192,86328,12,0,89221,2:0:0:0:
