osu file format v14

[General]
AudioFilename: audio.mp3
AudioLeadIn: 0
PreviewTime: 61621
Countdown: 0
SampleSet: Soft
StackLeniency: 0.5
Mode: 0
LetterboxInBreaks: 0
WidescreenStoryboard: 1

[Editor]
Bookmarks: 1451,4193,6936,12422,17908,26136,37107,48078,53564,59050,61793,72764,83735,89221
DistanceSpacing: 1.2
BeatDivisor: 4
GridSize: 32
TimelineZoom: 3.899998

[Metadata]
Title:Mogitate Fruit Girls (TV Size)
TitleUnicode:も・ぎ・た・て♥フルーツガールズ (TV Size)
Artist:Kinoshita Ringo (CV: Tamura Yukari) & Nakazawa Minori (CV: Hanazawa Kana)
ArtistUnicode:木下林檎 (CV:田村ゆかり) & 中沢農 (CV:花澤香菜)
Creator:Creamy Candy
Version:Hard
Source:のうりん
Tags:ending ed nourin no-rin ][ -GH- ][ Roger anime japanese pop jpop j-pop
BeatmapID:2648384
BeatmapSetID:1193386

[Difficulty]
HPDrainRate:5
CircleSize:3.6
OverallDifficulty:6
ApproachRate:8
SliderMultiplier:1.4
SliderTickRate:1

[Events]
//Background and Video events
0,0,"2.jpg",0,0
//Break Periods
//Storyboard Layer 0 (Background)
//Storyboard Layer 1 (Fail)
//Storyboard Layer 2 (Pass)
//Storyboard Layer 3 (Foreground)
//Storyboard Layer 4 (Overlay)
//Storyboard Sound Samples

[TimingPoints]
1451,342.857142857143,4,2,1,44,1,0
1451,-125,4,2,1,44,0,0
5393,-125,4,2,1,30,0,0
5565,-100,4,2,2,66,0,0
5650,-100,4,2,3,66,0,0
5736,-100,4,2,4,66,0,0
5822,-100,4,2,5,66,0,0
5908,-100,4,2,6,55,0,0
5993,-100,4,2,7,55,0,0
6079,-100,4,2,146,44,0,0
6165,-100,4,2,147,44,0,0
6251,-100,4,2,148,44,0,0
6593,-100,4,2,1,19,0,0
6936,-125,4,2,11,66,0,0
7622,-125,4,2,1,66,0,0
8308,-125,4,2,12,66,0,0
8651,-125,4,2,13,66,0,0
8993,-125,4,2,14,66,0,0
9336,-125,4,2,15,66,0,0
9679,-125,4,2,16,66,0,0
10021,-125,4,2,17,66,0,0
10365,-125,4,2,18,66,0,0
10707,-125,4,2,14,66,0,0
11051,-125,4,2,18,66,0,0
11736,-125,4,2,19,44,0,0
11908,-125,4,2,20,55,0,0
12079,-125,4,2,21,66,0,0
12251,-125,4,2,22,77,0,0
12422,-100,4,2,23,77,0,0
12764,-100,4,2,1,59,0,0
12936,-100,4,2,24,77,0,0
13108,-100,4,2,23,77,0,0
13279,-100,4,2,1,59,0,0
13622,-100,4,2,22,77,0,0
13793,-100,4,2,25,77,0,0
13965,-100,4,2,22,77,0,0
14136,-100,4,2,26,77,0,0
14308,-83.3333333333333,4,2,27,77,0,0
14479,-83.3333333333333,4,2,1,30,0,0
14650,-83.3333333333333,4,2,1,44,0,0
14822,-83.3333333333333,4,2,1,59,0,0
14993,-83.3333333333333,4,2,28,77,0,0
15165,-71.4285714285714,4,2,29,77,0,0
15422,-71.4285714285714,4,2,30,77,0,0
15679,-71.4285714285714,4,2,31,77,0,0
15851,-71.4285714285714,4,2,32,77,0,0
16108,-71.4285714285714,4,2,33,77,0,0
16365,-71.4285714285714,4,2,34,77,0,0
16536,-83.3333333333333,4,2,35,77,0,0
16707,-83.3333333333333,4,2,1,59,0,0
16879,-100,4,2,1,59,0,0
17908,-100,4,2,26,77,0,0
18079,-100,4,2,24,77,0,0
18251,-100,4,2,26,77,0,0
18422,-100,4,2,35,77,0,0
18593,-100,4,2,1,59,0,0
18765,-100,4,2,27,77,0,0
18936,-100,4,2,1,59,0,0
19108,-100,4,2,36,77,0,0
19279,-100,4,2,1,59,0,0
19793,-100,4,2,37,77,0,0
19879,-100,4,2,38,77,0,0
19965,-100,4,2,39,77,0,0
20136,-100,4,2,38,77,0,0
20307,-100,4,2,37,77,0,0
20478,-100,4,2,26,77,0,0
20651,-100,4,2,22,77,0,0
20822,-100,4,2,26,77,0,0
20993,-100,4,2,22,77,0,0
21165,-100,4,2,26,77,0,0
21336,-100,4,2,40,77,0,0
21508,-100,4,2,36,77,0,0
21679,-100,4,2,1,59,0,0
21851,-83.3333333333333,4,2,41,77,0,0
22022,-83.3333333333333,4,2,1,59,0,0
22193,-100,4,2,42,77,0,0
22364,-100,4,2,43,77,0,0
22536,-100,4,2,42,77,0,0
22708,-100,4,2,1,59,0,0
23051,-71.4285714285714,4,2,44,77,0,0
23136,-71.4285714285714,4,2,45,77,0,0
23222,-71.4285714285714,4,2,46,77,0,0
23308,-71.4285714285714,4,2,47,77,0,0
23393,-71.4285714285714,4,2,37,77,0,0
23565,-71.4285714285714,4,2,48,77,0,0
23736,-71.4285714285714,4,2,49,77,0,0
23908,-100,4,2,50,77,0,0
24251,-100,4,2,28,77,0,0
24593,-100,4,2,51,77,0,0
24936,-100,4,2,1,59,0,0
25108,-71.4285714285714,4,2,52,55,0,0
25193,-71.4285714285714,4,2,6,55,0,0
25279,-71.4285714285714,4,2,53,66,0,0
25365,-71.4285714285714,4,2,54,66,0,0
25451,-71.4285714285714,4,2,39,77,0,0
26136,342.857142857143,4,2,1,44,1,0
26136,-125,4,2,1,44,0,0
26478,-125,4,2,55,44,0,0
31964,-125,4,2,56,66,0,0
32307,-125,4,2,12,66,0,0
32650,-125,4,2,57,66,0,0
32993,-125,4,2,12,66,0,0
33335,-125,4,2,57,66,0,0
33678,-125,4,2,58,66,0,0
34021,-125,4,2,12,66,0,0
34364,-125,4,2,56,66,0,0
34706,-125,4,2,1,44,0,0
34878,-125,4,2,59,66,0,0
35050,-100,4,2,59,66,0,0
35392,-100,4,2,1,44,0,0
35564,-100,4,2,60,66,0,0
35650,-100,4,2,61,66,0,0
35736,-125,4,2,62,55,0,0
35907,-125,4,2,63,55,0,0
36078,-125,4,2,64,55,0,0
36250,-125,4,2,65,55,0,0
36421,-125,4,2,66,66,0,0
36592,-125,4,2,67,66,0,0
36764,-125,4,2,68,66,0,0
36936,-125,4,2,69,66,0,0
37107,-125,4,2,1,44,0,0
37450,-125,4,2,55,44,0,0
42936,-125,4,2,17,66,0,0
43278,-125,4,2,58,66,0,0
43621,-125,4,2,57,66,0,0
43964,-125,4,2,12,66,0,0
44306,-125,4,2,57,66,0,0
44649,-125,4,2,58,66,0,0
44993,-125,4,2,12,66,0,0
45336,-125,4,2,70,66,0,0
45678,-125,4,2,55,44,0,0
45850,-71.4285714285714,4,2,55,44,0,0
46193,-71.4285714285714,4,2,71,66,0,0
46364,-71.4285714285714,4,2,72,66,0,0
46536,-83.3333333333333,4,2,73,66,0,0
46878,-83.3333333333333,4,2,1,44,0,0
47050,-100,4,2,1,44,0,0
47393,-100,4,2,74,66,0,0
47564,-100,4,2,75,66,0,0
47736,-100,4,2,76,66,0,0
47907,-100,4,2,77,66,0,0
48078,-100,4,2,1,44,0,0
48421,-100,4,2,78,77,0,0
48764,-100,4,2,79,77,0,0
49107,-100,4,2,80,77,0,0
49278,-100,4,2,81,77,0,0
49621,-100,4,2,26,77,0,0
49964,-100,4,2,1,59,0,0
50307,-100,4,2,76,77,0,0
50478,-100,4,2,28,77,0,0
50650,-100,4,2,76,77,0,0
50821,-100,4,2,1,59,0,0
51164,-100,4,2,82,77,0,0
51507,-100,4,2,83,77,0,0
51850,-100,4,2,84,77,0,0
52021,-100,4,2,85,77,0,0
52364,-100,4,2,22,77,0,0
52536,-100,4,2,31,77,0,0
52621,-100,4,2,55,59,0,0
53050,-100,4,2,86,77,0,0
53221,-100,4,2,28,77,0,0
53393,-100,4,2,87,77,0,0
53478,-100,4,2,1,59,0,0
53736,-100,4,2,28,77,0,0
53907,-100,4,2,51,77,0,0
54078,-100,4,2,28,77,0,0
54250,-100,4,2,76,77,0,0
54421,-100,4,2,88,77,0,0
54764,-100,4,2,82,77,0,0
54935,-100,4,2,1,59,0,0
55107,-100,4,2,76,77,0,0
55278,-100,4,2,28,77,0,0
55450,-100,4,2,76,77,0,0
55621,-100,4,2,32,77,0,0
55964,-100,4,2,89,77,0,0
56136,-100,4,2,26,77,0,0
56307,-100,4,2,78,77,0,0
56649,-100,4,2,1,59,0,0
56821,-100,4,2,77,77,0,0
56993,-100,4,2,82,77,0,0
57335,-100,4,2,1,59,0,0
58021,-100,4,2,10,77,0,0
58364,-100,4,2,90,77,0,0
58707,-100,4,2,87,77,0,0
58878,-100,4,2,1,59,0,0
59050,-71.4285714285714,4,2,91,77,0,0
59564,-71.4285714285714,4,2,92,77,0,0
59736,-71.4285714285714,4,2,91,77,0,0
59993,-71.4285714285714,4,2,93,77,0,0
60250,-71.4285714285714,4,2,94,77,0,0
60421,-100,4,2,95,77,0,0
60507,-100,4,2,55,59,0,0
60593,-100,4,2,55,44,0,0
60763,-100,4,2,55,30,0,0
60936,-71.4285714285714,4,2,55,19,0,0
61021,-71.4285714285714,4,2,55,30,0,0
61107,-71.4285714285714,4,2,55,44,0,0
61450,-83.3333333333333,4,2,55,44,0,0
61707,-83.3333333333333,4,2,55,5,0,0
61793,342.857142857143,4,2,96,88,1,1
61793,-83.3333333333333,4,2,96,88,0,1
62135,-83.3333333333333,4,2,1,77,0,1
62478,-83.3333333333333,4,2,97,88,0,1
62649,-83.3333333333333,4,2,1,77,0,1
63078,-83.3333333333333,4,2,1,5,0,1
63164,-83.3333333333333,4,2,98,88,0,1
63335,-83.3333333333333,4,2,1,77,0,1
63507,-83.3333333333333,4,2,99,88,0,1
63678,-83.3333333333333,4,2,1,77,0,1
63850,-83.3333333333333,4,2,100,88,0,1
64021,-83.3333333333333,4,2,1,77,0,1
64193,-83.3333333333333,4,2,96,88,0,1
64364,-83.3333333333333,4,2,1,77,0,1
64535,-83.3333333333333,4,2,101,88,0,1
64706,-83.3333333333333,4,2,1,77,0,1
64878,-83.3333333333333,4,2,102,88,0,1
65049,-83.3333333333333,4,2,1,77,0,1
65221,-83.3333333333333,4,2,96,88,0,1
65392,-83.3333333333333,4,2,1,77,0,1
65564,-83.3333333333333,4,2,100,88,0,1
65735,-83.3333333333333,4,2,1,77,0,1
65821,-83.3333333333333,4,2,1,5,0,1
65907,-83.3333333333333,4,2,96,88,0,1
66078,-83.3333333333333,4,2,1,77,0,1
66593,-83.3333333333333,4,2,103,88,0,1
66764,-83.3333333333333,4,2,104,88,0,1
66935,-83.3333333333333,4,2,103,88,0,1
67107,-83.3333333333333,4,2,79,88,0,1
67278,-71.4285714285714,4,2,105,88,0,1
67535,-71.4285714285714,4,2,105,5,0,1
67621,-71.4285714285714,4,2,1,77,0,1
67964,-71.4285714285714,4,2,103,88,0,1
68135,-71.4285714285714,4,2,104,88,0,1
68307,-71.4285714285714,4,2,103,88,0,1
68478,-71.4285714285714,4,2,79,88,0,1
68650,-83.3333333333333,4,2,106,88,0,1
68821,-83.3333333333333,4,2,1,77,0,1
68993,-83.3333333333333,4,2,99,88,0,1
69164,-83.3333333333333,4,2,1,77,0,1
69335,-83.3333333333333,4,2,106,88,0,1
69507,-83.3333333333333,4,2,1,77,0,1
70021,-83.3333333333333,4,2,107,88,0,1
70192,-83.3333333333333,4,2,1,77,0,1
70364,-83.3333333333333,4,2,24,88,0,1
70535,-83.3333333333333,4,2,28,88,0,1
70707,-83.3333333333333,4,2,108,88,0,1
70878,-83.3333333333333,4,2,28,88,0,1
71050,-83.3333333333333,4,2,50,88,0,1
71221,-83.3333333333333,4,2,109,88,0,1
71393,-83.3333333333333,4,2,110,88,0,1
71564,-83.3333333333333,4,2,111,88,0,1
71735,-83.3333333333333,4,2,112,88,0,1
71907,-83.3333333333333,4,2,113,88,0,1
71993,-83.3333333333333,4,2,1,77,0,1
72078,-62.5,4,2,114,88,0,0
72335,-62.5,4,2,115,88,0,0
72592,-62.5,4,2,113,88,0,0
72764,-83.3333333333333,4,2,116,88,0,1
73106,-83.3333333333333,4,2,1,77,0,1
73278,-83.3333333333333,4,2,51,77,0,1
73450,-83.3333333333333,4,2,97,88,0,1
73621,-83.3333333333333,4,2,1,77,0,1
74050,-83.3333333333333,4,2,1,5,0,1
74135,-83.3333333333333,4,2,98,88,0,1
74306,-83.3333333333333,4,2,1,77,0,1
74478,-83.3333333333333,4,2,99,88,0,1
74649,-83.3333333333333,4,2,1,77,0,1
74821,-83.3333333333333,4,2,100,88,0,1
74992,-83.3333333333333,4,2,1,77,0,1
75164,-83.3333333333333,4,2,96,88,0,1
75335,-83.3333333333333,4,2,1,77,0,1
75507,-83.3333333333333,4,2,101,88,0,1
75678,-83.3333333333333,4,2,1,77,0,1
75850,-83.3333333333333,4,2,102,88,0,1
76021,-83.3333333333333,4,2,1,77,0,1
76193,-83.3333333333333,4,2,96,88,0,1
76364,-83.3333333333333,4,2,1,77,0,1
76535,-83.3333333333333,4,2,100,88,0,1
76707,-83.3333333333333,4,2,1,77,0,1
76792,-83.3333333333333,4,2,1,5,0,1
76878,-83.3333333333333,4,2,96,88,0,1
77049,-83.3333333333333,4,2,1,77,0,1
77564,-83.3333333333333,4,2,103,88,0,1
77735,-83.3333333333333,4,2,104,88,0,1
77907,-83.3333333333333,4,2,103,88,0,1
78078,-83.3333333333333,4,2,79,88,0,1
78250,-83.3333333333333,4,2,106,88,0,1
78592,-83.3333333333333,4,2,1,77,0,1
78764,-83.3333333333333,4,2,117,88,0,1
78935,-83.3333333333333,4,2,118,88,0,1
79107,-83.3333333333333,4,2,1,77,0,1
79450,-83.3333333333333,4,2,109,88,0,1
79621,-83.3333333333333,4,2,119,88,0,1
79793,-83.3333333333333,4,2,120,88,0,1
79964,-83.3333333333333,4,2,77,88,0,1
80135,-83.3333333333333,4,2,121,88,0,1
80478,-71.4285714285714,4,2,124,88,0,1
80563,-71.4285714285714,4,2,125,88,0,1
80649,-71.4285714285714,4,2,126,88,0,1
80735,-71.4285714285714,4,2,40,88,0,1
80821,-71.4285714285714,4,2,127,88,0,1
80993,-71.4285714285714,4,2,128,88,0,1
81250,-71.4285714285714,4,2,129,88,0,1
81507,-71.4285714285714,4,2,130,88,0,1
81678,-71.4285714285714,4,2,131,88,0,1
81935,-71.4285714285714,4,2,132,88,0,1
82192,-71.4285714285714,4,2,133,88,0,1
82364,-71.4285714285714,4,2,134,88,0,1
82535,-71.4285714285714,4,2,1,77,0,1
82621,-71.4285714285714,4,2,1,5,0,1
82707,-100,4,2,1,77,0,1
83735,-100,4,2,135,88,0,0
83907,-100,4,2,111,88,0,0
84078,-100,4,2,136,88,0,0
84250,-100,4,2,137,88,0,0
84593,-100,4,2,138,88,0,0
84935,-83.3333333333333,4,2,139,88,0,0
85277,-83.3333333333333,4,2,1,77,0,0
85450,-83.3333333333333,4,2,126,88,0,0
85535,-83.3333333333333,4,2,40,88,0,0
85621,-83.3333333333333,4,2,140,88,0,0
85707,-83.3333333333333,4,2,141,88,0,0
85793,-83.3333333333333,4,2,142,88,0,0
86135,-83.3333333333333,4,2,1,77,0,0
86307,-83.3333333333333,4,2,143,88,0,0
89221,-83.3333333333333,4,2,143,5,0,0

[Colours]
Combo1 : 218,168,182
Combo2 : 87,91,124
Combo3 : 124,148,172
Combo4 : 164,112,130

[HitObjects]
298,206,1451,6,0,P|324:198|351:189,1,56,4|0,1:0|2:0,2:0:0:0:
410,270,1793,2,0,P|383:278|356:287,1,56,8|8,2:1|2:1,2:0:0:0:
285,359,2136,1,0,2:0:0:0:
285,359,2308,1,0,1:0:0:0:
112,251,2651,6,0,P|103:225|93:199,1,56,0|0,2:0|1:0,2:0:0:0:
171,136,2993,2,0,P|181:162|190:188,1,56,0|8,2:0|2:1,2:0:0:0:
210,292,3336,1,8,2:1:0:0:
210,292,3508,1,0,2:0:0:0:
403,233,3851,1,8,2:1:0:0:
373,34,4193,6,0,P|446:54|458:57,1,56,4|0,1:0|2:0,2:0:0:0:
451,147,4536,2,0,P|423:139|397:131,1,56,8|8,2:1|2:1,2:0:0:0:
314,189,4879,1,0,2:0:0:0:
314,189,5051,1,0,1:0:0:0:
123,125,5393,1,0,1:0:0:0:
104,25,5565,6,0,P|122:22|139:26,3,35,2|2|2|2,1:2|1:2|1:2|1:2,2:0:0:0:
191,62,5908,2,0,P|203:74|210:90,3,35,2|2|2|2,1:2|1:2|1:2|1:2,2:0:0:0:
214,153,6251,1,2,1:2:0:0:
142,335,6593,1,8,2:0:0:0:
0,324,6936,6,0,B|99:316|28:252|153:243,1,168,6|0,1:2|2:0,2:0:0:0:
224,280,7622,2,0,P|250:287|344:323,1,112,2|0,2:0|2:0,2:0:0:0:
468,202,8308,6,0,P|458:174|438:148,1,56,2|0,2:0|2:0,2:0:0:0:
360,118,8651,2,0,P|319:129|303:131,1,56,2|0,2:0|2:0,2:0:0:0:
224,93,8993,2,0,P|207:43|198:19,1,56,2|0,2:0|2:0,2:0:0:0:
130,118,9336,2,0,P|139:144|148:170,1,56,2|0,2:0|2:0,2:0:0:0:
85,270,9679,6,0,P|138:288|188:311,1,112,2|2,2:0|2:0,2:0:0:0:
366,285,10365,2,0,P|416:308|469:326,1,112,2|2,2:0|2:0,2:0:0:0:
360,183,11051,2,0,P|343:137|296:68,1,112,2|0,2:0|2:0,2:0:0:0:
106,180,11736,5,2,2:0:0:0:
106,180,11908,1,2,2:0:0:0:
31,124,12079,1,2,1:2:0:0:
31,124,12251,1,2,1:2:0:0:
83,26,12422,6,0,P|66:145|61:186,1,140,6|8,1:2|2:0,2:0:0:0:
139,227,12936,1,2,3:2:0:0:
185,140,13108,2,0,P|168:259|163:300,1,140,2|8,1:2|2:0,2:0:0:0:
237,345,13622,1,2,3:2:0:0:
340,245,13793,5,6,1:2:0:0:
340,245,13965,1,2,1:2:0:0:
402,319,14136,1,10,2:0:0:0:
499,308,14308,2,0,P|518:315|537:323,6,42,6|0|0|0|0|0|8,1:2|2:0|1:0|1:0|1:0|1:0|2:0,2:0:0:0:
443,236,14993,1,2,1:2:0:0:
443,236,15165,6,0,P|464:165|487:95,2,147,6|6|2,1:2|1:2|2:0,2:0:0:0:
372,117,15851,2,0,P|349:186|327:257,2,147,6|6|2,1:2|1:2|2:0,2:0:0:0:
310,18,16536,6,0,P|285:50|246:62,1,84,6|0,1:2|1:0,2:0:0:0:
149,31,16879,2,0,P|87:48|10:69,1,140,8|0,2:0|1:0,2:0:0:0:
14,168,17393,1,0,1:0:0:0:
14,168,17565,2,0,P|60:182|91:199,1,70,8|0,2:0|2:0,2:0:0:0:
139,270,17908,5,6,1:2:0:0:
143,274,18079,1,2,2:0:0:0:
204,350,18251,1,10,2:0:0:0:
297,322,18422,2,0,P|287:288|278:254,1,70,2|0,3:2|1:0,2:0:0:0:
364,205,18765,2,0,P|373:238|382:272,1,70,2|8,3:2|2:0,2:0:0:0:
458,185,19108,2,0,P|410:119|344:107,1,140,2|0,3:2|3:0,2:0:0:0:
269,50,19622,1,8,2:0:0:0:
281,159,19793,5,2,3:2:0:0:
281,159,19879,1,2,2:0:0:0:
281,159,19965,1,2,1:2:0:0:
356,105,20136,2,0,P|398:118|432:123,2,70,2|10|2,3:2|2:0|3:2,2:0:0:0:
300,12,20651,5,2,1:2:0:0:
300,12,20822,1,2,3:2:0:0:
223,71,20993,1,10,2:0:0:0:
223,71,21165,1,2,3:2:0:0:
130,39,21336,1,2,1:2:0:0:
48,155,21508,2,0,P|82:143|115:133,1,70,2|8,3:2|2:0,2:0:0:0:
188,215,21851,6,0,P|247:235|303:263,1,126,2|0,3:2|2:0,2:0:0:0:
303,263,22193,2,0,P|289:231|277:198,1,70,2|10,3:2|2:0,2:0:0:0:
435,121,22536,2,0,P|421:189|412:259,1,140,2|0,3:2|3:0,2:0:0:0:
478,339,23051,2,0,P|500:349|523:356,3,49,10|2|2|2,2:0|2:0|2:0|2:0,2:0:0:0:
436,351,23393,5,6,1:2:0:0:
340,357,23565,1,2,1:2:0:0:
307,260,23736,1,2,2:0:0:0:
209,303,23908,2,0,P|147:328|123:336,1,70,6|0,1:2|2:0,2:0:0:0:
83,240,24251,2,0,P|127:219|161:208,1,70,6|0,1:2|2:0,2:0:0:0:
166,74,24593,6,0,B|244:74|192:129|291:129,1,140,6|0,1:2|1:0,2:0:0:0:
395,175,25108,2,0,P|404:153|416:131,3,49,2|2|2|2,2:0|2:0|1:2|1:2,2:0:0:0:
300,240,25451,5,6,1:2:0:0:
300,240,25622,1,6,1:2:0:0:
417,67,26136,6,0,P|436:87|446:113,1,56,4|0,1:0|2:0,2:0:0:0:
368,189,26478,2,0,P|357:214|348:241,1,56,2|0,1:2|2:0,2:0:0:0:
429,317,26821,2,0,P|437:290|462:201,1,112,2|2,1:2|1:2,2:0:0:0:
512,126,27336,1,2,2:0:0:0:
442,50,27507,6,0,P|400:60|367:69,1,56,2|0,1:2|2:0,2:0:0:0:
292,25,27850,2,0,P|264:31|237:38,1,56,2|0,1:2|2:0,2:0:0:0:
143,24,28193,2,0,P|126:105|115:154,1,112,2|2,1:2|1:2,2:0:0:0:
158,227,28707,1,2,2:0:0:0:
75,290,28878,6,0,P|84:327|89:363,1,56,2|0,1:2|2:0,2:0:0:0:
195,379,29221,2,0,P|190:351|183:324,1,56,2|0,1:2|2:0,2:0:0:0:
250,251,29564,2,0,P|303:272|359:290,1,112,2|2,1:2|1:2,2:0:0:0:
388,191,30078,1,2,2:0:0:0:
316,118,30250,6,0,P|327:64|329:43,1,56,2|0,1:2|2:0,2:0:0:0:
427,24,30593,2,0,P|422:51|415:78,1,56,2|0,1:2|2:0,2:0:0:0:
483,154,30936,2,0,P|497:224|507:274,1,112,2|2,1:2|1:2,2:0:0:0:
443,344,31450,1,2,2:0:0:0:
443,344,31621,1,0,1:0:0:0:
261,256,31964,6,0,P|223:269|199:275,1,56,2|0,1:2|2:0,2:0:0:0:
299,339,32307,2,0,P|333:353|361:358,1,56,2|0,1:2|2:0,2:0:0:0:
398,266,32650,2,0,P|433:231|439:212,1,56,2|0,1:2|2:0,2:0:0:0:
366,152,32993,6,0,P|351:98|334:44,2,112,2|2|2,1:2|1:2|1:2,2:0:0:0:
221,71,34021,1,2,1:2:0:0:
221,71,34364,2,0,P|190:114|115:119,1,112,2|0,1:2|1:0,2:0:0:0:
13,76,34878,1,2,2:0:0:0:
71,9,35050,2,0,P|60:78|52:147,1,140,2|0,1:2|1:0,2:0:0:0:
93,250,35564,5,2,2:0:0:0:
93,250,35650,1,2,2:0:0:0:
93,250,35736,2,0,P|140:236|169:229,2,56,6|2|2,1:2|2:0|2:0,2:0:0:0:
54,344,36250,2,0,P|27:352|0:359,2,56,2|2|2,2:0|2:0|2:0,2:0:0:0:
156,369,36764,1,2,2:0:0:0:
156,369,36936,1,2,2:0:0:0:
231,301,37107,6,0,P|239:275|251:250,1,56,4|0,1:0|2:0,2:0:0:0:
343,207,37450,2,0,P|386:215|408:218,1,56,10|0,2:0|2:0,2:0:0:0:
474,151,37793,2,0,P|484:108|478:80,1,56,2|0,1:2|2:0,2:0:0:0:
413,23,38136,1,10,2:0:0:0:
413,23,38307,1,2,2:0:0:0:
314,73,38478,6,0,P|271:92|239:105,1,56,2|0,1:2|2:0,2:0:0:0:
176,42,38821,2,0,P|150:52|124:64,1,56,10|0,2:0|2:0,2:0:0:0:
91,160,39164,2,0,P|144:176|196:198,1,112,2|10,1:2|2:0,2:0:0:0:
268,259,39678,1,2,2:0:0:0:
370,241,39850,6,0,P|360:278|355:308,1,56,2|0,1:2|2:0,2:0:0:0:
434,359,40193,2,0,P|441:329|447:304,1,56,10|0,2:0|2:0,2:0:0:0:
506,222,40536,2,0,P|498:195|490:168,1,56,2|0,1:2|2:0,2:0:0:0:
409,107,40878,1,10,2:0:0:0:
409,107,41050,1,2,2:0:0:0:
301,70,41221,6,0,P|309:97|317:124,1,56,2|0,1:2|2:0,2:0:0:0:
274,215,41564,2,0,P|282:242|290:269,1,56,10|0,2:0|2:0,2:0:0:0:
333,360,41907,2,0,P|277:350|222:342,1,112,2|10,1:2|2:0,2:0:0:0:
110,340,42421,1,2,2:0:0:0:
110,340,42593,1,0,1:0:0:0:
1,168,42936,6,0,P|27:159|52:148,1,56,10|0,2:0|2:0,2:0:0:0:
125,218,43278,2,0,P|151:227|176:238,1,56,2|0,1:2|2:0,2:0:0:0:
262,186,43621,2,0,P|269:159|281:134,1,56,10|0,2:0|2:0,2:0:0:0:
350,61,43964,2,0,P|405:70|469:86,2,112,2|10|2,1:2|2:0|1:2,2:0:0:0:
158,120,44993,1,10,2:0:0:0:
158,120,45336,6,0,P|213:129|267:142,1,112,2|10,1:2|2:0,2:0:0:0:
349,202,45850,2,0,P|355:225|361:249,2,49,0|0|0,2:0|2:0|1:0,2:0:0:0:
446,169,46193,5,2,2:0:0:0:
446,169,46364,1,10,2:0:0:0:
504,319,46536,2,0,B|405:318|471:249|346:249,1,168,6|0,1:2|1:0,2:0:0:0:
280,307,47050,2,0,P|235:324|197:338,1,70,8|0,2:0|1:0,2:0:0:0:
107,309,47393,5,2,1:2:0:0:
107,309,47564,1,2,1:2:0:0:
89,189,47736,1,10,2:0:0:0:
89,189,47907,1,2,1:2:0:0:
210,161,48078,2,0,P|255:178|293:192,1,70,8|4,2:3|2:3,2:0:0:0:
359,236,48421,5,6,1:2:0:0:
474,25,48764,1,6,1:2:0:0:
460,220,49107,5,10,2:0:0:0:
358,139,49278,2,0,P|349:105|337:72,1,70,6|0,1:2|2:0,2:0:0:0:
275,185,49621,1,2,1:2:0:0:
275,185,49793,2,0,P|207:167|138:152,1,140,10|0,2:0|1:0,2:0:0:0:
64,217,50307,1,2,1:2:0:0:
64,217,50478,1,10,2:0:0:0:
120,297,50650,2,0,P|127:331|133:365,2,70,2|8|4,1:2|2:3|2:3,2:0:0:0:
201,242,51164,5,6,1:2:0:0:
458,183,51507,1,6,1:2:0:0:
255,166,51850,5,10,2:0:0:0:
296,298,52021,2,0,P|281:362|272:394,1,70,6|0,1:2|2:0,2:0:0:0:
369,247,52364,1,2,1:2:0:0:
369,247,52536,2,0,P|438:235|506:217,1,140,10|2,2:0|1:2,2:0:0:0:
489,120,53050,1,2,2:0:0:0:
489,120,53221,1,10,2:0:0:0:
375,30,53393,6,0,P|390:94|397:123,1,70,2|0,1:2|1:0,2:0:0:0:
316,162,53736,1,2,2:0:0:0:
316,162,53907,2,0,P|287:141|253:135,1,70,10|2,2:0|2:0,2:0:0:0:
154,189,54250,1,2,1:2:0:0:
76,144,54421,5,2,2:0:0:0:
76,144,54593,1,14,2:0:0:0:
76,144,54764,2,0,P|84:104|93:59,1,70,2|0,2:0|1:0,2:0:0:0:
169,120,55107,2,0,P|159:163|150:207,1,70,2|10,2:0|2:0,2:0:0:0:
190,287,55450,1,2,2:0:0:0:
190,287,55621,2,0,P|223:278|258:271,1,70,2|0,1:2|2:0,2:0:0:0:
343,321,55964,1,14,2:0:0:0:
343,321,56136,1,2,2:0:0:0:
407,234,56307,6,0,P|382:364|378:393,1,140,2|8,1:2|2:0,2:0:0:0:
479,349,56821,1,2,2:0:0:0:
479,349,56993,2,0,P|490:279|505:211,2,140,2|8|0,1:2|2:0|1:0,2:0:0:0:
294,278,58021,6,0,P|255:292|229:298,1,70,10|0,2:0|2:0,2:0:0:0:
161,207,58364,2,0,P|194:197|227:185,1,70,2|0,1:2|2:0,2:0:0:0:
307,91,58707,1,10,2:0:0:0:
425,161,58878,1,0,1:0:0:0:
425,161,58964,1,0,1:0:0:0:
425,161,59050,6,0,P|413:88|401:15,2,147,6|6|6,1:2|1:2|1:2,2:0:0:0:
307,91,59736,2,0,P|318:163|330:236,2,147,6|6|6,1:2|1:2|1:2,2:0:0:0:
211,50,60421,2,0,P|180:91|86:101,1,140,6|2,1:2|2:0,2:0:0:0:
17,46,60936,2,0,P|2:7|-5:-6,2,49,2|2|2,2:0|2:0|2:0,2:0:0:0:
7,143,61278,1,0,2:0:0:0:
7,143,61450,6,0,P|25:225|35:268,1,126,8|0,2:0|2:0,2:0:0:0:
34,265,61793,6,0,P|75:253|113:235,1,84,6|0,1:2|2:0,2:0:0:0:
198,289,62135,2,0,P|238:300|276:318,1,84,8|0,2:0|3:0,2:0:0:0:
363,266,62478,2,0,P|378:206|394:179,1,84,2|0,1:2|3:0,2:0:0:0:
429,94,62821,2,0,P|329:110|268:117,1,126,8|0,2:0|2:0,2:0:0:0:
304,113,63164,6,0,P|318:47|322:20,1,84,2|0,1:2|3:0,2:0:0:0:
219,20,63507,2,0,P|211:61|202:102,1,84,10|0,2:0|3:0,2:0:0:0:
121,218,63850,2,0,P|198:202|223:194,1,84,2|0,1:2|3:0,2:0:0:0:
221,293,64193,2,0,P|261:282|303:276,1,84,10|0,2:0|3:0,2:0:0:0:
487,261,64535,6,0,P|509:292|511:341,1,84,2|0,1:2|3:0,2:0:0:0:
417,365,64878,2,0,P|394:333|392:284,1,84,10|0,2:0|3:0,2:0:0:0:
411,190,65221,2,0,P|422:149|436:109,1,84,2|0,1:2|3:0,2:0:0:0:
440,9,65564,2,0,P|370:32|298:46,1,126,10|0,2:0|2:0,2:0:0:0:
318,42,65907,6,0,P|331:81|343:122,1,84,2|0,1:2|3:0,2:0:0:0:
264,184,66250,2,0,P|252:143|238:103,1,84,8|0,2:0|3:0,2:0:0:0:
147,38,66593,1,2,1:2:0:0:
147,38,66764,1,2,3:2:0:0:
35,60,66935,1,10,2:0:0:0:
35,60,67107,1,2,3:2:0:0:
0,172,67278,6,0,P|28:256|51:335,1,147,6|0,1:2|2:0,2:0:0:0:
44,311,67621,2,0,P|73:274|120:260,1,98,8|0,2:0|3:0,2:0:0:0:
212,293,67964,1,2,1:2:0:0:
212,293,68135,1,2,3:2:0:0:
304,255,68307,1,10,2:0:0:0:
304,255,68478,1,2,3:2:0:0:
286,159,68650,6,0,P|245:150|204:142,1,84,2|0,1:2|3:0,2:0:0:0:
209,49,68993,2,0,P|250:40|291:32,1,84,10|0,2:0|3:0,2:0:0:0:
387,2,69335,2,0,P|428:72|508:91,1,168,2|8,1:2|2:0,2:0:0:0:
508,90,70021,6,0,P|466:98|425:107,1,84,2|0,1:2|3:0,2:0:0:0:
345,234,70364,2,0,P|385:224|427:215,1,84,10|2,2:0|3:2,2:0:0:0:
512,302,70707,1,2,1:2:0:0:
512,302,70878,1,2,3:2:0:0:
432,377,71050,1,10,2:0:0:0:
432,377,71221,1,2,3:2:0:0:
332,330,71393,6,0,P|290:319|244:310,1,84,2|2,1:2|1:2,2:0:0:0:
153,360,71735,1,10,2:0:0:0:
66,292,71907,1,2,1:2:0:0:
66,292,71993,1,0,1:0:0:0:
66,292,72078,6,0,P|51:209|36:126,2,168,6|6|6,1:2|1:2|1:2,2:0:0:0:
153,360,72764,6,0,B|252:359|186:290|311:290,1,168,6|8,1:2|2:0,2:0:0:0:
401,290,73278,1,2,3:2:0:0:
401,290,73450,2,0,P|373:259|369:217,1,84,2|0,1:2|3:0,2:0:0:0:
466,189,73793,2,0,P|471:126|481:64,1,126,8|0,2:0|2:0,2:0:0:0:
482,64,74135,6,0,P|434:75|392:85,1,84,2|0,1:2|3:0,2:0:0:0:
303,151,74478,2,0,P|262:161|221:170,1,84,10|0,2:0|3:0,2:0:0:0:
50,114,74821,2,0,P|22:144|17:185,1,84,2|0,1:2|3:0,2:0:0:0:
101,243,75164,2,0,P|128:212|133:171,1,84,10|0,2:0|3:0,2:0:0:0:
159,2,75507,6,0,P|169:43|183:83,1,84,2|0,1:2|3:0,2:0:0:0:
283,87,75850,2,0,P|269:47|260:7,1,84,10|0,2:0|3:0,2:0:0:0:
418,188,76193,2,0,P|361:174|333:169,1,84,2|0,1:2|3:0,2:0:0:0:
237,252,76535,2,0,P|298:263|359:279,1,126,10|0,2:0|2:0,2:0:0:0:
359,279,76878,6,0,P|376:332|384:364,1,84,2|0,1:2|3:0,2:0:0:0:
484,356,77221,2,0,P|473:315|460:275,1,84,8|0,2:0|3:0,2:0:0:0:
418,188,77564,1,2,1:2:0:0:
418,188,77735,1,2,3:2:0:0:
511,145,77907,1,10,2:0:0:0:
511,145,78078,1,2,3:2:0:0:
436,21,78250,6,0,P|425:104|417:187,1,168,6|8,1:2|2:0,2:0:0:0:
333,243,78764,1,2,3:2:0:0:
333,243,78935,2,0,P|289:177|209:188,1,168,6|8,1:2|2:0,2:0:0:0:
114,258,79450,5,2,3:2:0:0:
114,258,79621,1,6,1:2:0:0:
11,200,79793,1,2,1:2:0:0:
11,200,79964,1,10,2:0:0:0:
101,117,80135,2,0,P|142:125|182:137,1,84,6|0,1:2|1:2,2:0:0:0:
0,47,80478,6,0,P|13:39|35:29,3,49,2|2|10|2,1:2|1:2|2:0|2:0,2:0:0:0:
71,0,80821,1,2,1:2:0:0:
173,20,80993,6,0,P|159:92|147:164,2,147,6|6|2,1:2|1:2|1:2,2:0:0:0:
263,166,81678,2,0,P|274:93|287:21,2,147,6|6|2,1:2|1:2|1:2,2:0:0:0:
333,242,82364,6,0,B|383:222|383:222|401:196|401:196|458:173,1,147,6|0,1:2|2:0,2:0:0:0:
458,173,82707,2,0,P|447:227|443:263,1,70,8|0,2:0|1:0,2:0:0:0:
502,328,83050,1,0,1:0:0:0:
502,328,83221,1,0,1:0:0:0:
403,332,83393,2,0,P|370:344|337:357,1,70,8|0,2:0|1:0,2:0:0:0:
210,261,83735,5,6,1:2:0:0:
210,261,83907,1,2,1:2:0:0:
136,325,84078,1,2,2:0:0:0:
39,309,84250,2,0,P|28:276|17:243,1,70,6|0,1:2|2:0,2:0:0:0:
93,167,84593,2,0,P|104:200|115:233,1,70,6|0,1:2|2:0,2:0:0:0:
210,261,84935,6,0,B|309:255|239:189|364:183,1,168,6|0,1:2|1:0,2:0:0:0:
445,217,85450,1,10,2:0:0:0:
445,217,85535,1,2,2:0:0:0:
445,217,85621,1,2,1:2:0:0:
445,217,85707,1,2,1:2:0:0:
445,217,85793,2,0,P|427:294|422:316,1,84,6|6,1:2|1:2,2:0:0:0:
344,358,86135,1,8,2:0:0:0:
210,261,86307,1,6,1:2:0:0:
256,192,86328,12,0,89221,2:0:0:0:
