osu file format v14

[General]
AudioFilename: audio.mp3
AudioLeadIn: 0
PreviewTime: 61621
Countdown: 0
SampleSet: Soft
StackLeniency: 0.4
Mode: 0
LetterboxInBreaks: 0
WidescreenStoryboard: 0

[Editor]
Bookmarks: 1451,4193,6936,12422,17908,26136,37107,48078,53564,59050,61793,72764,83735,89221
DistanceSpacing: 1.4
BeatDivisor: 4
GridSize: 32
TimelineZoom: 3.899998

[Metadata]
Title:Mogitate Fruit Girls (TV Size)
TitleUnicode:も・ぎ・た・て♥フルーツガールズ (TV Size)
Artist:Kinoshita Ringo (CV: Tamura Yukari) & Nakazawa Minori (CV: Hanazawa Kana)
ArtistUnicode:木下林檎 (CV:田村ゆかり) & 中沢農 (CV:花澤香菜)
Creator:Creamy Candy
Version:Extra
Source:のうりん
Tags:ending ed nourin no-rin ][ -GH- ][ Roger anime japanese pop jpop j-pop
BeatmapID:2486581
BeatmapSetID:1193386

[Difficulty]
HPDrainRate:5
CircleSize:3.8
OverallDifficulty:8.5
ApproachRate:9.3
SliderMultiplier:1.6
SliderTickRate:1

[Events]
//Background and Video events
0,0,"1.jpg",0,0
//Break Periods
//Storyboard Layer 0 (Background)
//Storyboard Layer 1 (Fail)
//Storyboard Layer 2 (Pass)
//Storyboard Layer 3 (Foreground)
//Storyboard Layer 4 (Overlay)
//Storyboard Sound Samples

[TimingPoints]
1451,342.857142857143,4,2,1,44,1,0
5393,-100,4,2,1,30,0,0
5565,-100,4,2,2,66,0,0
5651,-100,4,2,3,66,0,0
5736,-100,4,2,4,66,0,0
5822,-100,4,2,5,66,0,0
5908,-71.4285714285714,4,2,6,55,0,0
5993,-71.4285714285714,4,2,7,55,0,0
6079,-71.4285714285714,4,2,146,44,0,0
6165,-71.4285714285714,4,2,147,44,0,0
6251,-125,4,2,148,44,0,0
6422,-125,4,2,1,19,0,0
6508,-125,4,2,1,5,0,0
6593,-50,4,2,1,19,0,0
6850,-50,4,2,1,5,0,0
6936,-333.333333333333,4,2,11,66,0,0
7622,-333.333333333333,4,2,1,66,0,0
8308,-125,4,2,12,66,0,0
8651,-125,4,2,13,66,0,0
8993,-125,4,2,14,66,0,0
9336,-100,4,2,15,66,0,0
9593,-100,4,2,15,5,0,0
9679,-111.111111111111,4,2,16,66,0,0
10022,-111.111111111111,4,2,17,66,0,0
10365,-111.111111111111,4,2,18,66,0,0
10708,-111.111111111111,4,2,14,66,0,0
11051,-111.111111111111,4,2,18,66,0,0
11736,-83.3333333333333,4,2,19,44,0,0
11821,-83.3333333333333,4,2,1,19,0,0
11908,-83.3333333333333,4,2,20,55,0,0
11993,-83.3333333333333,4,2,1,30,0,0
12079,-71.4285714285714,4,2,21,66,0,0
12164,-71.4285714285714,4,2,1,44,0,0
12251,-71.4285714285714,4,2,22,77,0,0
12336,-71.4285714285714,4,2,1,59,0,0
12422,-62.5,4,2,23,77,0,0
12679,-62.5,4,2,23,5,0,0
12765,-62.5,4,2,1,59,0,0
12936,-62.5,4,2,24,77,0,0
13108,-100,4,2,23,77,0,0
13279,-100,4,2,1,59,0,0
13622,-100,4,2,22,77,0,0
13793,-100,4,2,25,77,0,0
13965,-100,4,2,22,77,0,0
14136,-100,4,2,26,77,0,0
14308,-100,4,2,27,77,0,0
14479,-100,4,2,1,30,0,0
14651,-100,4,2,1,44,0,0
14822,-100,4,2,1,59,0,0
14993,-100,4,2,28,77,0,0
15165,-41.6666666666667,4,2,29,77,0,0
15336,-41.6666666666667,4,2,29,5,0,0
15422,-41.6666666666667,4,2,30,77,0,0
15593,-41.6666666666667,4,2,30,5,0,0
15679,-41.6666666666667,4,2,31,77,0,0
15851,-41.6666666666667,4,2,32,77,0,0
16022,-41.6666666666667,4,2,32,5,0,0
16108,-41.6666666666667,4,2,33,77,0,0
16279,-41.6666666666667,4,2,33,5,0,0
16365,-41.6666666666667,4,2,34,77,0,0
16536,-83.3333333333333,4,2,35,77,0,0
16708,-83.3333333333333,4,2,1,59,0,0
16793,-83.3333333333333,4,2,1,5,0,0
16879,-83.3333333333333,4,2,1,59,0,0
17908,-83.3333333333333,4,2,26,77,0,0
18079,-83.3333333333333,4,2,24,77,0,0
18251,-83.3333333333333,4,2,26,77,0,0
18422,-100,4,2,35,77,0,0
18593,-100,4,2,1,59,0,0
18765,-100,4,2,27,77,0,0
18936,-100,4,2,1,59,0,0
19108,-83.3333333333333,4,2,36,77,0,0
19279,-83.3333333333333,4,2,1,59,0,0
19793,-83.3333333333333,4,2,37,77,0,0
19879,-83.3333333333333,4,2,38,77,0,0
19965,-83.3333333333333,4,2,39,77,0,0
20136,-83.3333333333333,4,2,38,77,0,0
20308,-83.3333333333333,4,2,37,77,0,0
20479,-83.3333333333333,4,2,26,77,0,0
20651,-83.3333333333333,4,2,22,77,0,0
20822,-83.3333333333333,4,2,26,77,0,0
20993,-83.3333333333333,4,2,22,77,0,0
21165,-83.3333333333333,4,2,26,77,0,0
21336,-83.3333333333333,4,2,40,77,0,0
21508,-125,4,2,36,77,0,0
21679,-125,4,2,1,59,0,0
21765,-125,4,2,1,5,0,0
21851,-40,4,2,41,77,0,0
22022,-40,4,2,1,59,0,0
22108,-40,4,2,1,5,0,0
22193,-40,4,2,42,77,0,0
22365,-40,4,2,43,77,0,0
22536,-100,4,2,42,77,0,0
22708,-100,4,2,1,59,0,0
23051,-100,4,2,44,77,0,0
23136,-100,4,2,45,77,0,0
23222,-100,4,2,46,77,0,0
23308,-100,4,2,47,77,0,0
23393,-100,4,2,37,77,0,0
23565,-100,4,2,48,77,0,0
23736,-100,4,2,49,77,0,0
23908,-100,4,2,50,77,0,0
24251,-100,4,2,28,77,0,0
24593,-83.3333333333333,4,2,51,77,0,0
24935,-83.3333333333333,4,2,1,59,0,0
25108,-83.3333333333333,4,2,52,55,0,0
25193,-83.3333333333333,4,2,6,55,0,0
25279,-83.3333333333333,4,2,53,66,0,0
25365,-83.3333333333333,4,2,54,66,0,0
25451,-62.5,4,2,39,77,0,0
25536,-62.5,4,2,39,5,0,0
25622,-62.5,4,2,39,77,0,0
26136,342.857142857143,4,2,1,44,1,0
26136,-125,4,2,1,44,0,0
26478,-125,4,2,55,44,0,0
31964,-125,4,2,56,66,0,0
32307,-125,4,2,12,66,0,0
32650,-125,4,2,57,66,0,0
32993,-125,4,2,12,66,0,0
33336,-125,4,2,57,66,0,0
33678,-125,4,2,58,66,0,0
34021,-125,4,2,12,66,0,0
34364,-100,4,2,56,66,0,0
34706,-100,4,2,1,44,0,0
34878,-100,4,2,59,66,0,0
35050,-125,4,2,59,66,0,0
35392,-125,4,2,1,44,0,0
35564,-125,4,2,60,66,0,0
35650,-125,4,2,61,66,0,0
35736,-125,4,2,62,55,0,0
35907,-125,4,2,63,55,0,0
36078,-125,4,2,64,55,0,0
36250,-125,4,2,65,55,0,0
36421,-125,4,2,66,66,0,0
36593,-125,4,2,67,66,0,0
36764,-125,4,2,68,66,0,0
36936,-125,4,2,69,66,0,0
37107,-100,4,2,1,44,0,0
37450,-71.4285714285714,4,2,55,44,0,0
37707,-71.4285714285714,4,2,55,5,0,0
37793,-100,4,2,55,44,0,0
40193,-71.4285714285714,4,2,55,44,0,0
40450,-71.4285714285714,4,2,55,5,0,0
40536,-100,4,2,55,44,0,0
42850,-100,4,2,55,5,0,0
42936,-100,4,2,17,66,0,0
43278,-100,4,2,58,66,0,0
43621,-100,4,2,57,66,0,0
43964,-100,4,2,12,66,0,0
44307,-100,4,2,57,66,0,0
44650,-100,4,2,58,66,0,0
44993,-125,4,2,12,66,0,0
45250,-125,4,2,12,5,0,0
45336,-100,4,2,70,66,0,0
45678,-100,4,2,55,44,0,0
46193,-100,4,2,71,66,0,0
46364,-100,4,2,72,66,0,0
46536,-100,4,2,73,66,0,0
46878,-100,4,2,1,44,0,0
47393,-71.4285714285714,4,2,74,66,0,0
47478,-71.4285714285714,4,2,1,44,0,0
47564,-71.4285714285714,4,2,75,66,0,0
47649,-71.4285714285714,4,2,1,44,0,0
47736,-71.4285714285714,4,2,76,66,0,0
47907,-71.4285714285714,4,2,77,66,0,0
48078,-71.4285714285714,4,2,1,44,0,0
48421,-62.5,4,2,78,77,0,0
48506,-62.5,4,2,78,5,0,0
48764,-62.5,4,2,79,77,0,0
48849,-62.5,4,2,79,5,0,0
49107,-62.5,4,2,80,77,0,0
49278,-71.4285714285714,4,2,81,77,0,0
49535,-71.4285714285714,4,2,81,5,0,0
49621,-71.4285714285714,4,2,26,77,0,0
49793,-100,4,2,26,77,0,0
49964,-100,4,2,1,59,0,0
50307,-100,4,2,76,77,0,0
50478,-100,4,2,28,77,0,0
50650,-100,4,2,76,77,0,0
50821,-100,4,2,1,59,0,0
51164,-125,4,2,82,77,0,0
51421,-125,4,2,82,5,0,0
51507,-41.6666666666667,4,2,83,77,0,0
51764,-41.6666666666667,4,2,83,5,0,0
51850,-41.6666666666667,4,2,84,77,0,0
52021,-100,4,2,85,77,0,0
52278,-100,4,2,85,5,0,0
52364,-71.4285714285714,4,2,22,77,0,0
52536,-71.4285714285714,4,2,31,77,0,0
52621,-71.4285714285714,4,2,55,59,0,0
53050,-71.4285714285714,4,2,86,77,0,0
53221,-71.4285714285714,4,2,28,77,0,0
53393,-71.4285714285714,4,2,87,77,0,0
53478,-71.4285714285714,4,2,1,59,0,0
53564,-100,4,2,1,59,0,0
53735,-100,4,2,28,77,0,0
53907,-100,4,2,51,77,0,0
54078,-100,4,2,28,77,0,0
54250,-100,4,2,76,77,0,0
54421,-100,4,2,88,77,0,0
54593,-83.3333333333333,4,2,88,77,0,0
54764,-83.3333333333333,4,2,82,77,0,0
54936,-100,4,2,1,59,0,0
55107,-100,4,2,76,77,0,0
55278,-100,4,2,28,77,0,0
55449,-100,4,2,76,77,0,0
55621,-100,4,2,32,77,0,0
55964,-100,4,2,89,77,0,0
56136,-100,4,2,26,77,0,0
56307,-100,4,2,78,77,0,0
56650,-100,4,2,1,59,0,0
56821,-100,4,2,77,77,0,0
56993,-100,4,2,82,77,0,0
57336,-100,4,2,1,59,0,0
58021,-100,4,2,10,77,0,0
58364,-100,4,2,90,77,0,0
58707,-100,4,2,87,77,0,0
58878,-100,4,2,1,59,0,0
59050,-125,4,2,91,77,0,0
59221,-125,4,2,91,5,0,0
59307,-41.6666666666667,4,2,91,77,0,0
59478,-41.6666666666667,4,2,91,5,0,0
59564,-41.6666666666667,4,2,92,77,0,0
59736,-71.4285714285714,4,2,91,77,0,0
59907,-71.4285714285714,4,2,91,5,0,0
59993,-31.25,4,2,93,77,0,0
60164,-31.25,4,2,93,5,0,0
60250,-31.25,4,2,94,77,0,0
60421,-31.25,4,2,95,77,0,0
60507,-31.25,4,2,55,59,0,0
60593,-31.25,4,2,55,44,0,0
60764,-31.25,4,2,55,30,0,0
60936,-31.25,4,2,55,19,0,0
61021,-31.25,4,2,55,30,0,0
61107,-166.666666666667,4,2,55,44,0,0
61364,-166.666666666667,4,2,55,5,0,0
61450,-41.6666666666667,4,2,55,44,0,0
61707,-41.6666666666667,4,2,55,5,0,0
61793,342.857142857143,4,2,96,88,1,1
61793,-41.6666666666667,4,2,96,88,0,1
62050,-41.6666666666667,4,2,96,5,0,1
62135,-100,4,2,1,77,0,1
62478,-100,4,2,97,88,0,1
62649,-100,4,2,1,77,0,1
63164,-100,4,2,98,88,0,1
63335,-100,4,2,1,77,0,1
63507,-83.3333333333333,4,2,99,88,0,1
63678,-83.3333333333333,4,2,1,77,0,1
63850,-71.4285714285714,4,2,100,88,0,1
64021,-71.4285714285714,4,2,1,77,0,1
64193,-62.5,4,2,96,88,0,1
64364,-62.5,4,2,1,77,0,1
64535,-125,4,2,101,88,0,1
64706,-125,4,2,1,77,0,1
64878,-100,4,2,102,88,0,1
65049,-100,4,2,1,77,0,1
65221,-83.3333333333333,4,2,96,88,0,1
65392,-83.3333333333333,4,2,1,77,0,1
65564,-71.4285714285714,4,2,100,88,0,1
65735,-71.4285714285714,4,2,1,77,0,1
65907,-71.4285714285714,4,2,96,88,0,1
66078,-71.4285714285714,4,2,1,77,0,1
66164,-71.4285714285714,4,2,1,5,0,1
66250,-71.4285714285714,4,2,1,77,0,1
66593,-71.4285714285714,4,2,103,88,0,1
66764,-71.4285714285714,4,2,104,88,0,1
66935,-71.4285714285714,4,2,103,88,0,1
67107,-71.4285714285714,4,2,79,88,0,1
67278,-100,4,2,105,88,0,1
67621,-100,4,2,1,77,0,1
67964,-100,4,2,103,88,0,1
68135,-100,4,2,104,88,0,1
68307,-100,4,2,103,88,0,1
68478,-100,4,2,79,88,0,1
68650,-100,4,2,106,88,0,1
68821,-100,4,2,1,77,0,1
68993,-83.3333333333333,4,2,99,88,0,1
69164,-83.3333333333333,4,2,1,77,0,1
69335,-71.4285714285714,4,2,106,88,0,1
69506,-71.4285714285714,4,2,1,77,0,1
70021,-71.4285714285714,4,2,107,88,0,1
70193,-71.4285714285714,4,2,1,77,0,1
70364,-71.4285714285714,4,2,24,88,0,1
70535,-71.4285714285714,4,2,28,88,0,1
70707,-71.4285714285714,4,2,108,88,0,1
70878,-71.4285714285714,4,2,28,88,0,1
71050,-71.4285714285714,4,2,50,88,0,1
71221,-71.4285714285714,4,2,109,88,0,1
71393,-71.4285714285714,4,2,110,88,0,1
71564,-71.4285714285714,4,2,111,88,0,1
71735,-71.4285714285714,4,2,112,88,0,1
71907,-71.4285714285714,4,2,113,88,0,1
71993,-71.4285714285714,4,2,1,77,0,1
72078,-100,4,2,114,88,0,0
72249,-100,4,2,114,5,0,0
72335,-33.3333333333333,4,2,115,88,0,0
72506,-33.3333333333333,4,2,115,5,0,0
72593,-55.5555555555556,4,2,113,88,0,0
72678,-55.5555555555556,4,2,113,5,0,0
72764,-71.4285714285714,4,2,116,88,0,1
73021,-71.4285714285714,4,2,116,5,0,1
73107,-33.3333333333333,4,2,1,77,0,1
73364,-33.3333333333333,4,2,1,5,0,1
73450,-100,4,2,97,88,0,1
73621,-100,4,2,1,77,0,1
74135,-100,4,2,98,88,0,1
74306,-100,4,2,1,77,0,1
74478,-83.3333333333333,4,2,99,88,0,1
74649,-83.3333333333333,4,2,1,77,0,1
74821,-71.4285714285714,4,2,100,88,0,1
74992,-71.4285714285714,4,2,1,77,0,1
75164,-62.5,4,2,96,88,0,1
75335,-62.5,4,2,1,77,0,1
75507,-125,4,2,101,88,0,1
75678,-125,4,2,1,77,0,1
75850,-100,4,2,102,88,0,1
76021,-100,4,2,1,77,0,1
76193,-83.3333333333333,4,2,96,88,0,1
76364,-83.3333333333333,4,2,1,77,0,1
76535,-71.4285714285714,4,2,100,88,0,1
76706,-71.4285714285714,4,2,1,77,0,1
76878,-71.4285714285714,4,2,96,88,0,1
77050,-71.4285714285714,4,2,1,77,0,1
77135,-71.4285714285714,4,2,1,5,0,1
77221,-71.4285714285714,4,2,1,77,0,1
77564,-71.4285714285714,4,2,103,88,0,1
77735,-71.4285714285714,4,2,104,88,0,1
77907,-71.4285714285714,4,2,103,88,0,1
78078,-71.4285714285714,4,2,79,88,0,1
78250,-100,4,2,106,88,0,1
78593,-100,4,2,1,77,0,1
78764,-100,4,2,117,88,0,1
78935,-100,4,2,118,88,0,1
79107,-100,4,2,1,77,0,1
79450,-100,4,2,109,88,0,1
79621,-100,4,2,119,88,0,1
79793,-100,4,2,120,88,0,1
79964,-100,4,2,77,88,0,1
80135,-100,4,2,121,88,0,1
80307,-100,4,2,122,88,0,1
80393,-100,4,2,123,88,0,1
80478,-100,4,2,124,88,0,1
80564,-100,4,2,125,88,0,1
80650,-100,4,2,126,88,0,1
80735,-100,4,2,40,88,0,1
80821,-100,4,2,127,88,0,1
80907,-100,4,2,40,88,0,1
80993,-41.6666666666667,4,2,128,88,0,1
81164,-41.6666666666667,4,2,128,5,0,1
81250,-41.6666666666667,4,2,129,88,0,1
81421,-41.6666666666667,4,2,129,5,0,1
81507,-41.6666666666667,4,2,130,88,0,1
81678,-41.6666666666667,4,2,131,88,0,1
81849,-41.6666666666667,4,2,131,5,0,1
81935,-41.6666666666667,4,2,132,88,0,1
82106,-41.6666666666667,4,2,132,5,0,1
82193,-41.6666666666667,4,2,133,88,0,1
82364,-71.4285714285714,4,2,134,88,0,1
82535,-71.4285714285714,4,2,1,77,0,1
82621,-71.4285714285714,4,2,1,5,0,1
82707,-71.4285714285714,4,2,1,77,0,1
83735,-71.4285714285714,4,2,135,88,0,0
83907,-71.4285714285714,4,2,111,88,0,0
84078,-71.4285714285714,4,2,136,88,0,0
84250,-62.5,4,2,137,88,0,0
84335,-62.5,4,2,137,5,0,0
84593,-62.5,4,2,138,88,0,0
84678,-62.5,4,2,138,5,0,0
84935,-62.5,4,2,139,88,0,0
85278,-62.5,4,2,1,77,0,0
85450,-62.5,4,2,126,88,0,0
85535,-62.5,4,2,40,88,0,0
85621,-62.5,4,2,140,88,0,0
85707,-62.5,4,2,141,88,0,0
85793,-62.5,4,2,142,88,0,0
86135,-62.5,4,2,1,77,0,0
86307,-62.5,4,2,143,88,0,0
89221,-62.5,4,2,143,5,0,0

[Colours]
Combo1 : 218,168,182
Combo2 : 87,91,124
Combo3 : 124,148,172
Combo4 : 164,112,130

[HitObjects]
90,349,1451,5,4,1:0:0:0:
90,269,1793,1,8,2:1:0:0:
159,309,2136,1,0,2:0:0:0:
348,353,2308,5,0,1:0:0:0:
421,322,2651,1,0,2:0:0:0:
392,248,2993,1,0,2:0:0:0:
317,278,3336,1,8,2:1:0:0:
145,82,3508,5,0,2:0:0:0:
145,82,3851,1,8,2:1:0:0:
397,131,4193,5,4,1:0:0:0:
397,35,4536,1,8,2:1:0:0:
314,83,4879,1,0,2:0:0:0:
367,302,5051,5,0,1:0:0:0:
367,302,5393,1,0,1:0:0:0:
242,359,5565,5,2,1:2:0:0:
242,359,5651,1,2,1:2:0:0:
242,359,5736,1,2,1:2:0:0:
242,359,5822,1,2,1:2:0:0:
242,359,5908,2,0,P|246:339|256:301,1,56,2|2,1:2|1:2,2:0:0:0:
428,219,6079,1,2,1:2:0:0:
428,219,6165,1,2,1:2:0:0:
428,218,6251,2,0,P|472:228|480:277,1,96,2|0,1:2|2:0,2:0:0:0:
448,302,6593,6,0,B|303:321|384:196|233:214,1,240,8|0,2:0|2:0,2:0:0:0:
170,256,6936,6,0,P|136:267|104:283,1,72.0000000000001,6|0,1:2|2:0,2:0:0:0:
104,283,7622,1,2,2:0:0:0:
240,137,8308,6,0,P|247:106|256:76,1,64,2|0,2:0|2:0,2:0:0:0:
342,212,8651,2,0,P|365:234|387:257,1,64,2|0,2:0|2:0,2:0:0:0:
230,265,8993,2,0,P|199:273|168:281,1,64,2|0,2:0|2:0,2:0:0:0:
30,93,9336,6,0,P|55:41|112:31,1,120,2|0,2:0|2:0,2:0:0:0:
203,15,9679,6,0,P|190:48|180:82,1,72.0000000000001,2|0,2:0|2:0,2:0:0:0:
285,164,10022,2,0,P|298:130|308:96,1,72.0000000000001,2|0,2:0|2:0,2:0:0:0:
497,24,10365,2,0,P|463:37|429:47,1,72.0000000000001,2|0,2:0|2:0,2:0:0:0:
390,206,10708,2,0,P|424:195|457:182,1,72.0000000000001,2|0,2:0|2:0,2:0:0:0:
497,24,11051,1,2,2:0:0:0:
285,164,11736,6,0,P|275:141|268:118,1,48,2|2,2:0|2:3,2:0:0:0:
180,69,11908,2,0,P|173:92|164:114,1,48,2|2,2:0|2:3,2:0:0:0:
15,196,12079,6,0,P|51:185|81:168,1,56,2|0,1:2|1:0,2:0:0:0:
247,326,12251,2,0,P|211:315|181:298,1,56,2|0,1:2|1:0,2:0:0:0:
49,372,12422,6,0,B|150:312|43:280|178:216,1,192,6|0,1:2|2:0,2:0:0:0:
163,114,12765,1,8,2:0:0:0:
261,213,12936,1,2,3:2:0:0:
429,62,13108,2,0,P|358:88|354:164,1,160,2|8,1:2|2:0,2:0:0:0:
406,274,13622,5,2,3:2:0:0:
258,66,13793,1,6,1:2:0:0:
301,305,13965,1,2,1:2:0:0:
509,170,14136,1,10,2:0:0:0:
319,0,14308,1,6,1:2:0:0:
229,163,14479,5,0,1:0:0:0:
267,170,14565,1,0,1:0:0:0:
305,158,14651,1,0,1:0:0:0:
333,130,14736,1,0,1:0:0:0:
345,92,14822,1,8,2:0:0:0:
258,66,14993,1,2,1:2:0:0:
117,315,15165,6,0,B|131:247|131:247|111:195|111:195|124:128,1,192,6|0,1:2|2:0,2:0:0:0:
136,121,15422,2,0,B|123:188|123:188|142:239|142:239|128:307,1,192,6|0,1:2|2:0,2:0:0:0:
46,365,15679,1,2,2:0:0:0:
342,184,15851,6,0,B|303:185|275:158|275:158|281:217|216:294,1,192,6|0,1:2|2:0,2:0:0:0:
245,358,16108,2,0,B|284:357|312:384|312:384|306:325|371:248,1,192,6|0,1:2|2:0,2:0:0:0:
446,92,16365,1,2,2:0:0:0:
493,198,16536,6,0,B|433:179|433:179|413:188|413:188|340:166,1,144,6|0,1:2|2:0,2:0:0:0:
331,178,16879,1,8,2:0:0:0:
188,18,17051,1,0,1:0:0:0:
188,18,17136,1,0,1:0:0:0:
188,18,17222,1,0,1:0:0:0:
69,93,17393,1,0,1:0:0:0:
212,29,17565,1,8,2:0:0:0:
124,310,17736,1,0,2:0:0:0:
256,225,17908,5,6,1:2:0:0:
256,225,18079,1,2,2:0:0:0:
165,122,18251,1,10,2:0:0:0:
321,24,18422,2,0,P|308:61|301:101,1,80,2|0,3:2|1:0,2:0:0:0:
462,312,18765,2,0,P|454:272|442:234,1,80,2|8,3:2|2:0,2:0:0:0:
512,65,19108,6,0,P|462:143|370:147,1,192,2|0,3:2|3:0,2:0:0:0:
212,44,19622,1,8,2:0:0:0:
362,254,19793,1,2,3:2:0:0:
362,254,19879,1,2,2:0:0:0:
362,254,19965,1,2,1:2:0:0:
81,156,20136,1,2,3:2:0:0:
138,345,20308,1,10,2:0:0:0:
329,226,20479,1,2,3:2:0:0:
338,121,20651,5,2,1:2:0:0:
233,167,20822,1,2,3:2:0:0:
362,254,20993,5,10,2:0:0:0:
498,192,21165,1,2,3:2:0:0:
315,343,21336,5,2,1:2:0:0:
91,256,21508,2,0,P|25:278|-21:289,1,96,2|0,3:2|2:0,2:0:0:0:
141,350,21851,6,0,B|241:250|177:147|76:148|50:245|109:270,1,300,2|0,3:2|2:0,2:0:0:0:
45,355,22193,5,2,3:2:0:0:
280,218,22365,1,10,2:0:0:0:
107,43,22536,2,0,P|187:95|274:112,1,160,2|0,3:2|3:0,2:0:0:0:
462,31,23051,1,10,2:0:0:0:
418,12,23136,1,2,2:0:0:0:
372,23,23222,1,2,2:0:0:0:
341,59,23308,1,2,2:0:0:0:
337,106,23393,5,6,1:2:0:0:
432,270,23565,1,2,1:2:0:0:
245,78,23736,1,2,2:0:0:0:
97,328,23908,2,0,P|155:310|184:297,1,80,6|0,1:2|2:0,2:0:0:0:
372,211,24251,2,0,P|314:193|285:180,1,80,6|0,1:2|2:0,2:0:0:0:
167,25,24593,6,0,B|145:140|78:50|64:199,1,192,6|0,1:2|1:0,2:0:0:0:
11,282,25108,5,2,2:0:0:0:
11,282,25193,1,2,2:0:0:0:
11,282,25279,1,2,1:2:0:0:
11,282,25365,1,2,1:2:0:0:
11,281,25451,2,0,P|43:275|82:259,1,64,6|0,1:2|2:0,2:0:0:0:
254,124,25622,1,6,1:2:0:0:
234,303,26136,6,0,P|265:313|305:342,1,64,4|0,1:0|2:0,2:0:0:0:
163,241,26478,2,0,P|142:193|126:174,1,64,2|0,1:2|2:0,2:0:0:0:
141,332,26821,2,0,P|101:365|84:389,1,64,2|0,1:2|2:0,2:0:0:0:
266,208,27164,1,2,1:2:0:0:
266,208,27336,1,2,2:0:0:0:
469,309,27507,6,0,P|440:297|418:274,1,64,2|0,1:2|2:0,2:0:0:0:
284,265,27850,2,0,P|309:245|340:238,1,64,2|0,1:2|2:0,2:0:0:0:
419,127,28193,2,0,P|422:158|413:189,1,64,2|0,1:2|2:0,2:0:0:0:
346,335,28536,1,2,1:2:0:0:
346,335,28707,1,2,2:0:0:0:
190,228,28878,6,0,P|159:222|129:213,1,64,2|0,1:2|2:0,2:0:0:0:
54,351,29221,2,0,P|84:341|115:335,1,64,2|0,1:2|2:0,2:0:0:0:
212,220,29564,2,0,P|180:213|150:204,1,64,2|0,1:2|2:0,2:0:0:0:
54,374,29907,1,2,1:2:0:0:
54,374,30078,1,2,2:0:0:0:
300,224,30250,6,0,P|365:207|383:200,1,64,2|0,1:2|2:0,2:0:0:0:
437,346,30593,2,0,P|406:336|375:330,1,64,2|0,1:2|2:0,2:0:0:0:
279,215,30936,2,0,P|310:208|340:199,1,64,2|0,1:2|2:0,2:0:0:0:
437,369,31278,1,2,1:2:0:0:
437,369,31450,1,2,2:0:0:0:
269,243,31621,1,0,1:0:0:0:
418,61,31964,6,0,P|405:104|395:135,1,64,2|0,1:2|2:0,2:0:0:0:
299,279,32307,2,0,P|312:236|322:205,1,64,2|0,1:2|2:0,2:0:0:0:
251,111,32650,2,0,P|294:124|325:134,1,64,2|0,1:2|2:0,2:0:0:0:
468,226,32993,2,0,P|425:213|394:203,1,64,2|0,1:2|2:0,2:0:0:0:
124,316,33336,6,0,P|114:353|107:388,1,64,2|0,1:2|2:0,2:0:0:0:
110,227,33678,2,0,P|82:200|55:176,1,64,2|0,1:2|2:0,2:0:0:0:
189,257,34021,2,0,P|225:246|259:234,1,64,2|0,1:2|2:0,2:0:0:0:
397,48,34364,6,0,B|393:149|328:70|310:198,1,160,2|0,1:2|1:0,2:0:0:0:
315,173,34878,1,2,2:0:0:0:
180,70,35050,2,0,P|242:55|304:39,1,128,2|0,1:2|1:0,2:0:0:0:
478,148,35564,5,2,2:0:0:0:
478,148,35650,1,2,2:0:0:0:
478,148,35736,1,6,1:2:0:0:
404,206,35907,1,2,2:0:0:0:
325,194,36078,1,2,2:0:0:0:
288,157,36250,1,2,2:0:0:0:
274,123,36421,1,2,2:0:0:0:
258,99,36593,1,2,2:0:0:0:
192,61,36764,1,2,2:0:0:0:
99,79,36936,1,2,2:0:0:0:
65,169,37107,6,0,P|74:207|82:247,1,80,4|0,1:0|2:0,2:0:0:0:
86,346,37450,2,0,B|187:342|119:274|242:264,1,168,10|0,2:0|2:0,2:0:0:0:
254,245,37793,2,0,P|292:256|329:271,1,80,2|0,1:2|2:0,2:0:0:0:
234,353,38136,1,10,2:0:0:0:
234,353,38307,1,2,2:0:0:0:
415,227,38478,6,0,P|432:157|441:132,1,80,2|0,1:2|2:0,2:0:0:0:
491,306,38821,2,0,P|502:344|510:383,1,80,10|0,2:0|2:0,2:0:0:0:
273,157,39164,2,0,P|228:140|188:133,1,80,2|0,1:2|2:0,2:0:0:0:
360,95,39507,1,10,2:0:0:0:
360,95,39678,1,2,2:0:0:0:
415,257,39850,6,0,P|432:187|441:162,1,80,2|0,1:2|2:0,2:0:0:0:
509,79,40193,2,0,B|407:75|476:7|353:-3,1,168,10|0,2:0|2:0,2:0:0:0:
363,18,40536,2,0,P|325:31|289:48,1,80,2|0,1:2|2:0,2:0:0:0:
85,26,40878,1,10,2:0:0:0:
221,248,41050,1,2,2:0:0:0:
84,172,41221,6,0,P|23:197|-5:204,1,80,2|0,1:2|2:0,2:0:0:0:
191,265,41564,2,0,P|229:277|265:293,1,80,10|0,2:0|2:0,2:0:0:0:
50,318,41907,2,0,P|9:357|-21:376,1,80,2|0,1:2|2:0,2:0:0:0:
181,104,42250,1,10,2:0:0:0:
44,291,42421,1,2,2:0:0:0:
265,293,42593,6,0,B|347:268|347:268|399:281,1,120,0|0,1:0|2:0,2:0:0:0:
474,267,42936,2,0,P|453:318|439:364,1,80,10|0,2:0|2:0,2:0:0:0:
325,159,43278,2,0,P|337:121|353:84,1,80,2|0,1:2|2:0,2:0:0:0:
140,253,43621,2,0,P|78:266|42:274,1,80,10|0,2:0|2:0,2:0:0:0:
116,136,43964,6,0,P|135:75|146:40,1,80,2|0,1:2|2:0,2:0:0:0:
237,217,44307,2,0,P|279:264|304:291,1,80,10|0,2:0|2:0,2:0:0:0:
106,281,44650,2,0,P|44:294|8:302,1,80,2|0,1:2|2:0,2:0:0:0:
324,263,44993,6,0,P|370:252|417:242,1,96,10|0,2:0|2:0,2:0:0:0:
329,174,45336,2,0,P|260:195|235:283,1,160,2|10,1:2|2:0,2:0:0:0:
435,372,45850,1,0,2:0:0:0:
435,372,45936,1,0,2:0:0:0:
435,372,46021,1,0,1:0:0:0:
285,154,46193,1,2,2:0:0:0:
311,384,46364,1,10,2:0:0:0:
501,238,46536,1,6,1:2:0:0:
188,380,46878,5,0,1:0:0:0:
188,380,46964,1,0,1:0:0:0:
188,380,47050,1,8,2:0:0:0:
184,236,47221,1,0,1:0:0:0:
38,159,47393,6,0,P|8:123|-17:106,1,56,2|0,1:2|1:0,2:0:0:0:
155,229,47564,2,0,P|169:252|179:278,1,56,2|0,1:2|1:0,2:0:0:0:
232,74,47736,2,0,P|258:17|266:3,1,56,10|0,2:0|2:0,2:0:0:0:
448,202,47907,1,2,1:2:0:0:
216,85,48078,1,8,2:3:0:0:
405,0,48250,1,4,2:3:0:0:
233,176,48421,6,0,P|264:186|294:201,1,64,6|0,1:2|2:0,2:0:0:0:
512,316,48764,6,0,P|480:326|450:341,1,64,6|0,1:2|2:0,2:0:0:0:
233,176,49107,5,10,2:0:0:0:
327,342,49278,2,0,B|331:240|398:309|409:185,1,168,6|0,1:2|2:0,2:0:0:0:
406,204,49621,1,2,1:2:0:0:
199,301,49793,2,0,P|123:327|52:364,1,160,10|0,2:0|1:0,2:0:0:0:
229,214,50307,1,2,1:2:0:0:
229,214,50478,1,10,2:0:0:0:
66,81,50650,2,0,P|75:119|84:158,1,80,2|8,1:2|2:3,2:0:0:0:
8,263,50993,1,4,2:3:0:0:
219,118,51164,6,0,P|265:127|303:156,1,96,6|0,1:2|2:0,2:0:0:0:
423,19,51507,6,0,P|353:136|219:119,1,288,6|0,1:2|2:0,2:0:0:0:
149,54,51850,5,10,2:0:0:0:
23,255,52021,6,0,P|81:255|118:210,1,120,6|0,1:2|2:0,2:0:0:0:
119,211,52364,2,0,L|100:263,1,56,2|0,1:2|2:0,2:0:0:0:
222,341,52536,2,0,L|240:288,1,56,10|2,2:0|2:0,2:0:0:0:
394,255,52707,5,2,1:2:0:0:
388,199,52793,1,0,2:0:0:0:
353,158,52878,1,2,1:2:0:0:
300,143,52964,1,2,2:0:0:0:
248,162,53050,1,2,2:0:0:0:
111,321,53221,1,10,2:0:0:0:
41,168,53393,1,2,1:2:0:0:
41,168,53478,1,0,1:0:0:0:
41,167,53564,6,0,P|79:156|111:132,1,80,0|2,1:0|2:0,2:0:0:0:
229,214,53907,2,0,P|267:225|299:249,1,80,10|2,2:0|2:0,2:0:0:0:
253,79,54250,2,0,P|218:22|182:1,1,80,2|2,1:2|2:0,2:0:0:0:
59,265,54593,6,0,P|41:322|17:377,1,96,14|2,2:0|2:0,2:0:0:0:
80,262,54936,6,0,P|149:243|164:226,1,80,0|2,1:0|2:0,2:0:0:0:
360,176,55278,2,0,P|371:119|356:87,1,80,10|2,2:0|2:0,2:0:0:0:
278,283,55621,2,0,P|317:369|317:377,1,80,2|0,1:2|2:0,2:0:0:0:
508,186,55964,1,14,2:0:0:0:
407,250,56136,1,2,2:0:0:0:
260,121,56307,6,0,P|222:111|184:98,1,80,2|0,1:2|2:0,2:0:0:0:
97,255,56650,2,0,P|134:241|173:231,1,80,8|2,2:0|2:0,2:0:0:0:
316,322,56993,2,0,P|301:285|288:247,1,80,2|0,1:2|2:0,2:0:0:0:
398,147,57336,2,0,P|412:185|426:223,1,80,8|0,2:0|2:0,2:0:0:0:
512,316,57678,1,0,1:0:0:0:
173,231,58021,6,0,P|187:174|196:140,1,80,10|0,2:0|2:0,2:0:0:0:
62,302,58364,2,0,P|18:330|-24:361,1,80,2|0,1:2|2:0,2:0:0:0:
281,268,58707,1,10,2:0:0:0:
72,174,58878,1,0,1:0:0:0:
72,174,58964,1,0,1:0:0:0:
72,174,59050,6,0,P|104:185|124:212,1,64,6|0,1:2|2:0,2:0:0:0:
169,278,59307,2,0,B|154:203|154:203|167:163|167:163|154:91,1,192,6|0,1:2|2:0,2:0:0:0:
154,91,59564,1,6,1:2:0:0:
335,347,59736,6,0,P|388:335|414:287,1,112,6|0,1:2|2:0,2:0:0:0:
483,226,59993,2,0,B|385:266|319:265|319:265|298:228|234:219,1,256,6|0,1:2|2:0,2:0:0:0:
247,221,60250,1,6,1:2:0:0:
423,9,60421,5,6,1:2:0:0:
423,9,60507,1,2,2:0:0:0:
423,9,60593,1,2,2:0:0:0:
416,61,60678,1,2,2:0:0:0:
388,106,60764,1,2,2:0:0:0:
343,133,60850,1,2,2:0:0:0:
290,137,60936,1,2,2:0:0:0:
241,118,61021,1,2,2:0:0:0:
204,78,61107,6,0,P|172:90|128:104,1,71.9999999999998,2|0,2:0|2:0,2:0:0:0:
0,210,61450,6,0,P|128:226|273:338,1,288,8|0,2:0|2:0,2:0:0:0:
373,190,61793,6,0,B|268:232|270:364|270:364|334:317|383:319,1,288,6|0,1:2|2:0,2:0:0:0:
412,291,62135,2,0,P|450:301|486:318,1,80,8|0,2:0|3:0,2:0:0:0:
269,168,62478,2,0,P|249:133|226:100,1,80,2|0,1:2|3:0,2:0:0:0:
472,21,62821,2,0,P|456:57|443:95,1,80,8|0,2:0|3:0,2:0:0:0:
165,211,63164,6,0,P|127:198|88:189,1,80,2|0,1:2|3:0,2:0:0:0:
14,179,63507,2,0,P|60:169|105:150,1,96,10|0,2:0|3:0,2:0:0:0:
256,20,63850,2,0,P|225:66|202:117,1,112,2|0,1:2|3:0,2:0:0:0:
269,322,64193,2,0,P|233:269|185:227,1,128,10|0,2:0|3:0,2:0:0:0:
50,193,64535,6,0,P|80:182|108:167,1,64,2|0,1:2|3:0,2:0:0:0:
269,322,64878,2,0,P|306:335|342:353,1,80,10|0,2:0|3:0,2:0:0:0:
40,102,65221,2,0,P|83:82|131:39,1,96,2|0,1:2|3:0,2:0:0:0:
263,226,65564,2,0,P|317:237|368:260,1,112,10|0,2:0|3:0,2:0:0:0:
507,81,65907,6,0,B|405:85|474:153|351:163,1,168,2|0,1:2|2:0,2:0:0:0:
369,161,66250,1,8,2:0:0:0:
99,84,66421,1,0,3:0:0:0:
99,84,66507,1,0,2:0:0:0:
99,84,66593,5,2,1:2:0:0:
237,11,66764,1,2,3:2:0:0:
87,251,66935,1,10,2:0:0:0:
310,355,67107,1,2,3:2:0:0:
250,100,67278,2,0,P|267:64|283:27,1,80,6|0,1:2|2:0,2:0:0:0:
163,137,67621,2,0,P|99:157|69:169,1,80,8|0,2:0|3:0,2:0:0:0:
343,198,67964,5,2,1:2:0:0:
472,155,68135,1,2,3:2:0:0:
302,291,68307,5,10,2:0:0:0:
132,246,68478,1,2,3:2:0:0:
376,366,68650,6,0,P|413:351|453:344,1,80,2|0,1:2|3:0,2:0:0:0:
347,207,68993,6,0,P|319:246|301:291,1,96,10|0,2:0|3:0,2:0:0:0:
151,207,69335,6,0,P|162:261|186:312,1,112,2|0,1:2|3:0,2:0:0:0:
263,384,69678,5,8,2:0:0:0:
21,239,70021,5,2,1:2:0:0:
18,108,70193,1,0,3:0:0:0:
43,255,70364,1,10,2:0:0:0:
184,116,70535,1,2,3:2:0:0:
28,366,70707,1,2,1:2:0:0:
291,280,70878,1,2,3:2:0:0:
48,111,71050,1,10,2:0:0:0:
224,369,71221,1,2,3:2:0:0:
140,127,71393,5,2,1:2:0:0:
443,244,71564,1,2,1:2:0:0:
308,25,71735,1,10,2:0:0:0:
251,274,71907,1,2,1:2:0:0:
251,274,71993,1,0,1:0:0:0:
250,274,72078,6,0,P|262:324|274:375,1,80,6|0,1:2|2:0,2:0:0:0:
318,384,72335,6,0,P|291:266|263:150,1,240,6|0,1:2|2:0,2:0:0:0:
78,283,72593,6,0,P|112:272|145:259,1,71.9999999999999,6|0,1:2|2:0,2:0:0:0:
453,139,72764,2,0,B|351:135|420:67|297:57,1,168,6|0,1:2|2:0,2:0:0:0:
202,95,73107,6,0,P|387:152|438:-4,1,360,8|0,2:0|2:0,2:0:0:0:
446,32,73450,6,0,P|455:70|464:109,1,80,2|0,1:2|3:0,2:0:0:0:
389,282,73793,2,0,P|376:242|365:205,1,80,8|0,2:0|3:0,2:0:0:0:
198,119,74135,6,0,P|196:156|216:204,1,80,2|0,1:2|3:0,2:0:0:0:
85,68,74478,2,0,P|39:37|0:24,1,96,10|0,2:0|3:0,2:0:0:0:
105,196,74821,2,0,P|74:257|66:310,1,112,2|0,1:2|3:0,2:0:0:0:
198,119,75164,2,0,P|264:98|335:67,1,128,10|0,2:0|3:0,2:0:0:0:
502,213,75507,6,0,P|485:248|472:286,1,64,2|0,1:2|3:0,2:0:0:0:
226,315,75850,2,0,P|204:281|191:230,1,80,10|0,2:0|3:0,2:0:0:0:
436,151,76193,2,0,P|411:192|393:247,1,96,2|0,1:2|3:0,2:0:0:0:
149,368,76535,2,0,P|124:320|107:260,1,112,10|0,2:0|3:0,2:0:0:0:
0,135,76878,6,0,B|102:131|33:63|156:53,1,168,2|0,1:2|2:0,2:0:0:0:
137,55,77221,1,8,2:0:0:0:
383,256,77393,1,0,3:0:0:0:
383,256,77478,1,0,2:0:0:0:
383,256,77564,5,2,1:2:0:0:
262,328,77735,1,2,3:2:0:0:
353,104,77907,1,10,2:0:0:0:
120,29,78078,1,2,3:2:0:0:
192,258,78250,2,0,P|149:293|124:320,1,80,6|0,1:2|2:0,2:0:0:0:
331,132,78593,1,8,2:0:0:0:
130,282,78764,5,2,3:2:0:0:
471,375,78935,1,6,1:2:0:0:
287,246,79107,1,0,3:0:0:0:
287,246,79193,1,0,2:0:0:0:
287,246,79278,1,8,2:0:0:0:
169,374,79450,5,2,3:2:0:0:
378,92,79621,1,6,1:2:0:0:
196,378,79793,1,2,1:2:0:0:
46,152,79964,1,10,2:0:0:0:
367,352,80135,1,6,1:2:0:0:
78,310,80307,5,2,1:2:0:0:
78,310,80393,1,2,1:2:0:0:
78,310,80478,1,2,1:2:0:0:
123,302,80564,1,2,1:2:0:0:
160,266,80650,1,10,2:0:0:0:
190,204,80735,1,2,2:0:0:0:
249,155,80821,1,2,1:2:0:0:
328,150,80907,1,2,2:0:0:0:
385,197,80993,6,0,B|373:132|373:132|393:80|393:80|379:12,1,192,6|0,1:2|2:0,2:0:0:0:
390,20,81250,2,0,B|404:88|404:88|385:139|385:139|398:206,1,192,6|0,1:2|2:0,2:0:0:0:
466,303,81507,1,2,1:2:0:0:
124,234,81678,6,0,B|128:271|97:295|97:295|154:299|237:378,1,192,6|0,1:2|2:0,2:0:0:0:
293,344,81935,2,0,B|288:306|319:282|319:282|263:284|179:199,1,192,6|0,1:2|2:0,2:0:0:0:
6,65,82193,1,2,1:2:0:0:
10,164,82364,6,0,B|112:160|43:92|166:82,1,168,6|0,1:2|2:0,2:0:0:0:
147,84,82707,1,8,2:0:0:0:
57,283,82878,1,0,1:0:0:0:
57,283,82964,1,8,2:0:0:0:
57,283,83050,1,0,1:0:0:0:
343,163,83221,1,0,1:0:0:0:
69,252,83393,1,8,2:0:0:0:
277,369,83564,1,0,1:0:0:0:
221,105,83735,5,6,1:2:0:0:
96,365,83907,1,2,1:2:0:0:
255,96,84078,1,2,2:0:0:0:
414,321,84250,6,0,P|441:329|480:343,1,64,6|0,1:2|2:0,2:0:0:0:
257,206,84593,6,0,P|226:216|196:225,1,64,6|0,1:2|2:0,2:0:0:0:
430,76,84935,5,6,1:2:0:0:
430,76,85107,1,0,1:0:0:0:
278,319,85278,1,0,1:0:0:0:
80,212,85450,1,10,2:0:0:0:
109,177,85535,1,2,2:0:0:0:
148,157,85621,1,2,1:2:0:0:
192,154,85707,1,2,1:2:0:0:
234,169,85793,6,0,P|244:199|258:229,1,64,6|0,1:2|2:0,2:0:0:0:
147,355,85964,2,0,P|133:325|123:295,1,64,6|0,1:2|2:0,2:0:0:0:
328,157,86135,5,8,2:0:0:0:
11,365,86307,1,6,1:2:0:0:
256,192,86328,12,0,89221,2:0:0:0:
