osu file format v14

[General]
AudioFilename: audio.mp3
AudioLeadIn: 0
PreviewTime:126869
Countdown: 0
SampleSet: Soft
StackLeniency: 0.4
Mode: 0
LetterboxInBreaks: 0
WidescreenStoryboard: 1

[Editor]
Bookmarks: 25554,75611,173669,179154
DistanceSpacing: 0.8
BeatDivisor: 4
GridSize: 32
TimelineZoom: 2

[Metadata]
Title:Mogitate <3 Fruit Girls
TitleUnicode:も・ぎ・た・て♥フルーツガールズ
Artist:Kinoshita Ringo (CV: Tamura Yukari) & Nakazawa Minori (CV: Hanazawa Kana)
ArtistUnicode:木下林檎(CV:田村ゆかり)& 中沢農(CV:花澤香菜)
Creator:Yogurtt
Version:gazimal's Orange
Source:のうりん
Tags:zekk shizuku- shikibe mayu kazato asa frozz -keqing froskya revialink koldnoodl amateurre kyuuchie gazimal - ex -_ex_- iMage-- meg ending ed nourin no-rin full version ver anime japanese pop jpop j-pop
BeatmapID:3523924
BeatmapSetID:1714748

[Difficulty]
HPDrainRate:5.5
CircleSize:3.8
OverallDifficulty:8.4
ApproachRate:9.2
SliderMultiplier:1.8
SliderTickRate:1

[Events]
//Background and Video events
0,0,"cropped-1920-1080-846085.jpg",0,0
//Break Periods
2,173869,177899
//Storyboard Layer 0 (Background)
//Storyboard Layer 1 (Fail)
//Storyboard Layer 2 (Pass)
//Storyboard Layer 3 (Foreground)
//Storyboard Layer 4 (Overlay)
//Storyboard Sound Samples

[TimingPoints]
869,342.857142857143,4,2,1,60,1,0
4983,-100,4,2,1,70,0,0
5326,-142.857142857143,4,2,1,60,0,0
5669,-285.714285714286,4,2,1,60,0,0
5926,-285.714285714286,4,2,1,5,0,0
6011,-66.6666666666667,4,2,1,60,0,0
6269,-66.6666666666667,4,2,1,5,0,0
6354,-66.6666666666667,4,2,1,70,0,0
7726,-200,4,2,1,70,0,0
8754,-100,4,2,1,70,0,0
9011,-100,4,2,1,5,0,0
9097,-125,4,2,1,70,0,0
11069,-83.3333333333333,4,2,1,5,0,0
11154,-125,4,2,1,70,0,0
11840,-100,4,2,1,70,0,0
14583,-83.3333333333333,4,2,1,70,0,0
14754,-83.3333333333333,4,2,1,5,0,0
14840,-83.3333333333333,4,2,1,70,0,0
15011,-83.3333333333333,4,2,1,5,0,0
15097,-83.3333333333333,4,2,1,70,0,0
15440,-83.3333333333333,4,2,1,5,0,0
15526,-83.3333333333333,4,2,1,70,0,0
15697,-83.3333333333333,4,2,1,5,0,0
15783,-83.3333333333333,4,2,1,70,0,0
15954,-125,4,2,1,70,0,0
16297,-100,4,2,1,70,0,0
16983,-250,4,2,1,70,0,0
17240,-250,4,2,1,5,0,0
17326,-100,4,2,1,70,0,0
21526,-100,4,2,1,5,0,0
21611,-100,4,2,1,70,0,0
23583,-100,4,2,1,5,0,0
23669,-100,4,2,1,70,0,0
23926,-100,4,2,1,5,0,0
24011,-100,4,2,1,70,0,0
25554,-100,4,2,1,50,0,0
25811,-83.3333333333333,4,2,1,5,0,0
25897,-125,4,2,1,50,0,0
26926,-100,4,2,1,50,0,0
27183,-83.3333333333333,4,2,1,5,0,0
27269,-125,4,2,1,50,0,0
28297,-100,4,2,1,50,0,0
28554,-83.3333333333333,4,2,1,5,0,0
28640,-125,4,2,1,50,0,0
29669,-100,4,2,1,50,0,0
29926,-83.3333333333333,4,2,1,5,0,0
30011,-125,4,2,1,50,0,0
31040,-100,4,2,1,50,0,0
31297,-83.3333333333333,4,2,1,5,0,0
31383,-125,4,2,1,50,0,0
33783,-100,4,2,1,50,0,0
34469,-125,4,2,1,50,0,0
34983,-125,4,2,1,30,0,0
36526,-100,4,2,1,60,0,0
36783,-83.3333333333333,4,2,1,5,0,0
36869,-100,4,2,1,60,0,0
37211,-125,4,2,1,60,0,0
37469,-100,4,2,1,5,0,0
37554,-125,4,2,1,60,0,0
37897,-100,4,2,1,60,0,0
38154,-100,4,2,1,5,0,0
38240,-125,4,2,1,60,0,0
39269,-100,4,2,1,60,0,0
39526,-100,4,2,1,5,0,0
39611,-125,4,2,1,60,0,0
40211,-100,4,2,1,5,0,0
40297,-125,4,2,1,60,0,0
40640,-100,4,2,1,60,0,0
40897,-100,4,2,1,5,0,0
40983,-125,4,2,1,60,0,0
41583,-100,4,2,1,5,0,0
41669,-125,4,2,1,60,0,0
42011,-100,4,2,1,60,0,0
42269,-100,4,2,1,5,0,0
42354,-125,4,2,1,60,0,0
44754,-100,4,2,1,60,0,0
47497,-200,4,2,1,60,0,0
47583,-100,4,2,1,5,0,0
47669,-200,4,2,1,60,0,0
47754,-100,4,2,1,5,0,0
47840,-125,4,2,1,70,0,0
48097,-100,4,2,1,5,0,0
48183,-83.3333333333333,4,2,1,70,0,0
48440,-100,4,2,1,5,0,0
48526,-83.3333333333333,4,2,1,70,0,0
48954,-100,4,2,1,5,0,0
49040,-83.3333333333333,4,2,2,70,0,0
50240,-200,4,2,2,70,0,0
50326,-100,4,2,2,5,0,0
50411,-200,4,2,2,70,0,0
50497,-100,4,2,2,5,0,0
50583,-125,4,2,1,70,0,0
50840,-100,4,2,1,5,0,0
50926,-83.3333333333333,4,2,1,70,0,0
51183,-100,4,2,1,5,0,0
51269,-83.3333333333333,4,2,1,70,0,0
51697,-100,4,2,1,5,0,0
51783,-83.3333333333333,4,2,1,70,0,0
52811,-100,4,2,1,70,0,0
52983,-83.3333333333333,4,2,1,70,0,0
53840,-125,4,2,1,70,0,0
54354,-100,4,2,1,70,0,0
55211,-125,4,2,1,70,0,0
55383,-100,4,2,1,70,0,0
55640,-100,4,2,1,5,0,0
55726,-100,4,2,1,70,0,0
57440,-125,4,2,1,70,0,0
58469,-83.3333333333333,4,2,1,70,0,0
58640,-100,4,2,1,5,0,0
58726,-83.3333333333333,4,2,1,70,0,0
58897,-100,4,2,1,5,0,0
58983,-83.3333333333333,4,2,1,70,0,0
59326,-100,4,2,1,5,0,0
59411,-83.3333333333333,4,2,1,70,0,0
59583,-100,4,2,1,5,0,0
59669,-83.3333333333333,4,2,1,70,0,0
60526,-200,4,2,1,70,0,0
60783,-100,4,2,1,5,0,0
60869,-200,4,2,1,70,0,0
61211,-71.4285714285714,4,2,2,80,0,1
62069,-90.9090909090909,4,2,2,80,0,1
66011,-76.9230769230769,4,2,2,80,0,1
66354,-125,4,2,2,80,0,1
66697,-250,4,2,2,80,0,1
66954,-250,4,2,2,80,0,1
67040,-71.4285714285714,4,2,2,80,0,1
68069,-100,4,2,2,80,0,1
71497,-71.4285714285714,4,2,2,80,0,1
71669,-250,4,2,2,5,0,1
71754,-71.4285714285714,4,2,2,80,0,1
71926,-250,4,2,2,5,0,1
72011,-71.4285714285714,4,2,2,80,0,1
72183,-71.4285714285714,4,2,2,80,0,1
72697,-100,4,2,2,80,0,1
73126,-250,4,2,2,5,0,1
73211,-100,4,2,2,80,0,1
76297,-71.4285714285714,4,2,2,80,0,1
76554,-250,4,2,2,5,0,1
76640,-100,4,2,2,80,0,1
77669,-83.3333333333333,4,2,2,80,0,1
79726,-83.3333333333333,4,2,2,80,0,1
80583,-250,4,2,2,5,0,1
80669,-83.3333333333333,4,2,2,80,0,1
80840,-250,4,2,2,5,0,1
80926,-200,4,2,2,80,0,1
81097,-83.3333333333333,4,2,2,80,0,1
81269,-250,4,2,2,5,0,1
81354,-83.3333333333333,4,2,2,80,0,1
81526,-250,4,2,2,5,0,1
81611,-200,4,2,2,80,0,1
81783,-125,4,2,2,80,0,1
82126,-83.3333333333333,4,2,2,80,0,1
82811,-250,4,2,0,80,0,0
83069,-250,4,2,0,5,0,1
83154,-83.3333333333333,4,2,1,70,0,1
83240,-83.3333333333333,4,2,1,70,0,0
83669,-100,4,2,1,70,0,0
89411,-250,4,2,1,5,0,0
89497,-100,4,2,1,70,0,0
89754,-250,4,2,1,5,0,0
89840,-100,4,2,1,70,0,0
91383,-100,4,2,1,50,0,0
91640,-250,4,2,1,5,0,0
91726,-125,4,2,1,50,0,0
92754,-100,4,2,1,50,0,0
93011,-250,4,2,1,5,0,0
93097,-125,4,2,1,50,0,0
94126,-100,4,2,1,50,0,0
94383,-250,4,2,1,5,0,0
94469,-125,4,2,1,50,0,0
95497,-100,4,2,1,50,0,0
95754,-250,4,2,1,5,0,0
95840,-100,4,2,1,50,0,0
96183,-125,4,2,1,50,0,0
96869,-100,4,2,1,50,0,0
97126,-250,4,2,1,5,0,0
97211,-125,4,2,1,50,0,0
99611,-100,4,2,1,50,0,0
100297,-125,4,2,1,50,0,0
100811,-125,4,2,1,30,0,0
102354,-100,4,2,1,60,0,0
102611,-250,4,2,1,5,0,0
102697,-100,4,2,1,60,0,0
103983,-250,4,2,1,5,0,0
104069,-100,4,2,1,60,0,0
105354,-250,4,2,1,5,0,0
105440,-100,4,2,1,60,0,0
106726,-250,4,2,1,5,0,0
106811,-100,4,2,1,60,0,0
108097,-250,4,2,1,5,0,0
108183,-125,4,2,1,60,0,0
110583,-100,4,2,1,60,0,0
113326,-200,4,2,1,60,0,0
113411,-250,4,2,1,5,0,0
113497,-200,4,2,1,60,0,0
113583,-250,4,2,1,5,0,0
113669,-125,4,2,1,70,0,0
113926,-250,4,2,1,5,0,0
114011,-83.3333333333333,4,2,1,70,0,0
114269,-250,4,2,1,5,0,0
114354,-83.3333333333333,4,2,1,70,0,0
114869,-83.3333333333333,4,2,2,70,0,0
116069,-200,4,2,2,70,0,0
116154,-250,4,2,2,5,0,0
116240,-200,4,2,2,70,0,0
116326,-200,4,2,2,5,0,0
116411,-125,4,2,1,70,0,0
116669,-250,4,2,1,5,0,0
116754,-83.3333333333333,4,2,1,70,0,0
117011,-250,4,2,1,5,0,0
117097,-83.3333333333333,4,2,1,70,0,0
117526,-250,4,2,1,5,0,0
117611,-83.3333333333333,4,2,1,70,0,0
118640,-100,4,2,1,70,0,0
118811,-83.3333333333333,4,2,1,70,0,0
119669,-125,4,2,1,70,0,0
120183,-100,4,2,1,70,0,0
121040,-125,4,2,1,70,0,0
121211,-100,4,2,1,70,0,0
121469,-250,4,2,1,5,0,0
121554,-100,4,2,1,70,0,0
123269,-125,4,2,1,70,0,0
124297,-83.3333333333333,4,2,1,70,0,0
124469,-250,4,2,1,5,0,0
124554,-83.3333333333333,4,2,1,70,0,0
124726,-250,4,2,1,5,0,0
124811,-83.3333333333333,4,2,1,70,0,0
125154,-250,4,2,1,5,0,0
125240,-83.3333333333333,4,2,1,70,0,0
125411,-250,4,2,1,5,0,0
125497,-83.3333333333333,4,2,1,70,0,0
126354,-200,4,2,1,70,0,0
126611,-250,4,2,1,5,0,0
126697,-200,4,2,1,70,0,0
127040,-71.4285714285714,4,2,2,80,0,1
127897,-90.9090909090909,4,2,2,80,0,1
130040,-250,4,2,2,5,0,1
130126,-90.9090909090909,4,2,2,80,0,1
132183,-125,4,2,2,80,0,1
132526,-250,4,2,2,80,0,1
132783,-250,4,2,2,5,0,1
132869,-71.4285714285714,4,2,2,80,0,1
133126,-71.4285714285714,4,2,2,80,0,1
133211,-71.4285714285714,4,2,2,80,0,1
133897,-100,4,2,2,80,0,1
137326,-71.4285714285714,4,2,2,80,0,1
137497,-71.4285714285714,4,2,2,5,0,1
137583,-71.4285714285714,4,2,2,80,0,1
137754,-71.4285714285714,4,2,2,5,0,1
137840,-71.4285714285714,4,2,2,80,0,1
138526,-100,4,2,2,80,0,1
138954,-100,4,2,2,5,0,1
139040,-100,4,2,2,80,0,1
142126,-71.4285714285714,4,2,2,80,0,1
142383,-100,4,2,2,5,0,1
142469,-83.3333333333333,4,2,2,80,0,1
142811,-100,4,2,2,80,0,1
143497,-83.3333333333333,4,2,2,80,0,1
146411,-100,4,2,2,5,0,1
146497,-83.3333333333333,4,2,2,80,0,1
146669,-100,4,2,2,5,0,1
146754,-200,4,2,2,80,0,1
146926,-83.3333333333333,4,2,2,80,0,1
147097,-100,4,2,2,5,0,1
147183,-83.3333333333333,4,2,2,80,0,1
147354,-100,4,2,2,5,0,1
147440,-200,4,2,2,80,0,1
147611,-125,4,2,2,80,0,1
147954,-83.3333333333333,4,2,2,80,0,1
148640,-83.3333333333333,4,2,2,80,0,0
148983,-83.3333333333333,4,2,2,70,0,1
149069,-83.3333333333333,4,2,2,70,0,0
150183,-100,4,2,2,70,0,0
151383,-333.333333333333,4,2,2,70,0,0
151640,-100,4,2,2,5,0,0
151726,-83.3333333333333,4,2,2,70,0,0
153097,-100,4,2,2,70,0,0
153354,-100,4,2,2,5,0,0
153440,-100,4,2,2,70,0,0
154469,-83.3333333333333,4,2,2,70,0,0
155669,-100,4,2,2,70,0,0
156440,-100,4,2,2,5,0,0
156526,-100,4,2,2,70,0,0
157211,-83.3333333333333,4,2,2,70,0,0
158583,-100,4,2,2,70,0,0
159269,-83.3333333333333,4,2,2,70,0,0
159440,-100,4,2,2,5,0,0
159526,-83.3333333333333,4,2,2,70,0,0
159697,-100,4,2,2,5,0,0
159783,-83.3333333333333,4,2,2,70,0,0
160211,-100,4,2,2,5,0,0
160297,-100,4,2,2,70,0,0
165440,-83.3333333333333,4,2,2,70,0,0
166126,-100,4,2,2,70,0,0
167154,-83.3333333333333,4,2,2,70,0,0
168354,-100,4,2,2,5,0,0
168440,-83.3333333333333,4,2,2,70,0,0
168611,-100,4,2,2,5,0,0
168697,-200,4,2,2,70,0,0
168869,-83.3333333333333,4,2,2,70,0,0
169040,-100,4,2,2,5,0,0
169126,-83.3333333333333,4,2,2,70,0,0
169297,-100,4,2,2,5,0,0
169383,-200,4,2,2,70,0,0
169554,-83.3333333333333,4,2,2,70,0,0
169726,-100,4,2,2,5,0,0
169811,-83.3333333333333,4,2,2,70,0,0
169983,-100,4,2,2,5,0,0
170069,-200,4,2,2,70,0,0
170240,-83.3333333333333,4,2,2,70,0,0
170411,-100,4,2,2,5,0,0
170497,-83.3333333333333,4,2,2,70,0,0
170669,-100,4,2,2,5,0,0
170754,-200,4,2,2,70,0,0
170926,-100,4,2,2,70,0,0
171869,-100,4,2,2,5,0,0
171954,-142.857142857143,4,2,2,70,0,0
172211,-100,4,2,2,70,0,0
172297,-142.857142857143,4,2,2,70,0,0
172640,-90.9090909090909,4,2,2,70,0,0
173326,-90.9090909090909,4,2,0,70,0,0
177783,-90.9090909090909,4,2,2,60,0,0
178469,-83.3333333333333,4,2,2,60,0,0
178726,-100,4,2,2,5,0,0
178811,-125,4,2,2,60,0,0
179154,-83.3333333333333,4,2,2,60,0,0
179411,-100,4,2,2,5,0,0
179497,-125,4,2,2,60,0,0
180526,-166.666666666667,4,2,2,60,0,0
180783,-100,4,2,2,5,0,0
180869,-90.9090909090909,4,2,2,60,0,0
181126,-100,4,2,2,5,0,0
181211,-125,4,2,2,60,0,0
183783,-58.8235294117647,4,2,2,60,0,0
183954,-58.8235294117647,4,2,2,70,0,0
184126,-58.8235294117647,4,2,2,5,0,0
184211,-58.8235294117647,4,2,2,70,0,0
184383,-58.8235294117647,4,2,2,5,0,0
184469,-100,4,2,2,70,0,0
184640,-71.4285714285714,4,2,2,80,0,1
185326,-100,4,2,2,80,0,1
185583,-100,4,2,2,5,0,1
185669,-100,4,2,2,80,0,1
190126,-83.3333333333333,4,2,2,80,0,1
192869,-83.3333333333333,4,2,2,80,0,1
193040,-83.3333333333333,4,2,2,5,0,1
193126,-83.3333333333333,4,2,2,80,0,1
193297,-83.3333333333333,4,2,2,5,0,1
193383,-83.3333333333333,4,2,2,80,0,1
193726,-83.3333333333333,4,2,2,5,0,1
193811,-83.3333333333333,4,2,2,80,0,1
193983,-83.3333333333333,4,2,2,5,0,1
194069,-83.3333333333333,4,2,2,80,0,1
194240,-125,4,2,2,80,0,1
194583,-83.3333333333333,4,2,2,80,0,1
195269,-250,4,2,0,80,0,0
195526,-83.3333333333333,4,2,0,5,0,0
195611,-83.3333333333333,4,2,1,70,0,1
195697,-83.3333333333333,4,2,1,70,0,0
196126,-100,4,2,1,70,0,0
199811,-100,4,2,1,5,0,0
199897,-100,4,2,1,70,0,0
201611,-83.3333333333333,4,2,1,70,0,0
201869,-100,4,2,1,5,0,0
201954,-83.3333333333333,4,2,1,70,0,0
202211,-100,4,2,1,5,0,0
202297,-83.3333333333333,4,2,1,70,0,0
206583,-83.3333333333333,4,2,1,5,0,0

[Colours]
Combo1 : 255,192,0
Combo2 : 226,101,160
Combo3 : 98,215,68
Combo4 : 251,15,21

[HitObjects]
256,192,868,5,6,1:2:0:0:
256,192,1211,1,10,0:0:0:0:
192,128,1383,1,8,0:0:0:0:
256,192,1726,1,2,1:2:0:0:
320,128,1897,1,8,0:0:0:0:
256,192,2240,5,0,1:2:0:0:
256,192,2583,1,8,0:0:0:0:
192,256,2754,1,10,0:0:0:0:
256,192,3097,1,0,1:2:0:0:
320,256,3269,1,10,0:0:0:0:
256,192,3611,5,6,1:2:0:0:
256,192,3954,1,10,0:0:0:0:
192,128,4126,1,8,0:0:0:0:
256,192,4469,1,2,1:2:0:0:
320,128,4640,1,8,0:0:0:0:
264,199,4811,1,2,1:2:0:0:
264,199,4897,1,0,1:2:0:0:
264,199,4983,5,6,1:2:0:0:
271,230,5069,1,0,0:0:0:0:
251,261,5154,1,0,0:2:0:0:
206,272,5240,1,0,0:0:0:0:
173,254,5326,2,0,L|182:210,3,31.4999990386963,0|0|0|0,1:2|1:2|1:2|1:2,0:0:0:0:
163,206,5669,6,0,L|151:262,1,47.2499985580445,0|0,1:2|0:0,0:0:0:0:
142,130,6011,2,0,P|184:67|203:156,1,202.500007724762,6|0,1:2|0:0,0:0:0:0:
163,206,6354,5,6,0:2:0:0:
163,206,7726,6,0,L|143:299,2,90,2|2|2,0:2|0:2|0:2,0:0:0:0:
243,54,8754,2,0,B|279:35|312:61|312:61|320:103|367:116,1,135,2|0,0:2|0:0,0:0:0:0:
425,90,9097,6,0,P|450:39|386:65,1,144,2|2,0:2|0:0,0:0:0:0:
342,183,9783,2,0,P|380:224|379:155,1,144,2|2,0:2|0:0,0:0:0:0:
243,54,10469,6,0,B|174:8|116:54|116:54|102:125|15:122,1,252,2|0,0:2|0:0,0:0:0:0:
35,121,11154,2,0,L|27:84,3,36,0|0|0|0,1:2|1:2|1:2|1:2,0:0:0:0:
91,194,11497,1,0,1:2:0:0:
87,203,11583,1,0,1:2:0:0:
83,212,11669,1,0,1:2:0:0:
79,221,11754,1,0,1:2:0:0:
75,230,11840,6,0,P|134:180|248:200,1,180,6|8,1:2|0:0,0:0:0:0:
316,237,12354,1,2,0:0:0:0:
123,309,12526,2,0,P|202:271|231:188,1,180,2|8,1:2|0:2,0:0:0:0:
197,87,13040,5,2,0:0:0:0:
364,71,13211,1,6,1:0:0:0:
235,192,13383,1,2,1:2:0:0:
235,192,13554,1,2,0:0:0:0:
171,9,13726,2,0,P|233:12|267:46,1,90,6|0,1:0|0:0,0:0:0:0:
301,116,13983,1,0,0:0:0:0:
301,116,14069,2,0,P|315:133|340:145,1,45,8|8,0:3|0:3,0:0:0:0:
346,221,14240,2,0,P|367:217|390:201,1,45,8|8,0:3|0:3,0:0:0:0:
459,234,14411,2,0,P|466:213|464:185,1,45,4|4,0:3|0:3,0:0:0:0:
469,48,14583,6,0,L|350:73,1,107.999996704102,6|0,1:0|0:0,0:0:0:0:
253,27,14840,2,0,L|215:142,1,107.999996704102,8|0,0:3|0:0,0:0:0:0:
126,203,15097,2,0,L|166:249,1,53.9999983520508,4|0,0:3|0:0,0:0:0:0:
263,362,15269,6,0,P|315:355|345:304,1,107.999996704102,6|0,1:0|0:0,0:0:0:0:
303,246,15526,2,0,P|251:253|221:304,1,107.999996704102,8|0,0:3|0:0,0:0:0:0:
185,364,15783,2,0,L|128:351,1,53.9999983520508,4|0,0:3|0:0,0:0:0:0:
50,306,15954,6,0,L|2:315,3,36,4|0|0|0,1:2|1:2|1:2|1:2,0:0:0:0:
0,315,16297,2,0,L|21:215,1,90,4|0,0:3|0:0,0:0:0:0:
18,226,16554,1,2,0:0:0:0:
18,226,16640,1,2,0:0:0:0:
161,243,16811,1,0,0:0:0:0:
111,121,16983,6,0,L|53:133,1,54,8|0,0:0|1:2,0:0:0:0:
41,114,17326,6,0,L|151:137,1,90,6|2,1:0|0:0,0:0:0:0:
294,161,17669,1,10,0:0:0:0:
275,42,17840,2,0,B|260:4|219:14|219:14|242:29|240:55,1,90,2|0,0:0|0:0,0:0:0:0:
390,91,18183,2,0,B|430:97|442:56|442:56|417:68|396:54,1,90,2|8,0:0|0:0,0:0:0:0:
225,118,18526,6,0,B|190:156|220:210|220:210|265:240|254:301,1,180,2|0,0:0|0:0,0:0:0:0:
137,372,19040,1,8,0:0:0:0:
177,279,19211,1,2,0:0:0:0:
177,279,19297,1,2,0:0:0:0:
177,279,19383,1,2,1:2:0:0:
249,360,19554,1,2,0:0:0:0:
342,325,19726,1,10,0:0:0:0:
402,258,19897,1,2,0:0:0:0:
483,306,20069,5,2,1:2:0:0:
419,373,20240,1,2,0:0:0:0:
490,315,20411,1,10,0:0:0:0:
411,363,20582,1,2,0:0:0:0:
494,325,20755,1,2,1:2:0:0:
342,325,20926,2,0,P|368:281|369:240,1,90,2|8,2:0|0:0,0:0:0:0:
281,81,21269,6,0,B|246:75|223:46|223:46|246:76|237:124,1,135,6|0,0:1|0:0,0:0:0:0:
316,152,21611,2,0,P|341:135|353:108,1,45
359,22,21783,1,10,0:1:0:0:
481,161,21954,2,0,P|401:126|316:151,1,180,2|0,0:1|0:0,0:0:0:0:
142,168,22469,1,8,0:0:0:0:
127,151,22554,1,2,0:0:0:0:
125,129,22640,1,2,0:0:0:0:
136,110,22726,1,2,0:0:0:0:
157,103,22811,6,0,L|111:93,1,45,6|0,1:0|0:0,0:0:0:0:
2,68,22983,1,2,1:2:0:0:
146,6,23154,1,2,0:0:0:0:
5,86,23326,2,0,L|35:227,1,135,2|0,1:0|0:0,0:0:0:0:
49,336,23669,2,0,B|-10:336|-10:282|-10:282|12:297|37:293,1,135,2|0,1:0|0:0,0:0:0:0:
103,260,24011,6,0,B|144:225|191:271|180:274|208:333|275:304,1,180,6|0,1:0|1:2,0:0:0:0:
336,264,24526,1,0,3:0:0:0:
335,231,24611,1,0,3:0:0:0:
311,208,24697,1,0,3:0:0:0:
278,207,24783,1,0,3:0:0:0:
254,230,24869,2,0,L|263:185,1,45,6|0,1:0|0:0,0:0:0:0:
292,37,25040,1,6,1:0:0:0:
292,37,25554,6,0,P|355:34|416:84,1,135,6|0,1:2|0:0,0:0:0:0:
421,100,25897,2,0,P|447:126|486:132,1,72,2|0,1:2|0:0,0:0:0:0:
496,44,26240,1,2,1:2:0:0:
496,44,26326,1,2,0:0:0:0:
496,44,26411,1,2,0:0:0:0:
331,118,26583,2,0,L|339:157,3,36,2|2|2|2,1:2|0:0|0:0|0:0,0:0:0:0:
292,37,26926,6,0,P|229:34|168:84,1,135,2|0,1:2|0:0,0:0:0:0:
163,100,27269,2,0,P|137:126|98:132,1,72,2|0,1:2|0:0,0:0:0:0:
38,40,27611,1,2,1:2:0:0:
38,40,27697,1,2,0:0:0:0:
38,40,27783,1,2,0:0:0:0:
15,156,27954,2,0,L|7:195,3,36,2|2|2|2,1:2|0:0|0:0|0:0,0:0:0:0:
17,298,28297,6,0,P|72:306|122:244,1,135,2|0,1:2|0:0,0:0:0:0:
124,227,28640,2,0,P|92:257|95:290,1,72,2|0,1:2|0:0,0:0:0:0:
156,380,28983,1,2,1:2:0:0:
156,380,29069,1,2,0:0:0:0:
156,380,29154,1,2,0:0:0:0:
241,284,29326,2,0,L|195:274,3,36,2|2|2|2,1:2|0:0|0:0|0:0,0:0:0:0:
288,206,29669,6,0,P|343:198|393:260,1,135,2|0,1:2|0:0,0:0:0:0:
395,277,30012,2,0,P|363:247|366:214,1,72,2|0,1:2|0:0,0:0:0:0:
427,124,30355,1,2,1:2:0:0:
427,124,30441,1,2,0:0:0:0:
427,124,30526,1,2,0:0:0:0:
512,220,30698,2,0,L|466:229,3,36,2|2|2|2,1:2|0:0|0:0|0:0,0:0:0:0:
495,70,31040,6,0,P|444:33|365:52,1,135,2|0,1:2|0:0,0:0:0:0:
352,70,31383,2,0,L|334:-11,1,72,2|0,1:2|0:0,0:0:0:0:
226,167,31726,2,0,L|243:85,1,72,2|0,1:2|0:0,0:0:0:0:
376,248,32069,2,0,L|358:166,1,72,2|0,1:2|0:0,0:0:0:0:
206,351,32411,6,0,L|223:269,1,72,2|0,1:2|0:0,0:0:0:0:
368,364,32754,2,0,P|430:363|480:286,2,144,2|2|2,1:2|1:2|1:2,0:0:0:0:
226,167,33783,6,0,B|185:138|140:172|140:172|114:225|56:214,1,180,2|0,1:2|1:2,0:0:0:0:
192,242,34297,1,2,0:0:0:0:
68,137,34469,2,0,P|49:69|-4:14,1,144,2|0,1:2|1:2,0:0:0:0:
0,185,34983,5,2,0:0:0:0:
0,185,35069,1,2,0:0:0:0:
0,185,35154,1,2,0:0:0:0:
71,215,35326,1,2,0:0:0:0:
143,170,35497,1,2,0:0:0:0:
224,38,35669,1,2,0:0:0:0:
161,93,35840,1,2,0:0:0:0:
307,34,36011,1,2,0:0:0:0:
224,38,36183,1,2,0:0:0:0:
374,78,36354,1,2,0:0:0:0:
348,225,36526,6,0,B|315:269|260:246|260:246|290:229|302:207,1,135,6|0,1:2|0:0,0:0:0:0:
288,224,36869,2,0,L|307:316,1,90,10|0,0:0|0:0,0:0:0:0:
367,384,37126,1,2,0:0:0:0:
367,384,37211,2,0,P|392:351|460:345,1,108,2|0,1:2|0:0,0:0:0:0:
472,352,37554,1,10,0:0:0:0:
428,225,37726,1,2,0:0:0:0:
306,312,37897,6,0,B|240:325|240:325|237:329|237:329|175:343,1,135,2|0,1:2|0:0,0:0:0:0:
153,372,38240,2,0,L|80:356,1,72,10|0,0:0|0:0,0:0:0:0:
2,315,38497,1,2,0:0:0:0:
2,315,38583,2,0,P|39:295|52:257,1,72,2|0,1:2|0:0,0:0:0:0:
79,130,38926,1,10,0:0:0:0:
71,155,39011,1,2,0:0:0:0:
50,170,39097,1,2,0:0:0:0:
24,168,39183,1,2,0:0:0:0:
5,149,39269,6,0,B|39:124|80:154|80:154|96:188|141:181,1,135,6|0,1:2|0:0,0:0:0:0:
169,175,39611,2,0,L|151:90,1,72,10|0,0:0|0:0,0:0:0:0:
212,26,39869,1,0,0:0:0:0:
212,26,39954,2,0,P|267:11|318:57,1,108,2|0,1:2|0:0,0:0:0:0:
319,60,40297,1,10,0:0:0:0:
461,0,40469,1,2,0:0:0:0:
415,136,40640,6,0,B|394:38|394:38|406:61|431:69,1,135,2|0,1:2|0:0,0:0:0:0:
497,125,40983,2,0,L|480:200,1,72,10|0,0:0|0:0,0:0:0:0:
462,289,41240,1,0,0:0:0:0:
462,289,41326,2,0,P|421:251|363:263,1,108,2|0,1:2|0:0,0:0:0:0:
354,271,41669,1,10,0:0:0:0:
415,381,41840,1,2,0:0:0:0:
245,327,42011,6,0,L|275:183,1,135,2|0,1:2|0:0,0:0:0:0:
278,153,42354,2,0,P|240:181|190:166,1,72,10|0,0:0|0:0,0:0:0:0:
95,70,42697,2,0,P|138:88|150:139,1,72,2|0,1:2|0:0,0:0:0:0:
115,270,43040,2,0,P|109:223|147:187,1,72,10|0,0:0|0:0,0:0:0:0:
234,62,43383,6,0,L|312:78,1,72,2|0,1:2|0:0,0:0:0:0:
401,227,43726,2,0,L|378:158,1,72,10|0,0:0|0:0,0:0:0:0:
461,0,44069,2,0,L|412:53,1,72,2|0,1:2|0:0,0:0:0:0:
289,187,44411,2,0,L|277:151,3,36,10|0|2|0,0:0|0:0|0:0|0:0,0:0:0:0:
306,271,44754,6,0,B|257:250|218:289|218:289|189:341|139:332,2,180,6|8|0,1:2|0:0|1:2,0:0:0:0:
144,255,45611,1,2,0:0:0:0:
18,379,45783,1,10,0:0:0:0:
17,222,45954,6,0,B|-6:175|46:140|52:149|96:101|65:52,1,180,6|2,1:2|1:2,0:0:0:0:
51,38,46383,1,0,0:0:0:0:
51,38,46469,1,10,0:0:0:0:
140,151,46640,1,0,1:2:0:0:
248,15,46811,1,2,1:2:0:0:
225,19,46896,1,0,1:2:0:0:
203,24,46982,1,2,1:2:0:0:
181,29,47068,1,0,1:2:0:0:
159,33,47154,2,0,L|219:45,1,45,10|0,0:2|0:0,0:0:0:0:
334,64,47326,2,0,L|394:76,1,45,2|0,1:2|0:0,0:0:0:0:
494,93,47497,6,0,L|489:70,1,22.5,8|0,0:3|0:0,0:0:0:0:
478,65,47669,2,0,L|482:87,1,22.5,4|0,0:3|0:0,0:0:0:0:
475,272,47840,6,0,B|438:259|445:218|445:218|461:241|477:248,1,108,8|0,0:0|0:0,0:0:0:0:
512,181,48183,2,0,L|333:218,1,161.999995056153,6|0,1:0|0:0,0:0:0:0:
276,235,48526,1,8,0:0:0:0:
305,378,48697,6,0,B|307:330|259:316|263:325|196:318|201:262,1,161.999995056153,6|0,1:2|0:0,0:0:0:0:
206,196,49040,1,8,0:3:0:0:
94,353,49211,1,10,0:0:0:0:
117,165,49383,1,4,0:3:0:0:
276,235,49554,1,2,1:2:0:0:
109,262,49726,1,8,0:3:0:0:
109,262,49811,1,0,0:0:0:0:
109,262,49897,1,8,0:0:0:0:
267,130,50069,1,4,0:3:0:0:
112,142,50240,6,0,L|119:176,1,22.5,8|0,0:3|0:0,0:0:0:0:
107,173,50411,2,0,L|99:138,1,22.5,4|0,0:3|0:0,0:0:0:0:
101,24,50583,6,0,B|96:63|52:62|52:62|73:42|75:16,1,108,8|0,0:0|0:0,0:0:0:0:
0,8,50926,2,0,P|58:44|169:40,1,161.999995056153,6|0,1:0|0:0,0:0:0:0:
224,18,51269,1,0,0:0:0:0:
258,177,51440,6,0,B|276:119|290:65|290:65|273:86|254:94,1,161.999995056153,6|0,1:2|0:0,0:0:0:0:
179,119,51783,1,2,1:2:0:0:
365,71,51954,1,10,0:0:0:0:
222,247,52126,1,0,1:2:0:0:
272,254,52211,1,0,1:2:0:0:
311,237,52297,1,8,0:3:0:0:
340,211,52383,1,8,0:3:0:0:
358,186,52469,1,4,0:3:0:0:
382,171,52554,1,4,0:3:0:0:
409,169,52640,1,10,0:0:0:0:
427,177,52726,1,0,0:0:0:0:
439,189,52811,2,0,P|416:202|407:223,1,45,0|0,1:2|1:2,0:0:0:0:
329,349,52983,6,0,B|275:337|275:337|272:332|272:332|204:318,1,107.999996704102,2|2,1:2|0:0,0:0:0:0:
70,285,53326,1,10,0:0:0:0:
258,177,53497,1,2,0:0:0:0:
165,376,53669,1,2,1:2:0:0:
136,226,53840,2,0,L|128:190,1,36,2|2,0:0|0:0,0:0:0:0:
27,145,54011,2,0,L|34:109,1,36,10|0,0:0|0:0,0:0:0:0:
97,0,54183,1,2,0:0:0:0:
199,95,54354,6,0,L|109:76,1,90,2|2,1:2|0:0,0:0:0:0:
226,2,54697,1,10,0:0:0:0:
258,177,54869,1,2,0:0:0:0:
344,17,55040,1,2,1:2:0:0:
280,102,55211,2,0,L|323:92,1,36,2|2,0:0|0:0,0:0:0:0:
474,33,55383,2,0,P|421:80|422:157,1,135,10|0,0:0|0:0,0:0:0:0:
480,221,55726,6,0,B|431:197|395:238|395:238|363:301|304:269,1,180,6|8,1:2|0:0,0:0:0:0:
258,177,56240,1,2,0:0:0:0:
192,321,56411,2,0,B|129:275|178:201|178:201|186:226|205:238,1,180,2|8,1:2|0:0,0:0:0:0:
291,374,56926,1,2,0:0:0:0:
451,292,57097,6,0,L|428:184,1,90,2|0,1:2|0:0,0:0:0:0:
411,19,57440,2,0,L|507:39,1,72,2|0,1:2|0:0,0:0:0:0:
294,106,57783,2,0,L|390:85,1,72,2|0,1:2|0:0,0:0:0:0:
220,42,58126,2,0,L|174:32,1,36,2|0,1:2|0:0,0:0:0:0:
44,7,58297,5,0,1:2:0:0:
44,7,58383,1,0,0:0:0:0:
44,7,58469,2,0,L|72:139,1,107.999996704102,6|0,1:0|0:0,0:0:0:0:
145,153,58726,2,0,L|117:285,1,107.999996704102,8|0,0:3|3:0,0:0:0:0:
55,352,58983,2,0,L|43:297,1,53.9999983520508,4|0,0:3|0:0,0:0:0:0:
157,370,59154,6,0,P|217:357|255:307,1,107.999996704102,6|0,1:0|0:0,0:0:0:0:
307,261,59411,2,0,P|367:274|405:324,1,107.999996704102,8|0,0:3|0:0,0:0:0:0:
449,379,59669,2,0,P|479:374|499:347,1,53.9999983520508,4|0,0:3|0:0,0:0:0:0:
508,217,59840,5,6,1:2:0:0:
470,189,59926,1,2,0:0:0:0:
436,186,60011,1,2,0:0:0:0:
402,198,60097,1,2,0:0:0:0:
378,229,60183,1,2,0:0:0:0:
373,258,60269,1,2,0:0:0:0:
378,284,60354,1,2,0:0:0:0:
387,299,60440,1,2,0:0:0:0:
397,306,60526,6,0,P|409:267|395:237,1,67.5,2|0,0:0|0:0,0:0:0:0:
378,229,60869,1,6,1:2:0:0:
402,198,60955,1,2,0:0:0:0:
436,186,61041,1,2,0:0:0:0:
470,189,61126,1,2,0:0:0:0:
508,217,61211,6,0,B|448:258|387:223|387:223|344:151|274:177,1,251.999992309571,6|8,1:2|0:0,0:0:0:0:
177,328,61726,1,0,0:0:0:0:
132,129,61897,1,2,1:2:0:0:
305,250,62069,2,0,P|273:253|244:238,1,49.5000015106202,2|2,0:0|0:0,0:0:0:0:
112,226,62240,2,0,L|134:118,1,99.0000030212403,8|0,0:0|0:0,0:0:0:0:
0,6,62583,5,2,1:2:0:0:
25,158,62754,1,0,0:0:0:0:
127,28,62926,1,10,0:0:0:0:
36,75,63097,1,0,0:0:0:0:
112,226,63269,1,2,1:2:0:0:
131,128,63440,1,0,0:0:0:0:
4,248,63611,2,0,L|29:369,1,99.0000030212403,10|2,0:0|0:0,0:0:0:0:
261,363,63954,6,0,P|210:326|162:333,1,99.0000030212403,2|0,1:2|0:0,0:0:0:0:
346,213,64297,2,0,P|397:176|445:183,1,99.0000030212403,10|0,0:0|0:0,0:0:0:0:
492,319,64640,2,0,P|434:293|416:248,1,99.0000030212403,2|0,1:2|0:0,0:0:0:0:
315,80,64983,2,0,P|264:43|216:50,1,99.0000030212403,10|0,0:0|0:0,0:0:0:0:
25,158,65326,5,2,1:2:0:0:
122,133,65497,1,0,0:0:0:0:
97,36,65668,1,8,0:0:0:0:
0,61,65840,1,2,0:0:0:0:
25,158,66011,5,2,1:2:0:0:
41,134,66096,1,0,0:0:0:0:
67,120,66182,1,2,0:0:0:0:
96,120,66268,1,0,0:0:0:0:
122,133,66354,2,0,L|113:172,1,36,10|0,0:0|0:0,0:0:0:0:
26,279,66526,2,0,L|17:240,1,36,2|0,0:0|0:0,0:0:0:0:
161,291,66697,6,0,L|149:346,1,54,6|0,1:2|0:0,0:0:0:0:
119,371,67040,2,0,L|308:330,1,188.999994232178,10|0,0:0|0:0,0:0:0:0:
380,315,67383,1,2,1:2:0:0:
222,200,67554,1,2,0:0:0:0:
430,160,67726,1,10,0:0:0:0:
405,236,67897,1,2,0:0:0:0:
304,162,68069,6,0,L|325:264,1,90,2|0,1:2|0:0,0:0:0:0:
481,384,68411,2,0,L|502:282,1,90,10|0,0:0|0:0,0:0:0:0:
464,81,68754,2,0,P|418:74|371:101,1,90,2|0,1:2|0:0,0:0:0:0:
222,200,69097,2,0,P|176:207|129:180,1,90,10|2,0:0|0:0,0:0:0:0:
21,22,69440,5,2,1:2:0:0:
49,173,69611,1,0,0:0:0:0:
161,10,69783,1,10,0:0:0:0:
111,90,69954,1,2,0:0:0:0:
304,162,70126,5,2,1:2:0:0:
206,101,70297,1,2,0:0:0:0:
322,32,70469,1,10,0:0:0:0:
284,301,70640,1,2,0:0:0:0:
137,188,70811,5,6,1:2:0:0:
380,179,70983,1,2,1:2:0:0:
242,22,71154,1,10,0:0:0:0:
304,162,71326,5,2,0:0:0:0:
304,162,71411,1,2,0:0:0:0:
304,162,71497,2,0,B|307:129|284:102|284:102|316:120|366:102,1,125.999996154785,6|0,1:0|0:0,0:0:0:0:
405,253,71754,2,0,B|374:266|363:300|363:300|362:263|322:229,1,125.999996154785,2|0,1:1|0:0,0:0:0:0:
437,122,72011,2,0,B|451:126|468:123|468:123|455:139|458:160,1,62.9999980773926,2|0,1:1|0:0,0:0:0:0:
437,325,72183,6,0,B|388:261|320:295|320:295|280:367|220:351,1,251.999992309571,6|8,1:2|0:0,0:0:0:0:
111,254,72697,1,2,0:0:0:0:
235,274,72869,2,0,L|201:118,1,135,2|2,1:2|0:0,0:0:0:0:
186,64,73211,2,0,P|155:34|88:42,1,90,10|0,0:0|0:0,0:0:0:0:
273,83,73554,5,2,1:2:0:0:
444,21,73726,1,0,0:0:0:0:
410,197,73897,1,10,0:0:0:0:
370,105,74069,1,0,0:0:0:0:
341,292,74240,1,2,1:2:0:0:
512,230,74412,1,0,0:0:0:0:
313,184,74583,2,0,L|225:202,1,90,10|2,0:0|0:0,0:0:0:0:
27,136,74926,6,0,P|79:108|83:66,1,90,2|0,1:2|0:0,0:0:0:0:
158,126,75269,2,0,P|115:115|86:82,1,90,10|0,0:0|0:0,0:0:0:0:
0,304,75611,2,0,P|52:276|56:234,1,90,2|0,1:2|0:0,0:0:0:0:
227,288,75954,2,0,P|184:277|155:244,1,90,10|0,0:0|0:0,0:0:0:0:
370,86,76297,6,0,B|417:68|432:18|432:18|421:70|449:108,1,188.999994232178,2|0,1:2|0:0,0:0:0:0:
502,179,76640,2,0,P|459:189|440:234,1,90,8|2,0:0|0:0,0:0:0:0:
439,379,76983,1,2,1:2:0:0:
461,381,77068,1,2,0:0:0:0:
480,370,77154,1,2,0:0:0:0:
489,350,77240,1,2,0:0:0:0:
486,328,77325,1,10,0:0:0:0:
470,313,77411,1,2,0:0:0:0:
449,309,77497,2,0,L|399:319,1,45,2|2,0:0|0:0,0:0:0:0:
297,384,77669,6,0,B|200:363|200:363|184:334|184:334|86:313,1,215.999993408203,6|10,1:2|0:0,0:0:0:0:
261,287,78183,1,2,0:0:0:0:
39,365,78354,2,0,B|2:314|46:257|46:257|117:228|106:157,1,215.999993408203,2|8,1:2|0:0,0:0:0:0:
17,27,78869,5,2,0:0:0:0:
212,89,79040,1,6,1:2:0:0:
24,172,79211,1,8,0:3:0:0:
145,4,79383,1,10,0:0:0:0:
107,186,79554,2,0,L|129:80,1,107.999996704102,8|8,0:3|0:0,0:0:0:0:
216,93,79811,1,8,0:0:0:0:
216,93,79897,2,0,P|238:112|273:112,1,53.9999983520508,8|8,0:0|0:0,0:0:0:0:
364,23,80069,2,0,P|336:32|319:62,1,53.9999983520508,8|8,0:0|0:0,0:0:0:0:
350,186,80240,2,0,P|355:157|337:127,1,53.9999983520508,8|8,0:0|0:0,0:0:0:0:
188,175,80411,6,0,L|210:281,1,107.999996704102,6|0,1:0|0:0,0:0:0:0:
239,384,80669,2,0,B|274:363|270:330|270:330|253:350|226:354,1,107.999996704102,8|0,0:3|0:0,0:0:0:0:
138,346,80926,2,0,L|172:338,1,22.5,4|0,0:3|0:0,0:0:0:0:
287,256,81097,6,0,B|340:267|340:267|343:272|343:272|403:284,1,107.999996704102,6|0,1:0|0:0,0:0:0:0:
512,282,81354,2,0,B|501:232|456:240|456:240|470:260|469:285,1,107.999996704102,8|0,0:3|0:0,0:0:0:0:
420,353,81611,2,0,P|436:346|448:332,1,22.5,4|0,0:3|0:0,0:0:0:0:
512,171,81783,6,0,L|504:135,3,36,2|2|2|0,1:3|0:3|0:3|0:0,0:0:0:0:
498,113,82126,2,0,L|379:138,1,107.999996704102,8|2,0:0|0:3,0:0:0:0:
357,148,82383,1,2,0:3:0:0:
357,148,82469,1,2,1:3:0:0:
419,0,82640,1,0,0:0:0:0:
254,45,82811,2,0,L|311:57,1,54,12|0,0:0|0:0,0:0:0:0:
337,41,83154,6,0,L|218:66,1,107.999996704102,6|2,1:0|0:0,0:0:0:0:
6,109,83497,1,10,0:0:0:0:
170,164,83669,2,0,B|177:142|170:118|170:118|186:139|219:143,1,90,2|0,0:0|0:0,0:0:0:0:
37,345,84011,2,0,B|29:323|36:299|36:299|20:320|-12:324,1,90,2|8,0:0|0:0,0:0:0:0:
222,370,84354,6,0,B|270:388|308:351|300:349|348:289|407:326,1,180,2|0,0:0|0:0,0:0:0:0:
492,384,84869,1,8,0:0:0:0:
496,255,85040,1,2,0:0:0:0:
496,255,85126,1,2,0:0:0:0:
496,255,85211,1,2,1:2:0:0:
385,317,85383,1,2,0:0:0:0:
310,258,85554,1,10,0:0:0:0:
227,229,85726,1,2,0:0:0:0:
153,274,85897,5,2,1:2:0:0:
188,379,86069,1,2,0:0:0:0:
136,275,86240,1,10,0:0:0:0:
86,373,86411,1,2,0:0:0:0:
123,263,86582,1,2,1:2:0:0:
18,297,86754,2,0,L|40:195,1,90,2|8,2:0|0:0,0:0:0:0:
21,67,87097,6,0,B|17:82|-6:100|-6:100|86:68,1,135,2|0,0:1|0:0,0:0:0:0:
107,0,87440,2,0,P|129:8|147:29,1,45,0|0,3:0|0:0,0:0:0:0:
193,135,87611,1,10,0:1:0:0:
378,94,87783,2,0,B|336:30|261:70|261:70|298:81|308:117,1,180,2|0,0:1|0:0,0:0:0:0:
212,224,88297,1,8,0:0:0:0:
207,201,88383,1,2,0:0:0:0:
202,179,88468,1,2,0:0:0:0:
197,157,88554,1,2,0:0:0:0:
193,135,88640,6,0,L|236:144,1,45,6|0,1:0|0:0,0:0:0:0:
401,169,88811,1,2,1:2:0:0:
217,247,88983,1,2,0:0:0:0:
373,301,89154,2,0,B|365:257|339:229|339:229|366:257|399:258,1,135,2|0,1:0|0:0,0:0:0:0:
401,169,89497,2,0,L|368:321,1,135,2|0,1:0|0:0,0:0:0:0:
347,384,89840,6,0,P|281:335|184:346,1,180,6|0,1:0|1:2,0:0:0:0:
16,381,90354,1,0,3:0:0:0:
22,348,90439,1,0,3:0:0:0:
46,325,90525,1,0,3:0:0:0:
79,320,90611,1,0,3:0:0:0:
109,334,90697,2,0,L|97:282,1,45,6|0,1:0|0:0,0:0:0:0:
68,117,90869,1,6,1:0:0:0:
68,117,91383,6,0,B|108:93|146:123|146:123|159:164|197:163,1,135,6|0,1:2|0:0,0:0:0:0:
244,118,91726,2,0,B|243:87|215:78|215:78|224:98|218:113,1,72,0|0,1:1|0:0,0:0:0:0:
245,200,92069,2,0,P|231:220|211:232,2,36,2|0|0,1:2|0:0|0:0,0:0:0:0:
329,102,92411,1,2,1:2:0:0:
346,81,92496,1,0,0:0:0:0:
371,71,92582,1,2,0:0:0:0:
397,72,92668,1,2,0:0:0:0:
421,85,92754,6,0,B|414:38|383:14|383:14|416:38|451:43,1,135,2|0,1:2|0:0,0:0:0:0:
501,67,93097,2,0,L|489:147,1,72,2|0,1:2|0:0,0:0:0:0:
394,198,93440,2,0,L|389:160,2,36,2|0|0,1:2|0:0|0:0,0:0:0:0:
419,345,93783,1,2,1:2:0:0:
445,342,93868,1,0,0:0:0:0:
464,324,93954,1,2,0:0:0:0:
467,298,94040,1,0,0:0:0:0:
452,276,94126,6,0,B|388:289|388:289|384:294|384:294|305:311,1,135,2|0,1:2|0:0,0:0:0:0:
249,278,94469,2,0,B|260:243|260:243|306:231,1,72,2|0,1:2|0:0,0:0:0:0:
292,375,94811,2,0,B|271:370|271:370|260:347,2,36,2|0|0,1:2|0:0|0:0,0:0:0:0:
156,340,95154,1,2,1:2:0:0:
129,345,95239,1,0,0:0:0:0:
103,351,95325,1,2,0:0:0:0:
76,356,95411,1,0,0:0:0:0:
50,362,95497,6,0,B|30:327|60:288|60:288|97:284|125:235,1,135,2|0,1:2|0:0,0:0:0:0:
77,190,95840,2,0,B|71:179|81:162|81:162|48:168|50:209,1,90,2|0,1:2|0:0,0:0:0:0:
175,225,96183,2,0,P|163:205|141:191,2,36,2|0|0,1:2|0:0|0:0,0:0:0:0:
243,103,96526,1,2,1:2:0:0:
218,91,96611,1,0,0:0:0:0:
191,90,96697,1,2,0:0:0:0:
166,98,96783,1,0,0:0:0:0:
146,116,96869,6,0,P|117:58|21:32,1,135,2|0,1:2|0:0,0:0:0:0:
27,35,97211,2,0,L|102:18,1,72,2|0,1:2|0:0,0:0:0:0:
49,206,97554,2,0,L|71:132,1,72,2|0,1:2|0:0,0:0:0:0:
208,272,97897,2,0,L|155:215,1,72,2|0,1:2|0:0,0:0:0:0:
344,167,98240,6,0,L|268:183,1,72,2|0,1:2|0:0,0:0:0:0:
399,11,98583,2,0,P|481:18|510:81,2,144,2|2|2,1:2|1:2|1:2,0:0:0:0:
474,239,99611,6,0,B|499:194|478:147|478:147|421:121|434:62,1,180,2|0,1:2|1:2,0:0:0:0:
403,197,100126,1,2,0:0:0:0:
399,11,100297,2,0,B|333:24|333:24|328:27|328:27|249:43,1,144,2|0,1:2|1:2,0:0:0:0:
18,100,100811,5,2,0:0:0:0:
18,100,100897,1,2,0:0:0:0:
18,100,100983,1,2,0:0:0:0:
65,30,101154,1,2,0:0:0:0:
147,35,101326,1,2,0:0:0:0:
194,102,101497,1,2,0:0:0:0:
104,215,101669,1,2,0:0:0:0:
176,181,101840,1,2,0:0:0:0:
40,342,102011,1,2,0:0:0:0:
37,263,102183,1,2,0:0:0:0:
107,383,102354,6,0,P|157:347|238:350,1,135,6|0,1:2|0:0,0:0:0:0:
256,369,102697,2,0,P|277:381|306:377,2,45,10|0|0,0:0|0:0|0:0,0:0:0:0:
175,266,103040,1,2,1:2:0:0:
175,266,103126,1,2,0:0:0:0:
175,266,103211,1,2,0:0:0:0:
296,303,103383,1,10,0:0:0:0:
317,277,103468,1,2,0:0:0:0:
347,262,103554,1,2,0:0:0:0:
381,260,103640,1,2,0:0:0:0:
413,270,103726,6,0,L|383:132,1,135,2|0,1:2|0:0,0:0:0:0:
377,116,104069,2,0,P|358:133|329:134,2,45,10|0|0,0:0|0:0|0:0,0:0:0:0:
449,3,104411,1,2,1:2:0:0:
449,3,104497,1,2,0:0:0:0:
449,3,104583,1,2,0:0:0:0:
318,62,104754,1,10,0:0:0:0:
297,35,104839,1,2,0:0:0:0:
269,18,104925,1,2,0:0:0:0:
235,13,105011,1,2,0:0:0:0:
203,21,105097,6,0,B|198:75|139:78|139:78|151:53|141:28,1,135,6|0,1:2|0:0,0:0:0:0:
66,42,105440,2,0,P|43:36|26:19,2,45,10|0|0,0:0|0:0|0:0,0:0:0:0:
165,159,105783,1,2,1:2:0:0:
165,159,105869,1,2,0:0:0:0:
165,159,105954,1,2,0:0:0:0:
60,122,106126,1,10,0:0:0:0:
78,298,106297,1,2,0:0:0:0:
0,259,106469,6,0,P|42:218|122:222,1,135,2|0,1:2|0:0,0:0:0:0:
132,237,106811,2,0,P|157:246|192:238,2,45,10|0|0,0:0|0:0|0:0,0:0:0:0:
68,130,107154,1,2,1:2:0:0:
68,130,107240,1,2,0:0:0:0:
68,130,107326,1,2,0:0:0:0:
252,112,107497,1,10,0:0:0:0:
96,25,107669,1,2,0:0:0:0:
165,159,107840,6,0,L|196:11,1,135,2|0,1:2|0:0,0:0:0:0:
201,0,108183,2,0,L|270:14,1,72,10|0,0:0|0:0,0:0:0:0:
420,53,108526,2,0,L|350:67,1,72,2|0,1:2|0:0,0:0:0:0:
274,192,108869,2,0,P|311:173|327:141,1,72,10|0,0:0|0:0,0:0:0:0:
74,175,109211,6,0,L|-2:191,1,72,2|0,1:2|0:0,0:0:0:0:
195,269,109554,2,0,L|271:285,1,72,10|0,0:0|0:0,0:0:0:0:
74,357,109897,2,0,L|-2:373,1,72,2|0,1:2|0:0,0:0:0:0:
239,184,110240,2,0,L|283:193,3,36,10|2|2|2,0:0|0:0|0:0|0:0,0:0:0:0:
357,217,110583,6,0,B|376:161|337:127|339:136|280:107|300:46,2,180,6|8|0,1:2|0:0|1:2,0:0:0:0:
379,58,111440,1,2,0:0:0:0:
274,191,111611,1,10,0:0:0:0:
497,147,111783,6,0,B|521:114|516:59|458:44|458:44|466:80|439:110,1,180,6|2,1:2|1:2,0:0:0:0:
436,118,112211,1,2,0:0:0:0:
436,118,112297,1,10,0:0:0:0:
297,59,112469,1,0,1:2:0:0:
357,217,112640,1,2,1:2:0:0:
383,197,112725,1,0,1:2:0:0:
417,196,112811,1,2,1:2:0:0:
445,214,112897,1,0,1:2:0:0:
458,244,112983,2,0,L|402:255,1,45,10|0,0:2|0:0,0:0:0:0:
296,277,113154,2,0,L|240:288,1,45,2|0,1:2|0:0,0:0:0:0:
141,315,113326,6,0,L|147:344,1,22.5,8|0,0:3|0:0,0:0:0:0:
161,351,113497,2,0,L|154:321,1,22.5,4|0,0:3|0:0,0:0:0:0:
100,231,113669,6,0,B|82:203|38:219|38:219|66:220|79:238,1,108,8|0,0:0|0:0,0:0:0:0:
35,297,114011,2,0,L|73:121,1,161.999995056153,6|0,1:0|0:0,0:0:0:0:
83,63,114354,1,8,0:0:0:0:
188,198,114526,6,0,B|230:221|271:193|271:193|292:153|341:153,1,161.999995056153,6|0,1:2|0:0,0:0:0:0:
412,171,114869,1,8,0:3:0:0:
305,65,115040,1,10,0:0:0:0:
356,235,115211,1,4,0:3:0:0:
475,87,115383,1,0,1:2:0:0:
337,161,115554,1,8,0:3:0:0:
337,161,115640,1,8,0:3:0:0:
337,161,115726,1,8,0:0:0:0:
495,236,115897,1,4,0:3:0:0:
368,334,116069,6,0,L|400:327,1,22.5,8|0,0:3|0:0,0:0:0:0:
401,340,116240,2,0,L|368:346,1,22.5,4|0,0:3|0:0,0:0:0:0:
223,359,116411,6,0,B|231:326|216:296|216:296|231:324|255:334,1,108,8|0,0:0|0:0,0:0:0:0:
285,263,116754,2,0,P|225:322|128:332,1,161.999995056153,6|0,1:0|0:0,0:0:0:0:
77,316,117097,1,0,0:0:0:0:
93,158,117269,6,0,B|55:163|17:132|17:132|48:168|40:205,1,161.999995056153,6|0,1:2|0:0,0:0:0:0:
0,278,117611,1,2,1:2:0:0:
83,80,117783,1,10,0:0:0:0:
138,258,117954,1,0,1:2:0:0:
181,227,118040,1,0,1:2:0:0:
231,223,118126,1,8,0:3:0:0:
272,241,118211,1,8,0:3:0:0:
294,273,118297,1,4,0:3:0:0:
308,298,118383,1,4,0:3:0:0:
331,309,118469,1,10,0:0:0:0:
353,310,118554,1,0,0:0:0:0:
369,305,118640,2,0,L|359:260,1,45,0|0,1:2|1:2,0:0:0:0:
471,137,118811,6,0,L|445:256,1,107.999996704102,2|2,1:2|0:0,0:0:0:0:
346,156,119154,1,10,0:0:0:0:
493,51,119326,1,2,0:0:0:0:
328,0,119497,1,2,1:2:0:0:
471,137,119669,2,0,L|428:128,1,36,2|2,0:0|0:0,0:0:0:0:
340,76,119840,2,0,L|297:84,1,36,10|0,0:0|0:0,0:0:0:0:
151,120,120011,1,2,0:0:0:0:
280,246,120183,6,0,L|257:138,1,90,2|2,1:2|0:0,0:0:0:0:
131,32,120526,1,10,0:0:0:0:
54,153,120697,1,2,0:0:0:0:
224,85,120869,1,2,1:2:0:0:
27,28,121040,2,0,L|36:73,1,36,2|2,0:0|0:0,0:0:0:0:
151,120,121211,2,0,L|121:258,1,135,10|0,0:0|0:0,0:0:0:0:
85,321,121554,6,0,B|49:349|6:335|-4:287|-4:287|24:248|65:267,1,180,6|8,1:2|0:0,0:0:0:0:
172,384,122069,1,2,0:0:0:0:
280,246,122240,2,0,B|337:226|364:284|356:283|386:341|453:313,1,180,2|8,1:2|0:0,0:0:0:0:
330,384,122754,1,2,0:0:0:0:
504,213,122926,6,0,P|453:213|426:252,1,90,2|0,1:2|0:0,0:0:0:0:
265,316,123269,2,0,L|285:220,1,72,2|0,1:2|0:0,0:0:0:0:
165,134,123611,2,0,L|185:229,1,72,2|0,1:2|0:0,0:0:0:0:
299,135,123954,2,0,L|256:143,1,36,2|0,1:2|0:0,0:0:0:0:
91,187,124126,5,0,1:2:0:0:
91,187,124211,1,0,1:0:0:0:
91,187,124297,2,0,L|65:67,1,107.999996704102,6|0,1:0|0:0,0:0:0:0:
200,19,124554,2,0,B|198:49|214:69|214:69|196:52|149:53,1,107.999996704102,8|0,0:3|3:0,0:0:0:0:
50,6,124811,2,0,P|85:4|113:24,1,53.9999983520508,4|0,0:3|0:0,0:0:0:0:
263,142,124983,6,0,L|391:114,1,107.999996704102,6|0,1:0|0:0,0:0:0:0:
472,76,125240,2,0,B|447:41|408:52|408:52|432:66|437:82,1,107.999996704102,8|0,0:3|0:0,0:0:0:0:
442,158,125497,2,0,L|430:210,1,53.9999983520508,4|0,0:3|0:0,0:0:0:0:
392,359,125669,5,6,1:2:0:0:
408,316,125754,1,2,0:0:0:0:
443,298,125840,1,2,0:0:0:0:
472,298,125926,1,2,0:0:0:0:
495,313,126011,1,2,0:0:0:0:
508,331,126097,1,2,0:0:0:0:
512,348,126183,1,2,0:0:0:0:
511,363,126269,1,2,0:0:0:0:
505,373,126354,6,0,P|473:353|482:309,1,67.5,2|0,0:0|0:0,0:0:0:0:
495,313,126697,1,6,1:2:0:0:
472,298,126782,1,2,0:0:0:0:
443,298,126868,1,2,0:0:0:0:
408,316,126954,1,2,0:0:0:0:
392,359,127040,6,0,B|344:311|379:231|379:231|377:227|377:227|448:211|449:142,1,251.999992309571,6|8,1:2|0:0,0:0:0:0:
309,2,127554,1,0,0:0:0:0:
370,146,127726,1,2,1:2:0:0:
473,34,127897,2,0,L|416:46,1,49.5000015106202,2|2,0:0|0:0,0:0:0:0:
289,100,128069,2,0,L|189:78,1,99.0000030212403,8|0,0:0|0:0,0:0:0:0:
0,45,128411,5,2,1:2:0:0:
160,0,128583,1,0,0:0:0:0:
186,161,128754,1,10,0:0:0:0:
75,133,128926,1,0,0:0:0:0:
0,289,129097,1,2,1:2:0:0:
150,238,129269,1,0,0:0:0:0:
219,360,129440,2,0,L|119:338,1,99.0000030212403,10|2,0:0|0:0,0:0:0:0:
311,251,129783,6,0,P|356:197|441:211,1,148.50000453186,2|0,1:2|0:0,0:0:0:0:
498,242,130126,2,0,B|491:266|501:292|501:292|483:273|445:279,1,99.0000030212403,10|2,0:0|0:0,0:0:0:0:
411,107,130469,2,0,P|459:119|497:150,1,99.0000030212403,2|0,1:2|0:0,0:0:0:0:
236,53,130811,2,0,P|269:17|315:0,1,99.0000030212403,10|0,0:0|0:0,0:0:0:0:
100,177,131154,5,2,1:2:0:0:
2,140,131326,1,0,0:0:0:0:
38,42,131497,1,8,0:0:0:0:
136,79,131669,1,2,0:0:0:0:
100,177,131840,1,2,1:2:0:0:
91,148,131926,1,2,0:3:0:0:
66,128,132011,1,2,0:0:0:0:
32,125,132097,1,2,0:0:0:0:
2,140,132183,6,0,L|11:94,1,36,10|0,0:0|0:0,0:0:0:0:
123,0,132354,2,0,L|132:45,1,36,2|2,0:0|0:0,0:0:0:0:
276,154,132526,6,0,L|287:100,1,54,6|0,1:2|0:0,0:0:0:0:
263,34,132869,6,0,L|303:225,1,188.999994232178,10|0,0:0|0:0,0:0:0:0:
321,293,133211,1,2,1:2:0:0:
512,146,133383,1,2,0:0:0:0:
340,33,133554,1,10,0:0:0:0:
363,125,133726,1,2,0:0:0:0:
512,41,133897,6,0,L|407:63,1,90,2|0,1:2|0:0,0:0:0:0:
380,236,134240,2,0,P|416:198|453:198,1,90,10|0,0:0|0:0,0:0:0:0:
502,322,134583,2,0,P|466:360|429:360,1,90,2|0,1:2|0:0,0:0:0:0:
188,274,134926,2,0,L|209:174,1,90,10|2,0:0|0:0,0:0:0:0:
83,384,135269,5,2,1:2:0:0:
268,323,135440,1,0,0:0:0:0:
44,206,135611,1,10,0:0:0:0:
62,295,135783,1,2,0:0:0:0:
206,185,135954,5,2,1:2:0:0:
173,355,136126,1,2,0:0:0:0:
44,206,136297,1,10,0:0:0:0:
283,240,136469,1,2,0:0:0:0:
83,384,136640,5,6,1:2:0:0:
289,153,136811,1,2,1:2:0:0:
44,206,136983,1,10,0:0:0:0:
181,363,137154,5,2,0:0:0:0:
181,363,137240,1,2,0:0:0:0:
181,363,137326,2,0,B|214:359|242:378|242:378|233:342|254:295,1,125.999996154785,6|0,1:0|0:0,0:0:0:0:
289,153,137583,2,0,B|322:157|350:138|350:138|341:174|362:221,1,125.999996154785,2|0,1:1|0:0,0:0:0:0:
444,321,137840,2,0,B|461:322|477:331|477:331|472:307|478:283,1,62.9999980773926,2|0,1:1|0:0,0:0:0:0:
455,153,138011,6,0,L|187:209,1,251.999992309571,6|8,1:2|0:0,0:0:0:0:
364,283,138526,1,2,0:0:0:0:
503,57,138697,2,0,L|343:91,1,135,2|2,1:2|0:0,0:0:0:0:
263,87,139040,2,0,B|261:47|307:40|307:40|296:58|297:79,1,90,10|0,0:0|0:0,0:0:0:0:
208,204,139383,5,2,1:2:0:0:
37,105,139554,1,0,0:0:0:0:
28,234,139726,1,10,0:0:0:0:
134,173,139897,1,0,0:0:0:0:
267,320,140069,1,2,1:2:0:0:
142,251,140240,1,0,0:0:0:0:
18,374,140411,2,0,L|124:351,1,90,10|2,0:0|0:0,0:0:0:0:
346,322,140754,6,0,P|330:271|295:246,1,90,2|0,1:2|0:0,0:0:0:0:
444,92,141097,2,0,P|483:111|495:153,1,90,10|0,0:0|0:0,0:0:0:0:
346,322,141440,2,0,P|362:271|397:246,1,90,2|0,1:2|0:0,0:0:0:0:
264,89,141783,2,0,P|226:112|219:155,1,90,10|0,0:0|0:0,0:0:0:0:
115,359,142126,6,0,B|66:345|28:383|28:383|47:336|4:283,1,188.999994232178,2|0,1:2|0:0,0:0:0:0:
2,220,142469,2,0,P|28:175|83:182,1,107.999996704102,8|2,0:0|0:0,0:0:0:0:
189,327,142811,1,2,1:2:0:0:
205,311,142896,1,2,0:0:0:0:
216,292,142982,1,2,0:0:0:0:
218,269,143068,1,2,0:0:0:0:
210,248,143153,1,10,0:0:0:0:
196,231,143239,1,2,0:0:0:0:
176,221,143326,2,0,P|161:250|168:270,1,45,2|0,0:0|0:0,0:0:0:0:
285,378,143497,6,0,B|309:308|397:318|397:318|417:368|476:366,1,215.999993408203,6|10,1:2|0:0,0:0:0:0:
324,239,144011,1,2,0:0:0:0:
473,285,144183,2,0,B|525:258|535:186|485:146|485:146|485:179|462:201,1,215.999993408203,2|8,1:2|0:0,0:0:0:0:
285,378,144697,5,2,0:0:0:0:
407,242,144869,1,6,1:2:0:0:
221,192,145040,1,8,0:3:0:0:
453,364,145211,1,10,0:0:0:0:
408,147,145383,2,0,L|296:170,1,107.999996704102,8|8,0:3|0:0,0:0:0:0:
225,195,145640,1,8,0:0:0:0:
225,195,145726,2,0,L|171:184,1,53.9999983520508,8|8,0:0|0:0,0:0:0:0:
87,68,145897,2,0,L|104:120,1,53.9999983520508,8|8,0:0|0:0,0:0:0:0:
46,250,146069,2,0,L|82:208,1,53.9999983520508,8|8,0:0|0:0,0:0:0:0:
242,45,146240,6,0,B|295:56|295:56|299:60|299:60|366:74,1,107.999996704102,6|0,1:0|0:0,0:0:0:0:
422,44,146497,2,0,B|420:13|430:-19|430:-19|413:6|382:13,1,107.999996704102,8|0,0:3|0:0,0:0:0:0:
403,124,146754,2,0,L|409:156,1,22.5,4|0,0:3|0:0,0:0:0:0:
438,320,146926,6,0,B|384:308|384:308|380:304|380:304|313:290,1,107.999996704102,6|0,1:0|0:0,0:0:0:0:
258,321,147183,2,0,B|260:352|250:384|250:384|267:359|298:352,1,107.999996704102,8|0,0:3|0:0,0:0:0:0:
277,241,147440,2,0,L|270:208,1,22.5,4|0,0:3|0:0,0:0:0:0:
242,45,147611,6,0,L|232:88,3,36,2|2|2|0,1:3|0:3|0:3|0:0,0:0:0:0:
229,109,147954,2,0,L|352:82,1,107.999996704102,8|2,0:0|0:3,0:0:0:0:
368,83,148211,1,2,0:3:0:0:
368,83,148297,1,2,1:3:0:0:
277,241,148469,1,0,0:0:0:0:
441,154,148640,1,8,0:0:0:0:
416,194,148726,1,8,0:0:0:0:
424,235,148811,1,8,0:0:0:0:
449,246,148897,1,8,0:0:0:0:
474,246,148983,6,0,B|423:208|357:247|357:247|345:310|282:319,2,215.999993408203,6|8|0,1:2|0:0|1:2,0:0:0:0:
277,241,149840,1,2,0:0:0:0:
331,384,150011,1,10,0:0:0:0:
134,323,150183,2,0,L|238:300,1,90,2|0,0:0|1:2,0:0:0:0:
146,230,150526,1,2,0:0:0:0:
48,378,150697,6,0,L|3:368,1,45,10|0,0:0|0:0,0:0:0:0:
44,353,150869,2,0,L|0:343,1,45
101,239,151040,2,0,L|145:229,1,45,2|0,1:2|0:0,0:0:0:0:
105,214,151212,2,0,L|149:204,1,45
52,96,151383,6,0,L|9:87,1,40.4999987640381,10|0,0:0|0:0,0:0:0:0:
12,87,151726,6,0,B|66:119|114:69|105:67|154:4|229:48,2,215.999993408203,2|8|0,1:2|0:0|1:2,0:0:0:0:
179,119,152583,1,2,0:0:0:0:
291,37,152754,1,10,0:0:0:0:
260,192,152926,1,2,0:0:0:0:
423,70,153097,6,0,B|426:12|369:0|369:0|381:26|373:49,1,135,2|0,1:2|0:0,0:0:0:0:
337,112,153440,2,0,L|356:203,1,90,8|2,0:0|0:0,0:0:0:0:
479,372,153783,2,0,L|518:336,1,45,2|0,1:2|0:0,0:0:0:0:
424,293,153954,2,0,L|412:241,1,45,2|0,0:0|0:0,0:0:0:0:
329,302,154126,2,0,L|278:285,1,45,10|0,0:0|0:0,0:0:0:0:
114,343,154297,5,2,0:0:0:0:
114,343,154383,1,2,0:0:0:0:
114,343,154469,2,0,B|111:385|186:401|234:346|221:268|149:245,2,215.999993408203,6|8|0,1:2|0:0|1:2,0:0:0:0:
5,129,155326,1,2,0:0:0:0:
65,256,155497,1,10,0:0:0:0:
168,152,155669,2,0,L|71:172,1,90,2|2,0:0|1:2,0:0:0:0:
232,66,156011,6,0,L|277:75,1,45,2|0,0:0|0:0,0:0:0:0:
420,45,156183,2,0,B|390:-1|332:19|332:19|353:39|353:61,1,135,10|0,0:0|0:0,0:0:0:0:
339,127,156526,2,0,L|357:215,1,90,2|0,1:2|0:0,0:0:0:0:
472,357,156869,2,0,L|490:268,1,90,10|0,0:0|0:0,0:0:0:0:
254,364,157211,6,0,B|198:397|148:359|148:359|114:292|48:313,2,215.999993408203,2|8|0,1:2|0:0|1:2,0:0:0:0:
70,384,158069,1,2,0:0:0:0:
132,212,158240,1,10,0:0:0:0:
0,243,158411,5,2,0:0:0:0:
0,243,158497,1,2,0:0:0:0:
0,243,158583,2,0,L|44:233,1,45,6|0,1:2|0:0,0:0:0:0:
222,197,158754,1,2,1:2:0:0:
69,93,158926,1,8,0:0:0:0:
75,317,159097,5,0,1:2:0:0:
75,317,159183,1,0,1:2:0:0:
75,317,159269,2,0,L|205:289,1,107.999996704102,2|0,1:0|0:0,0:0:0:0:
222,197,159526,2,0,L|327:219,1,107.999996704102,2|0,1:0|0:0,0:0:0:0:
426,241,159783,2,0,L|413:184,1,53.9999983520508,2|0,1:0|0:0,0:0:0:0:
386,14,159954,6,0,P|478:14|464:96,1,161.999995056153,6|0,1:2|0:0,0:0:0:0:
419,113,160297,2,0,L|318:92,1,90,8|0,0:0|0:0,0:0:0:0:
105,49,160640,1,2,1:2:0:0:
222,197,160811,1,2,0:0:0:0:
98,42,160983,1,10,0:0:0:0:
93,213,161154,1,2,0:0:0:0:
237,87,161326,6,0,L|188:97,1,45,2|0,1:2|0:0,0:0:0:0:
12,137,161497,1,2,0:0:0:0:
166,256,161669,1,10,0:0:0:0:
6,343,161840,1,2,0:0:0:0:
111,384,162011,2,0,L|87:274,1,90,2|0,1:2|0:0,0:0:0:0:
311,181,162354,2,0,L|287:290,1,90,8|2,0:0|0:0,0:0:0:0:
277,362,162611,5,2,0:0:0:0:
277,362,162697,2,0,L|327:351,1,45,2|0,1:2|0:0,0:0:0:0:
497,309,162869,1,2,0:0:0:0:
396,384,163040,2,0,L|412:334,1,45,10|0,0:0|0:0,0:0:0:0:
461,167,163212,1,2,0:2:0:0:
497,309,163383,2,0,L|453:277,1,45,2|0,1:2|0:0,0:0:0:0:
311,181,163554,2,0,L|330:268,1,90,0|8,0:0|0:0,0:0:0:0:
469,174,163897,5,0,0:0:0:0:
469,174,163983,1,0,0:0:0:0:
469,174,164069,2,0,L|409:161,1,45,2|0,1:0|0:0,0:0:0:0:
243,131,164240,1,0,0:0:0:0:
383,51,164411,1,8,0:0:0:0:
330,268,164583,1,0,0:0:0:0:
281,58,164754,1,0,1:2:0:0:
230,47,164840,1,0,0:0:0:0:
186,67,164926,1,0,0:0:0:0:
164,101,165011,1,0,0:0:0:0:
148,126,165097,1,0,1:0:0:0:
120,136,165183,1,0,0:0:0:0:
95,133,165269,1,2,0:0:0:0:
82,125,165354,1,2,0:0:0:0:
78,114,165440,6,0,P|155:167|181:284,1,215.999993408203,2|8,1:2|0:0,0:0:0:0:
80,384,165954,1,2,0:0:0:0:
330,268,166126,2,0,L|424:288,1,90,2|0,1:2|0:0,0:0:0:0:
241,214,166469,2,0,L|176:286,1,90,10|0,0:0|0:0,0:0:0:0:
332,163,166811,6,0,L|302:70,1,90,2|0,1:2|0:0,0:0:0:0:
279,384,167154,2,0,P|323:284|431:297,2,215.999993408203,10|2|10,0:0|1:2|0:0,0:0:0:0:
94,318,168011,5,2,0:0:0:0:
94,318,168097,1,2,0:0:0:0:
94,318,168183,2,0,P|146:320|180:280,1,107.999996704102,6|0,1:0|0:0,0:0:0:0:
149,193,168440,2,0,P|96:190|62:230,1,107.999996704102,8|0,0:3|0:0,0:0:0:0:
0,311,168697,2,0,L|6:280,1,22.5,4|0,0:3|0:0,0:0:0:0:
0,84,168869,6,0,B|52:95|52:95|54:100|54:100|103:111,1,107.999996704102,6|0,1:0|0:0,0:0:0:0:
149,193,169126,2,0,B|201:181|201:181|203:176|203:176|252:165,1,107.999996704102,8|0,0:3|0:0,0:0:0:0:
311,103,169383,2,0,L|343:109,1,22.5,4|0,0:3|0:0,0:0:0:0:
484,138,169554,6,0,B|474:109|486:83|486:83|469:104|428:104,1,107.999996704102,6|0,1:0|0:0,0:0:0:0:
419,245,169811,2,0,B|449:250|465:274|465:274|455:249|476:213,1,107.999996704102,8|0,0:3|0:0,0:0:0:0:
365,187,170069,2,0,P|354:195|348:211,1,22.5,4|0,0:3|0:0,0:0:0:0:
297,339,170240,6,0,B|323:350|323:350|425:314,1,107.999996704102,6|0,1:0|0:0,0:0:0:0:
273,253,170497,2,0,B|247:242|247:242|145:278,1,107.999996704102,8|0,0:3|0:0,0:0:0:0:
101,346,170754,2,0,L|75:340,1,22.5,4|0,0:3|0:0,0:0:0:0:
21,218,170926,6,0,B|-5:152|65:116|65:116|65:114|65:114|101:196|201:202|266:121|233:44|177:26|146:38|146:38|183:57|183:82,1,495,6|0,1:0|0:0,0:0:0:0:
179,67,171954,2,0,L|277:46,1,94.499997116089,2|0,0:0|0:0,0:0:0:0:
365,34,172297,6,0,L|357:70,3,31.4999990386963,0|0|0|0,3:0|3:0|3:0|3:0,0:0:0:0:
351,103,172640,2,0,P|399:79|440:96,1,99.0000030212403,0|0,3:0|3:0,0:0:0:0:
461,114,172897,1,0,3:0:0:0:
461,114,172983,1,0,3:0:0:0:
329,236,173154,1,2,0:0:0:0:
428,328,173326,1,12,0:0:0:0:
466,278,173411,1,2,0:0:0:0:
462,218,173497,1,2,0:0:0:0:
436,186,173583,1,2,0:0:0:0:
402,169,173669,1,6,0:0:0:0:
5,257,178469,6,0,L|171:221,1,161.999995056153
192,151,178811,2,0,L|229:158,1,36
291,209,178983,2,0,L|328:201,1,36
470,154,179154,6,0,B|456:110|404:98|368:132|368:132|394:146|398:172,1,161.999995056153,6|0,1:2|0:0,0:0:0:0:
400,235,179497,2,0,L|383:311,1,72,10|0,0:0|0:0,0:0:0:0:
512,384,179840,1,2,1:2:0:0:
478,233,180011,1,2,0:0:0:0:
368,384,180183,1,8,0:0:0:0:
494,307,180354,1,2,0:0:0:0:
303,267,180526,6,0,P|256:283|239:320,1,80.9999975280763,2|0,1:2|0:0,0:0:0:0:
233,384,180869,2,0,P|212:326|144:276,1,148.50000453186,10|0,0:0|0:0,0:0:0:0:
67,215,181211,2,0,L|154:196,1,72,2|2,1:2|0:0,0:0:0:0:
247,67,181554,2,0,L|159:48,1,72,8|0,0:0|0:0,0:0:0:0:
293,198,181897,5,2,1:2:0:0:
468,126,182069,1,2,0:0:0:0:
316,3,182240,1,10,0:0:0:0:
346,84,182411,1,2,0:0:0:0:
488,41,182583,5,2,1:2:0:0:
446,219,182754,1,2,0:0:0:0:
293,198,182926,1,10,0:0:0:0:
379,161,183097,1,2,0:0:0:0:
200,317,183269,5,2,1:2:0:0:
247,67,183440,1,2,1:2:0:0:
370,258,183611,1,2,1:2:0:0:
141,157,183783,5,2,0:0:0:0:
141,157,183869,1,2,0:0:0:0:
141,157,183954,2,0,B|104:100|162:63|162:63|163:97|186:122,1,153.000002918243,6|0,1:0|0:0,0:0:0:0:
114,247,184211,2,0,B|83:307|22:274|22:274|50:257|61:224,1,153.000002918243,2|0,1:0|0:0,0:0:0:0:
206,229,184469,2,0,P|235:235|253:250,1,45,2|0,1:0|0:0,0:0:0:0:
441,312,184640,6,0,B|483:242|425:184|425:184|424:180|424:180|348:169|335:100,1,251.999992309571,6|12,1:2|0:0,0:0:0:0:
370,258,185154,1,2,0:0:0:0:
374,42,185326,2,0,B|409:48|436:28|436:28|412:49|420:102,1,135,2|2,1:2|0:0,0:0:0:0:
341,121,185669,2,0,L|234:98,1,90,10|0,0:0|0:0,0:0:0:0:
45,66,186011,5,2,1:2:0:0:
0,182,186183,1,0,0:0:0:0:
85,146,186354,1,10,0:0:0:0:
147,281,186526,1,0,0:0:0:0:
182,169,186697,1,2,1:2:0:0:
342,228,186869,1,0,0:0:0:0:
252,102,187039,1,10,0:0:0:0:
407,31,187211,1,2,0:0:0:0:
463,141,187383,5,2,1:2:0:0:
352,100,187554,1,0,0:0:0:0:
449,299,187726,1,10,0:0:0:0:
387,167,187897,1,0,0:0:0:0:
311,384,188069,1,2,1:2:0:0:
364,239,188240,1,0,0:0:0:0:
136,350,188411,1,10,0:0:0:0:
296,274,188583,1,0,0:0:0:0:
57,192,188754,5,2,1:2:0:0:
155,267,188926,1,0,0:0:0:0:
230,169,189097,1,8,0:0:0:0:
132,94,189269,1,2,0:0:0:0:
155,267,189440,5,2,1:2:0:0:
118,280,189526,1,2,0:0:0:0:
72,271,189611,1,2,0:0:0:0:
50,231,189697,1,2,0:0:0:0:
57,192,189783,2,0,L|114:204,1,45,10|0,0:0|0:0,0:0:0:0:
230,169,189954,2,0,L|248:224,1,45,2|0,0:0|0:0,0:0:0:0:
297,362,190126,6,0,B|293:292|368:263|418:299|418:299|388:314|386:342,1,215.999993408203,6|10,1:2|0:0,0:0:0:0:
216,290,190640,1,2,0:0:0:0:
457,371,190811,2,0,P|384:269|389:171,1,215.999993408203,2|8,1:2|0:0,0:0:0:0:
499,7,191326,5,2,0:0:0:0:
274,173,191497,1,6,1:2:0:0:
484,224,191669,1,8,0:3:0:0:
357,2,191840,1,10,0:0:0:0:
511,129,192011,2,0,L|405:107,1,107.999996704102,8|8,0:3|0:0,0:0:0:0:
320,73,192269,1,8,0:0:0:0:
320,73,192354,2,0,P|289:73|262:86,1,53.9999983520508,8|8,0:0|0:0,0:0:0:0:
255,222,192526,2,0,P|270:195|272:165,1,53.9999983520508,8|8,0:0|0:0,0:0:0:0:
158,91,192697,2,0,P|173:117|198:134,1,53.9999983520508,8|8,0:0|0:0,0:0:0:0:
284,295,192869,6,0,P|246:263|188:266,1,107.999996704102,6|0,1:0|0:0,0:0:0:0:
123,339,193126,2,0,P|85:371|27:368,1,107.999996704102,8|0,0:3|0:0,0:0:0:0:
8,278,193383,2,0,P|38:278|61:301,1,53.9999983520508,4|0,0:3|0:0,0:0:0:0:
237,384,193554,6,0,L|363:357,1,107.999996704102,6|0,1:0|0:0,0:0:0:0:
476,282,193811,2,0,L|349:255,1,107.999996704102,8|0,0:3|0:0,0:0:0:0:
273,172,194069,2,0,L|328:160,1,53.9999983520508,4|0,0:3|0:0,0:0:0:0:
468,130,194240,6,0,L|459:87,3,36,2|2|2|0,1:3|0:3|0:3|0:0,0:0:0:0:
454,69,194583,2,0,P|396:73|370:21,1,107.999996704102,8|2,0:0|0:3,0:0:0:0:
377,7,194840,1,2,0:3:0:0:
377,7,194926,1,2,1:3:0:0:
273,172,195097,1,0,0:0:0:0:
200,30,195269,6,0,L|266:44,1,54,12|0,0:0|0:0,0:0:0:0:
284,28,195611,6,0,L|156:55,1,107.999996704102,6|2,1:0|0:0,0:0:0:0:
0,88,195954,1,10,0:0:0:0:
131,221,196126,2,0,P|100:189|48:190,1,90,2|0,0:0|0:0,0:0:0:0:
192,377,196469,2,0,P|223:345|275:346,1,90,2|8,0:0|0:0,0:0:0:0:
450,384,196811,6,0,B|431:295|431:295|427:291|427:291|404:186,1,180,2|0,0:0|0:0,0:0:0:0:
374,23,197326,1,8,0:0:0:0:
488,158,197497,1,2,0:0:0:0:
488,158,197583,1,2,0:0:0:0:
488,158,197669,1,2,1:2:0:0:
411,104,197840,1,2,0:0:0:0:
330,130,198011,1,10,0:0:0:0:
299,209,198183,1,2,0:0:0:0:
341,288,198354,5,2,1:2:0:0:
193,243,198526,1,2,0:0:0:0:
351,270,198697,1,10,0:0:0:0:
196,264,198869,1,2,0:0:0:0:
356,250,199039,1,2,1:2:0:0:
203,351,199211,2,0,P|257:329|271:294,1,90,2|8,2:0|0:0,0:0:0:0:
366,57,199554,6,0,B|402:55|429:31|429:31|407:60|402:101,1,135,6|0,0:1|0:0,0:0:0:0:
297,119,199897,2,0,P|272:115|254:95,1,45
124,17,200069,1,10,0:1:0:0:
290,30,200240,2,0,B|247:6|202:40|202:40|187:94|128:96,1,180,2|0,0:1|0:0,0:0:0:0:
5,23,200754,1,8,0:0:0:0:
12,56,200839,1,2,0:0:0:0:
19,89,200925,1,2,0:0:0:0:
26,122,201011,1,2,0:0:0:0:
33,155,201097,6,0,L|42:199,1,45,6|0,1:0|0:0,0:0:0:0:
76,378,201269,1,0,1:2:0:0:
190,207,201440,1,8,0:0:0:0:
0,273,201611,6,0,B|78:289|78:289|79:293|79:293|174:314,1,161.999995056153,2|0,1:0|0:0,0:0:0:0:
197,384,201954,2,0,B|275:368|275:368|276:364|276:364|371:343,1,161.999995056153,2|0,1:0|0:0,0:0:0:0:
435,325,202297,1,6,1:0:0:0:
320,258,202469,1,0,3:3:0:0:
333,260,202554,1,0,3:3:0:0:
346,263,202640,1,0,3:3:0:0:
359,266,202726,1,0,3:0:0:0:
372,269,202811,5,2,3:2:0:0:
353,243,202897,1,2,3:2:0:0:
354,199,202983,1,2,3:2:0:0:
388,158,203069,1,2,3:2:0:0:
448,154,203154,2,0,L|395:143,1,53.9999983520508,6|0,1:0|0:0,0:0:0:0:
184,107,203326,1,6,1:0:0:0:
352,347,203497,1,8,0:0:0:0:
425,64,203669,1,6,0:0:0:0:
256,192,203754,12,0,206583,0:0:0:0:
