osu file format v14

[General]
AudioFilename: audio.mp3
AudioLeadIn: 0
PreviewTime:126869
Countdown: 0
SampleSet: Soft
StackLeniency: 0.5
Mode: 0
LetterboxInBreaks: 0
WidescreenStoryboard: 1

[Editor]
Bookmarks: 11840,17326,25554,36526,47497,61211,83154,91383,102354,113326,127040,148983,159954,173669,184640,195611,203669
DistanceSpacing: 1.5
BeatDivisor: 4
GridSize: 8
TimelineZoom: 0.9999998

[Metadata]
Title:Mogitate <3 Fruit Girls
TitleUnicode:も・ぎ・た・て♥フルーツガールズ
Artist:Kinoshita Ringo (CV: Tamura Yukari) & Nakazawa Minori (CV: Hanazawa Kana)
ArtistUnicode:木下林檎(CV:田村ゆかり)& 中沢農(CV:花澤香菜)
Creator:Yogurtt
Version:Mayu's Cabbage
Source:のうりん
Tags:zekk shizuku- shikibe mayu kazato asa frozz -keqing froskya revialink koldnoodl amateurre kyuuchie gazimal - ex -_ex_- iMage-- meg ending ed nourin no-rin full version ver anime japanese pop jpop j-pop
BeatmapID:3541629
BeatmapSetID:1714748

[Difficulty]
HPDrainRate:6
CircleSize:3.8
OverallDifficulty:8
ApproachRate:9
SliderMultiplier:1.8
SliderTickRate:1

[Events]
//Background and Video events
0,0,"cropped-1920-1080-846085.jpg",0,0
//Break Periods
2,173869,177183
//Storyboard Layer 0 (Background)
//Storyboard Layer 1 (Fail)
//Storyboard Layer 2 (Pass)
//Storyboard Layer 3 (Foreground)
//Storyboard Layer 4 (Overlay)
//Storyboard Sound Samples

[TimingPoints]
869,342.857142857143,4,2,1,60,1,0
869,-125,4,2,1,60,0,0
4983,-125,4,2,1,70,0,0
5669,-200,4,2,1,60,0,0
6011,-76.9230769230769,4,2,1,60,0,0
6354,-142.857142857143,4,2,1,70,0,0
11840,-100,4,2,1,70,0,0
14583,-83.3333333333333,4,2,1,70,0,0
17326,-100,4,2,1,70,0,0
25554,-111.111111111111,4,2,1,50,0,0
34983,-111.111111111111,4,2,1,30,0,0
36526,-100,4,2,1,60,0,0
46811,-83.3333333333333,4,2,1,60,0,0
47497,-83.3333333333333,4,2,1,60,0,0
47840,-83.3333333333333,4,2,1,70,0,0
48697,-100,4,2,1,70,0,0
49040,-100,4,2,2,70,0,0
50583,-83.3333333333333,4,2,1,70,0,0
51440,-100,4,2,1,70,0,0
58469,-76.9230769230769,4,2,1,70,0,0
59840,-100,4,2,1,70,0,0
61211,-90.9090909090909,4,2,2,80,0,1
71497,-76.9230769230769,4,2,2,80,0,0
72183,-90.9090909090909,4,2,2,80,0,1
80411,-76.9230769230769,4,2,2,80,0,1
81783,-90.9090909090909,4,2,2,80,0,1
82811,-66.6666666666667,4,2,0,80,0,1
83154,-100,4,2,1,70,0,0
91383,-111.111111111111,4,2,1,50,0,0
100811,-111.111111111111,4,2,1,30,0,0
102354,-100,4,2,1,60,0,0
112640,-83.3333333333333,4,2,1,60,0,0
113669,-83.3333333333333,4,2,1,70,0,0
114526,-100,4,2,1,70,0,0
114869,-100,4,2,2,70,0,0
116411,-83.3333333333333,4,2,1,70,0,0
117269,-100,4,2,1,70,0,0
124297,-76.9230769230769,4,2,1,70,0,0
125669,-100,4,2,1,70,0,0
127040,-90.9090909090909,4,2,2,80,0,1
137326,-76.9230769230769,4,2,2,80,0,0
138011,-90.9090909090909,4,2,2,80,0,1
146240,-76.9230769230769,4,2,2,80,0,1
147611,-90.9090909090909,4,2,2,80,0,1
148983,-100,4,2,2,70,0,0
159269,-76.9230769230769,4,2,2,70,0,0
159954,-133.333333333333,4,2,2,70,0,0
160297,-76.9230769230769,4,2,2,70,0,0
160640,-100,4,2,2,70,0,0
168183,-76.9230769230769,4,2,2,70,0,0
169554,-71.4285714285714,4,2,2,70,0,0
172297,-76.9230769230769,4,2,2,70,0,0
173326,-66.6666666666667,4,2,0,70,0,0
177783,-66.6666666666667,4,2,2,60,0,0
179154,-100,4,2,2,60,0,0
183954,-76.9230769230769,4,2,2,70,0,0
184640,-86.9565217391304,4,2,2,80,0,1
192869,-74.0740740740741,4,2,2,80,0,1
194240,-76.9230769230769,4,2,2,80,0,1
195269,-66.6666666666667,4,2,0,80,0,1
195611,-100,4,2,1,70,0,0
206583,-100,4,2,1,5,0,0

[Colours]
Combo1 : 255,192,0
Combo2 : 226,101,160
Combo3 : 98,215,68
Combo4 : 251,15,21

[HitObjects]
429,32,868,5,6,1:2:0:0:
429,32,1211,2,0,L|352:49,1,72,10|8,0:0|0:0,0:0:0:0:
278,29,1554,1,2,0:0:0:0:
340,131,1726,2,0,L|325:205,1,72,2|8,1:2|0:0,0:0:0:0:
239,276,2069,2,0,L|224:350,1,72,2|0,0:0|1:2,0:0:0:0:
224,346,2411,1,2,0:0:0:0:
141,371,2583,1,8,0:0:0:0:
97,294,2754,1,10,0:0:0:0:
149,223,2926,6,0,P|150:186|163:146,1,72,2|0,0:0|1:2,0:0:0:0:
35,8,3269,2,0,P|35:49|50:82,1,72,10|0,0:0|0:0,0:0:0:0:
245,181,3611,6,0,P|293:158|346:148,1,108,6|0,1:2|0:0,0:0:0:0:
346,148,3954,1,10,0:0:0:0:
479,189,4126,1,8,0:0:0:0:
446,73,4297,1,2,0:0:0:0:
390,231,4469,1,2,1:2:0:0:
447,59,4640,1,8,0:0:0:0:
278,29,4811,2,0,P|282:47|286:63,1,36,2|0,1:2|1:2,0:0:0:0:
245,181,4983,5,6,1:2:0:0:
222,147,5069,1,0,0:0:0:0:
174,138,5154,1,0,0:2:0:0:
140,176,5240,1,0,0:0:0:0:
152,224,5326,1,0,1:2:0:0:
128,268,5411,1,0,1:2:0:0:
80,284,5497,1,0,1:2:0:0:
32,264,5583,1,0,1:2:0:0:
24,220,5669,2,0,P|36:176|46:132,1,90,0|6,1:2|1:2,0:0:0:0:
348,5,6354,6,0,B|396:82|362:160|298:196|192:171|154:53|262:25|291:69,1,377.999988464356,6|0,0:2|0:0,0:0:0:0:
468,64,7726,2,0,P|282:99|101:152,1,377.999988464356,2|2,0:2|0:2,0:0:0:0:
101,152,9097,6,0,P|160:173|222:183,1,125.999996154785,2|2,0:2|0:0,0:0:0:0:
256,48,9783,2,0,P|196:26|134:16,1,125.999996154785,2|2,0:2|0:0,0:0:0:0:
256,304,10469,6,0,P|344:271|437:256,1,188.999994232178,2|0,0:2|0:0,0:0:0:0:
496,182,11154,5,0,1:2:0:0:
473,153,11240,1,0,1:2:0:0:
469,119,11326,1,0,1:2:0:0:
496,90,11411,1,0,1:2:0:0:
507,52,11497,1,0,1:2:0:0:
491,16,11583,1,0,1:2:0:0:
445,3,11669,1,0,1:2:0:0:
410,16,11754,1,0,1:2:0:0:
392,55,11840,1,6,1:2:0:0:
392,55,12183,6,0,P|347:47|304:33,1,90,8|2,0:0|0:0,0:0:0:0:
148,209,12526,1,2,1:2:0:0:
263,152,12697,1,0,0:0:0:0:
263,152,12783,1,0,0:0:0:0:
263,152,12869,1,8,0:2:0:0:
323,267,13040,1,2,0:0:0:0:
206,320,13211,5,6,1:0:0:0:
359,175,13383,1,2,1:2:0:0:
152,113,13554,1,2,0:0:0:0:
237,226,13726,1,6,1:0:0:0:
330,72,13897,6,0,P|326:43|320:24,3,45,0|0|8|8,0:0|0:0|0:3|0:3,0:0:0:0:
460,83,14240,6,0,P|438:90|421:104,1,45,8|0,0:3|0:0,0:0:0:0:
237,226,14411,5,4,0:3:0:0:
237,226,14497,1,4,0:3:0:0:
237,226,14583,2,0,P|305:233|356:301,1,107.999996704102,6|0,1:0|0:0,0:0:0:0:
355,128,14840,2,0,P|395:163|410:214,1,107.999996704102,8|0,0:3|0:0,0:0:0:0:
512,196,15097,2,0,P|503:230|473:251,1,53.9999983520508,4|0,0:3|0:0,0:0:0:0:
411,337,15269,5,6,1:0:0:0:
355,128,15526,1,8,0:3:0:0:
254,314,15783,1,4,0:3:0:0:
79,278,15954,6,0,L|131:262,3,53.9999983520508,4|0|0|0,1:2|1:2|1:2|1:2,0:0:0:0:
242,188,16297,2,0,L|190:172,3,53.9999983520508,4|0|0|0,0:3|0:0|0:0|0:0,0:0:0:0:
79,181,16640,2,0,B|43:133|43:133|42:80|80:35,1,161.999995056153
76,38,16983,1,8,0:0:0:0:
319,60,17154,5,0,1:2:0:0:
319,60,17240,1,0,1:2:0:0:
319,60,17326,1,6,1:0:0:0:
110,149,17497,1,2,0:0:0:0:
290,203,17669,1,10,0:0:0:0:
195,25,17840,6,0,B|181:109|225:80|207:158,1,135,2|0,0:0|0:0,0:0:0:0:
187,190,18183,2,0,P|201:239|210:282,1,90,2|8,0:0|0:0,0:0:0:0:
452,223,18526,6,0,P|393:185|288:203,1,180,2|0,0:0|0:0,0:0:0:0:
196,364,19040,1,8,0:0:0:0:
122,255,19211,5,2,0:0:0:0:
122,255,19297,1,2,0:0:0:0:
122,255,19383,2,0,P|179:273|210:277,1,90,2|2,1:2|0:0,0:0:0:0:
343,215,19726,1,10,0:0:0:0:
412,354,19897,1,2,0:0:0:0:
343,215,20069,6,0,P|349:168|363:125,1,90,2|2,1:2|0:0,0:0:0:0:
306,43,20411,1,10,0:0:0:0:
454,93,20583,1,2,0:0:0:0:
253,206,20754,1,2,1:2:0:0:
412,269,20926,2,0,P|471:247|509:239,1,90,2|8,2:0|0:0,0:0:0:0:
228,111,21269,6,0,B|131:91|147:149|26:125,1,180,6|0,0:1|0:0,0:0:0:0:
245,217,21783,1,10,0:1:0:0:
119,299,21954,1,2,0:1:0:0:
119,299,22040,1,0,0:0:0:0:
119,299,22126,2,0,P|133:243|139:204,1,90
260,12,22469,5,8,0:0:0:0:
287,45,22554,1,0,0:0:0:0:
318,59,22640,1,0,0:0:0:0:
352,65,22726,1,0,0:0:0:0:
391,58,22811,2,0,P|397:29|408:9,1,45,6|0,1:0|0:0,0:0:0:0:
512,118,22983,2,0,P|456:130|421:147,1,90,2|2,1:2|0:0,0:0:0:0:
186,243,23326,5,2,1:0:0:0:
456,340,23669,1,2,1:0:0:0:
356,64,24011,6,0,P|344:136|328:216,1,135,6|0,1:0|0:0,0:0:0:0:
320,224,24354,1,0,1:2:0:0:
231,366,24526,1,0,3:0:0:0:
214,328,24611,1,0,3:0:0:0:
177,308,24697,1,0,3:0:0:0:
134,305,24783,1,0,3:0:0:0:
93,321,24869,2,0,P|84:288|75:274,1,45,6|0,1:0|0:0,0:0:0:0:
244,104,25040,1,6,1:0:0:0:
4,159,25554,6,0,P|41:167|80:183,1,80.9999975280763,6|0,1:2|0:0,0:0:0:0:
176,28,25897,2,0,P|139:20|100:4,1,80.9999975280763,2|0,1:2|0:0,0:0:0:0:
169,122,26240,6,0,B|252:104|247:138|351:112,1,161.999995056153,2|2,1:2|1:2,0:0:0:0:
329,116,26669,1,0,0:0:0:0:
329,116,26754,1,2,0:0:0:0:
460,23,26926,6,0,P|441:65|429:102,1,80.9999975280763,2|0,1:2|0:0,0:0:0:0:
512,241,27269,2,0,P|485:203|459:174,1,80.9999975280763,2|0,1:2|0:0,0:0:0:0:
374,201,27611,6,0,P|357:280|334:359,1,161.999995056153,2|2,1:2|1:2,0:0:0:0:
334,357,28040,1,0,0:0:0:0:
334,357,28126,1,2,0:0:0:0:
248,304,28297,6,0,P|256:264|268:225,1,80.9999975280763,2|0,1:2|0:0,0:0:0:0:
248,132,28640,2,0,P|208:123|169:112,1,80.9999975280763,2|0,1:2|0:0,0:0:0:0:
24,248,28983,2,0,P|101:224|181:212,1,161.999995056153,2|2,1:2|1:2,0:0:0:0:
181,212,29411,1,0,0:0:0:0:
181,212,29497,1,2,0:0:0:0:
328,160,29669,6,0,P|284:108|296:48,1,121.499996292114,2|0,1:2|0:0,0:0:0:0:
304,44,30011,2,0,P|348:32|384:16,1,80.9999975280763,2|0,1:2|0:0,0:0:0:0:
484,80,30354,2,0,P|440:92|404:108,1,80.9999975280763,2|0,1:2|0:0,0:0:0:0:
328,160,30697,1,2,1:2:0:0:
424,216,30869,5,2,0:0:0:0:
424,216,30954,1,0,0:0:0:0:
424,216,31040,2,0,P|400:296|388:376,2,161.999995056153,2|2|2,1:2|1:2|1:2,0:0:0:0:
328,160,31897,1,0,0:0:0:0:
294,263,32069,2,0,P|251:280|217:294,1,80.9999975280763,2|0,1:2|0:0,0:0:0:0:
108,210,32411,6,0,P|126:135|142:79,1,121.499996292114,2|0,1:2|0:0,0:0:0:0:
133,85,32754,2,0,P|97:96|47:109,1,80.9999975280763,2|0,1:2|0:0,0:0:0:0:
286,186,33097,2,0,P|250:175|200:162,1,80.9999975280763,2|0,1:2|0:0,0:0:0:0:
289,11,33440,2,0,P|276:46|266:97,1,80.9999975280763,2|0,1:2|0:0,0:0:0:0:
439,235,33783,6,0,P|465:165|485:63,1,161.999995056153,2|0,1:2|1:2,0:0:0:0:
483,79,34297,1,2,0:0:0:0:
376,47,34469,2,0,P|350:117|330:219,1,161.999995056153,2|0,1:2|1:2,0:0:0:0:
512,264,34983,5,2,0:0:0:0:
512,264,35069,1,2,0:0:0:0:
512,264,35154,1,2,0:0:0:0:
430,229,35326,1,2,0:0:0:0:
394,316,35497,1,2,0:0:0:0:
320,286,35669,1,2,0:0:0:0:
294,361,35840,1,2,0:0:0:0:
225,315,36011,1,2,0:0:0:0:
187,384,36183,1,2,0:0:0:0:
112,352,36354,1,2,0:0:0:0:
32,384,36526,6,0,P|18:331|0:296,1,90,6|0,1:2|0:0,0:0:0:0:
161,207,36869,2,0,P|175:260|193:295,1,90,10|0,0:0|0:0,0:0:0:0:
66,213,37211,6,0,P|79:130|94:30,1,180,2|10,1:2|0:0,0:0:0:0:
182,128,37726,1,2,0:0:0:0:
343,2,37897,6,0,P|280:19|203:35,1,135,2|0,1:2|0:0,0:0:0:0:
195,39,38240,2,0,P|188:83|181:127,1,90,10|0,0:0|0:0,0:0:0:0:
231,264,38583,2,0,P|282:221|395:223,1,180,2|10,1:2|0:0,0:0:0:0:
512,99,39097,5,2,0:0:0:0:
512,99,39183,1,0,0:0:0:0:
512,99,39269,2,0,L|392:131,1,90,6|0,1:2|0:0,0:0:0:0:
469,283,39611,2,0,L|492:187,1,90,10|0,0:0|0:0,0:0:0:0:
315,36,39954,6,0,B|277:69|277:69|261:131|299:197,1,180,2|10,1:2|0:0,0:0:0:0:
356,113,40469,1,2,0:0:0:0:
183,185,40640,6,0,P|124:167|43:153,1,135,2|0,1:2|0:0,0:0:0:0:
51,153,40983,2,0,P|33:104|24:58,1,90,10|0,0:0|0:0,0:0:0:0:
166,5,41326,2,0,P|184:54|193:100,1,90,2|0,1:2|0:0,0:0:0:0:
299,219,41669,1,10,0:0:0:0:
367,75,41840,5,2,0:0:0:0:
367,75,41926,1,0,0:0:0:0:
367,75,42011,2,0,P|475:97|487:135,1,135,2|0,1:2|0:0,0:0:0:0:
485,120,42354,2,0,P|473:169|462:219,1,90,10|0,0:0|0:0,0:0:0:0:
397,302,42697,1,2,1:2:0:0:
289,256,42869,1,0,0:0:0:0:
262,380,43040,2,0,P|212:362|165:350,1,90,10|0,0:0|0:0,0:0:0:0:
17,203,43383,6,0,P|105:180|189:149,2,180,2|10|2,1:2|0:0|1:2,0:0:0:0:
179,242,44240,1,0,0:0:0:0:
63,367,44411,2,0,P|72:309|85:271,1,90,10|2,0:0|0:0,0:0:0:0:
120,66,44754,6,0,P|156:100|302:94,1,180,6|8,1:2|0:0,0:0:0:0:
446,34,45269,1,0,0:0:0:0:
446,34,45354,1,0,0:0:0:0:
446,34,45440,2,0,P|432:83|423:127,1,90,0|2,1:2|0:0,0:0:0:0:
351,31,45783,1,10,0:0:0:0:
512,183,45954,6,0,B|447:161|400:167|400:167|366:201|330:212,1,180,6|2,1:2|1:2,0:0:0:0:
512,288,46469,1,10,0:0:0:0:
351,371,46640,1,0,1:2:0:0:
415,273,46811,1,2,1:2:0:0:
415,273,46897,1,0,1:2:0:0:
415,273,46983,2,0,L|435:328,1,53.9999983520508,2|0,1:2|1:2,0:0:0:0:
263,374,47154,2,0,L|243:319,1,53.9999983520508,10|0,0:2|0:0,0:0:0:0:
279,189,47326,6,0,P|313:247|328:302,1,107.999996704102,2|8,1:2|0:3,0:0:0:0:
325,285,47669,1,4,0:3:0:0:
504,169,47840,6,0,P|459:104|380:98,1,161.999995056153,8|0,0:0|0:0,0:0:0:0:
436,11,48183,2,0,P|385:55|288:44,1,161.999995056153,6|0,1:0|0:0,0:0:0:0:
294,48,48526,1,8,0:0:0:0:
70,1,48697,6,0,P|89:76|116:185,1,180,6|8,1:2|0:3,0:0:0:0:
193,118,49211,1,10,0:0:0:0:
65,270,49383,1,4,0:3:0:0:
275,316,49554,5,2,1:2:0:0:
141,204,49726,1,8,0:3:0:0:
141,204,49811,1,0,0:0:0:0:
141,204,49897,1,8,0:0:0:0:
313,145,50069,1,4,0:3:0:0:
275,316,50240,6,0,P|267:294|259:273,1,45,8|0,0:3|0:0,0:0:0:0:
229,190,50411,1,4,0:3:0:0:
489,0,50583,6,0,P|424:46|344:44,1,161.999995056153,8|0,0:0|0:0,0:0:0:0:
407,117,50926,2,0,P|337:68|251:75,1,161.999995056153,6|0,1:0|0:0,0:0:0:0:
263,70,51269,1,0,0:0:0:0:
76,123,51440,6,0,P|99:209|122:303,1,180,6|2,1:2|1:2,0:0:0:0:
206,194,51954,1,10,0:0:0:0:
72,372,52126,5,0,1:2:0:0:
72,372,52211,1,0,1:2:0:0:
72,372,52297,2,0,L|142:389,1,45,8|8,0:3|0:3,0:0:0:0:
240,276,52469,1,4,0:3:0:0:
48,224,52640,1,10,0:0:0:0:
168,120,52811,5,0,1:2:0:0:
168,120,52897,1,0,1:2:0:0:
168,120,52983,2,0,B|119:151|119:151|108:213|161:264,1,180,2|10,1:2|0:0,0:0:0:0:
286,210,53497,1,2,0:0:0:0:
276,384,53669,2,0,P|255:327|239:294,1,90,2|2,1:2|0:0,0:0:0:0:
363,135,54011,1,10,0:0:0:0:
512,253,54183,5,2,0:0:0:0:
512,253,54269,1,0,0:0:0:0:
512,253,54354,2,0,B|459:292|459:292|403:284|345:243,1,180,2|10,1:2|0:0,0:0:0:0:
176,158,54869,1,2,0:0:0:0:
318,80,55040,6,0,P|296:132|280:182,1,90,2|2,1:2|0:0,0:0:0:0:
276,332,55383,1,10,0:0:0:0:
46,273,55554,5,2,0:0:0:0:
46,273,55640,1,0,0:0:0:0:
46,273,55726,2,0,B|97:258|139:242|139:242|164:262|221:268,1,180,6|8,1:2|0:0,0:0:0:0:
366,221,56240,1,2,0:0:0:0:
314,346,56411,1,2,1:2:0:0:
274,183,56583,1,0,0:0:0:0:
423,295,56754,6,0,P|470:277|516:262,1,90,8|2,0:0|0:0,0:0:0:0:
274,183,57097,6,0,P|302:119|313:33,1,135,2|0,1:2|0:0,0:0:0:0:
312,55,57440,2,0,P|357:34|406:27,1,90,2|0,1:2|0:0,0:0:0:0:
472,112,57783,2,0,P|431:131|387:139,1,90,2|0,1:2|0:0,0:0:0:0:
208,80,58126,1,2,1:2:0:0:
274,183,58297,5,0,1:2:0:0:
274,183,58383,1,0,0:0:0:0:
274,183,58469,2,0,B|242:295|242:295|274:317|288:365,2,175.499991966248,6|8|4,1:0|0:3|0:3,0:0:0:0:
458,236,59154,6,0,P|391:253|341:272,1,116.999994644165,6|0,1:0|0:0,0:0:0:0:
186,112,59411,2,0,P|253:95|303:76,1,116.999994644165,8|0,0:3|0:0,0:0:0:0:
297,78,59669,1,4,0:3:0:0:
371,137,59840,6,0,P|362:157|356:179,3,45,6|2|2|2,1:2|0:0|0:0|0:0,0:0:0:0:
256,276,60183,2,0,P|261:297|270:318,3,45,2|2|2|2,0:0|0:0|0:0|0:0,0:0:0:0:
207,191,60526,5,2,0:0:0:0:
193,197,60611,1,2,0:0:0:0:
184,202,60697,1,2,0:0:0:0:
173,208,60783,1,2,0:0:0:0:
151,243,60869,5,6,1:2:0:0:
117,211,60954,1,2,0:0:0:0:
75,205,61041,1,2,0:0:0:0:
31,215,61126,1,2,0:0:0:0:
0,244,61211,6,0,B|-19:165|17:90|17:90|63:119,1,198.000006042481,6|8,1:2|0:0,0:0:0:0:
207,191,61726,1,0,0:0:0:0:
248,35,61897,2,0,P|199:61|149:74,1,99.0000030212403,2|2,1:2|0:0,0:0:0:0:
331,162,62240,1,8,0:0:0:0:
172,335,62411,5,0,0:0:0:0:
172,335,62497,1,0,0:0:0:0:
172,335,62583,2,0,P|183:281|207:189,1,148.50000453186,2|0,1:2|0:0,0:0:0:0:
206,190,62926,2,0,P|157:210|107:220,1,99.0000030212403,10|0,0:0|0:0,0:0:0:0:
298,253,63269,1,2,1:2:0:0:
252,92,63440,1,0,0:0:0:0:
305,273,63611,1,10,0:0:0:0:
455,208,63783,5,2,0:0:0:0:
455,208,63869,1,2,0:0:0:0:
455,208,63954,2,0,P|410:157|315:167,1,148.50000453186,2|0,1:2|0:0,0:0:0:0:
302,175,64297,2,0,P|247:161|187:154,1,99.0000030212403,10|0,0:0|0:0,0:0:0:0:
115,205,64640,1,2,1:2:0:0:
266,73,64811,1,0,0:0:0:0:
92,0,64983,2,0,P|110:44|128:98,1,99.0000030212403,10|0,0:0|0:0,0:0:0:0:
18,295,65326,6,0,P|66:354|193:332,1,198.000006042481,2|8,1:2|0:0,0:0:0:0:
263,192,65840,1,2,0:0:0:0:
263,192,65926,1,0,0:0:0:0:
263,192,66011,1,2,1:2:0:0:
112,269,66183,1,2,0:0:0:0:
267,362,66354,1,10,0:0:0:0:
166,201,66526,5,2,0:0:0:0:
166,201,66611,1,0,0:0:0:0:
166,201,66697,2,0,B|151:161|151:161|162:126|162:126|119:83|132:6,1,198.000006042481,6|10,1:2|0:0,0:0:0:0:
263,159,67211,1,0,0:0:0:0:
313,21,67383,2,0,P|266:36|218:49,1,99.0000030212403,2|2,1:2|0:0,0:0:0:0:
334,227,67726,1,10,0:0:0:0:
504,113,67897,5,2,0:0:0:0:
504,113,67983,1,0,0:0:0:0:
504,113,68069,2,0,P|439:69|370:85,1,148.50000453186,2|0,1:2|0:0,0:0:0:0:
308,131,68411,2,0,P|322:180|335:232,1,99.0000030212403,10|0,0:0|0:0,0:0:0:0:
451,281,68754,1,2,1:2:0:0:
350,369,68926,1,0,0:0:0:0:
350,369,69011,1,0,0:0:0:0:
350,369,69097,2,0,P|291:356|249:351,1,99.0000030212403,10|2,0:0|0:0,0:0:0:0:
51,263,69440,6,0,P|106:249|152:234,1,99.0000030212403,2|0,1:2|0:0,0:0:0:0:
146,236,69697,1,0,0:0:0:0:
146,236,69783,1,10,0:0:0:0:
313,164,69954,1,2,0:0:0:0:
160,83,70126,1,2,1:2:0:0:
212,162,70297,1,2,0:0:0:0:
358,43,70469,6,0,P|311:59|263:72,1,99.0000030212403,10|2,0:0|0:0,0:0:0:0:
461,160,70811,5,6,1:2:0:0:
246,248,70983,1,2,1:2:0:0:
408,376,71154,1,10,0:0:0:0:
350,247,71326,5,2,0:0:0:0:
350,247,71411,1,2,0:0:0:0:
350,247,71497,2,0,P|360:179|381:130,1,116.999994644165,6|0,1:0|0:0,0:0:0:0:
197,15,71754,2,0,P|187:83|166:132,1,116.999994644165,2|0,1:1|0:0,0:0:0:0:
259,179,72011,2,0,P|269:143|284:116,1,58.4999973220826,2|0,1:1|0:0,0:0:0:0:
25,202,72183,6,0,B|102:191|91:232|174:214,1,148.50000453186,6|0,1:2|0:0,0:0:0:0:
286,266,72526,2,0,P|208:251|133:340,1,198.000006042481,8|2,0:0|1:2,0:0:0:0:
286,266,73040,1,2,0:0:0:0:
369,372,73211,1,10,0:0:0:0:
414,222,73383,5,0,0:0:0:0:
414,222,73469,1,0,0:0:0:0:
414,222,73554,2,0,P|388:143|375:74,1,148.50000453186,2|0,1:2|0:0,0:0:0:0:
394,53,73897,2,0,P|449:45|499:26,1,99.0000030212403,10|0,0:0|0:0,0:0:0:0:
320,178,74240,1,2,1:2:0:0:
281,34,74411,1,0,0:0:0:0:
150,134,74583,1,10,0:0:0:0:
379,277,74754,5,2,0:0:0:0:
379,277,74840,1,2,0:0:0:0:
379,277,74926,2,0,P|304:288|234:326,1,148.50000453186,2|0,1:2|0:0,0:0:0:0:
240,321,75269,2,0,P|190:315|140:291,1,99.0000030212403,10|0,0:0|0:0,0:0:0:0:
46,207,75611,1,2,1:2:0:0:
103,381,75783,1,0,0:0:0:0:
219,225,75954,1,10,0:0:0:0:
16,112,76126,5,0,0:0:0:0:
16,112,76211,1,0,0:0:0:0:
16,112,76297,2,0,P|95:98|160:64,1,148.50000453186,2|0,1:2|0:0,0:0:0:0:
264,8,76640,2,0,P|250:57|240:105,1,99.0000030212403,8|2,0:0|0:0,0:0:0:0:
442,264,76983,5,2,1:2:0:0:
380,36,77154,1,2,0:0:0:0:
242,230,77326,1,10,0:0:0:0:
509,125,77497,5,2,0:0:0:0:
509,125,77583,1,0,0:0:0:0:
509,125,77669,2,0,B|429:145|429:145|409:174|409:174|322:194,1,198.000006042481,6|10,1:2|0:0,0:0:0:0:
81,136,78183,1,2,0:0:0:0:
248,30,78354,6,0,P|231:82|214:133,1,99.0000030212403,2|0,1:2|0:0,0:0:0:0:
262,328,78697,1,8,0:0:0:0:
65,248,78869,5,2,0:0:0:0:
65,248,78954,1,0,0:0:0:0:
65,248,79040,1,6,1:2:0:0:
308,190,79211,1,8,0:3:0:0:
101,76,79383,1,10,0:0:0:0:
34,359,79554,6,0,P|74:344|145:326,1,99.0000030212403,8|8,0:3|0:0,0:0:0:0:
170,349,79811,1,8,0:0:0:0:
217,348,79897,1,8,0:0:0:0:
243,325,79983,1,8,0:0:0:0:
258,286,80069,2,0,P|250:267|239:233,1,49.5000015106202,8|8,0:0|0:0,0:0:0:0:
281,84,80240,5,8,0:0:0:0:
281,84,80326,1,8,0:0:0:0:
281,84,80411,2,0,P|351:123|360:189,1,116.999994644165,6|0,1:0|0:0,0:0:0:0:
467,21,80669,2,0,P|438:70|449:127,1,116.999994644165,8|0,0:3|0:0,0:0:0:0:
314,234,80926,2,0,P|344:235|371:245,1,58.4999973220826,4|0,0:3|0:0,0:0:0:0:
449,127,81097,5,6,1:0:0:0:
227,252,81354,1,8,0:3:0:0:
438,384,81611,1,4,0:3:0:0:
230,242,81783,6,0,P|215:184|193:142,1,99.0000030212403,2|2,1:3|0:3,0:0:0:0:
390,0,82126,2,0,P|372:85|298:111,1,148.50000453186,8|2,0:0|0:3,0:0:0:0:
322,111,82469,1,2,1:3:0:0:
489,172,82640,1,0,0:0:0:0:
336,307,82811,1,12,0:0:0:0:
457,373,82983,5,0,0:0:0:0:
457,373,83069,1,0,0:0:0:0:
457,373,83154,1,6,1:0:0:0:
384,205,83326,1,2,0:0:0:0:
246,348,83497,1,10,0:0:0:0:
177,196,83669,2,0,P|168:149|154:100,1,90,2|0,0:0|0:0,0:0:0:0:
342,290,84011,2,0,P|351:337|365:386,1,90,2|8,0:0|0:0,0:0:0:0:
119,282,84354,6,0,P|188:237|290:242,1,180,2|0,0:0|0:0,0:0:0:0:
469,159,84869,1,8,0:0:0:0:
339,84,85040,1,2,0:0:0:0:
339,84,85126,1,2,0:0:0:0:
339,84,85211,2,0,P|357:129|371:179,1,90,2|2,1:2|0:0,0:0:0:0:
512,221,85554,1,10,0:0:0:0:
338,310,85726,1,2,0:0:0:0:
466,384,85897,6,0,P|448:324|435:286,1,90,2|2,1:2|0:0,0:0:0:0:
275,213,86240,1,10,0:0:0:0:
231,367,86411,1,2,0:0:0:0:
281,201,86583,1,2,1:2:0:0:
122,247,86754,2,0,P|180:263|217:279,1,90,2|8,2:0|0:0,0:0:0:0:
444,75,87097,6,0,P|385:120|316:114,1,135,2|0,0:1|0:0,0:0:0:0:
304,109,87440,1,0,3:0:0:0:
434,206,87611,1,10,0:1:0:0:
306,302,87783,1,2,0:1:0:0:
306,302,87869,1,0,0:0:0:0:
306,302,87954,2,0,P|321:242|333:209,1,90
229,21,88297,1,8,0:0:0:0:
210,68,88383,1,0,0:0:0:0:
161,96,88469,1,0,0:0:0:0:
110,96,88554,1,0,0:0:0:0:
62,76,88640,5,6,1:0:0:0:
280,168,88811,1,2,1:2:0:0:
95,323,88983,1,2,0:0:0:0:
147,202,89154,1,2,1:0:0:0:
147,202,89497,1,2,1:0:0:0:
147,202,89840,6,0,P|135:135|120:69,1,135,6|0,1:0|0:0,0:0:0:0:
112,48,90183,1,0,1:2:0:0:
343,11,90354,5,0,3:0:0:0:
368,56,90440,1,0,3:0:0:0:
356,104,90526,1,0,3:0:0:0:
324,135,90611,1,0,3:0:0:0:
280,152,90697,2,0,P|254:143|221:138,1,45,6|0,1:0|0:0,0:0:0:0:
45,127,90869,1,6,1:0:0:0:
45,126,91383,6,0,P|57:165|69:204,1,80.9999975280763,6|0,1:2|0:0,0:0:0:0:
153,171,91726,2,0,P|140:132|128:93,1,80.9999975280763,0|0,1:0|0:0,0:0:0:0:
6,301,92069,6,0,P|81:297|159:341,1,161.999995056153,2|2,1:2|1:2,0:0:0:0:
272,222,92583,1,2,0:0:0:0:
272,222,92669,1,2,0:0:0:0:
272,222,92754,2,0,P|231:243|196:249,1,80.9999975280763,2|0,1:2|0:0,0:0:0:0:
230,373,93097,2,0,P|271:352|306:346,1,80.9999975280763,2|0,1:2|0:0,0:0:0:0:
352,264,93440,6,0,P|370:182|397:108,1,161.999995056153,2|2,1:2|1:2,0:0:0:0:
350,37,93954,1,2,0:0:0:0:
464,67,94126,6,0,P|358:89|280:120,2,161.999995056153,2|2|2,1:2|1:2|1:2,0:0:0:0:
350,37,94983,1,0,0:0:0:0:
253,192,95154,1,2,1:2:0:0:
253,192,95240,1,0,0:0:0:0:
253,192,95326,1,2,0:0:0:0:
173,145,95497,6,0,P|183:52|195:12,1,121.499996292114,2|0,1:2|0:0,0:0:0:0:
190,25,95840,2,0,P|136:47|101:55,1,80.9999975280763,2|0,1:2|0:0,0:0:0:0:
96,233,96183,2,0,P|170:208|271:189,1,161.999995056153,2|2,1:2|1:2,0:0:0:0:
252,191,96611,1,0,0:0:0:0:
252,191,96697,1,2,0:0:0:0:
337,155,96869,6,0,P|364:76|377:-3,2,161.999995056153,2|2|2,1:2|1:2|1:2,0:0:0:0:
377,250,97726,1,0,0:0:0:0:
500,157,97897,2,0,P|445:169|414:181,1,80.9999975280763,2|0,1:2|0:0,0:0:0:0:
167,355,98240,6,0,P|238:365|293:391,1,121.499996292114,2|0,1:2|0:0,0:0:0:0:
283,384,98583,2,0,P|305:331|307:296,1,80.9999975280763,2|0,1:2|0:0,0:0:0:0:
250,189,98926,2,0,P|228:242|226:277,1,80.9999975280763,2|0,1:2|0:0,0:0:0:0:
415,197,99269,1,2,1:2:0:0:
488,267,99440,5,0,0:0:0:0:
488,267,99525,1,0,0:0:0:0:
488,267,99611,2,0,P|416:249|328:236,1,161.999995056153,2|0,1:2|1:2,0:0:0:0:
176,80,100126,1,2,0:0:0:0:
122,157,100297,2,0,P|191:169|266:87,1,161.999995056153,2|0,1:2|1:2,0:0:0:0:
380,19,100811,5,2,0:0:0:0:
380,19,100897,1,2,0:0:0:0:
380,19,100983,1,2,0:0:0:0:
448,51,101154,1,2,0:0:0:0:
406,120,101326,1,2,0:0:0:0:
478,164,101497,1,2,0:0:0:0:
424,228,101669,1,2,0:0:0:0:
498,273,101840,1,2,0:0:0:0:
434,332,102011,1,2,0:0:0:0:
512,368,102183,1,2,0:0:0:0:
424,228,102354,6,0,B|362:235|354:260|293:257,1,135,6|0,1:2|0:0,0:0:0:0:
258,249,102697,2,0,L|279:157,1,90,10|0,0:0|0:0,0:0:0:0:
35,57,103040,2,0,P|93:82|133:77,1,90,2|0,1:2|0:0,0:0:0:0:
186,3,103383,1,10,0:0:0:0:
66,161,103554,5,2,0:0:0:0:
66,161,103640,1,0,0:0:0:0:
66,161,103726,2,0,P|120:133|198:132,1,135,2|0,1:2|0:0,0:0:0:0:
202,138,104069,2,0,P|189:184|181:227,1,90,10|0,0:0|0:0,0:0:0:0:
330,99,104411,2,0,P|338:54|350:11,1,90,2|0,1:2|0:0,0:0:0:0:
470,203,104754,1,10,0:0:0:0:
502,121,104926,5,2,0:0:0:0:
502,121,105011,1,0,0:0:0:0:
502,121,105097,2,0,P|413:140|381:203,1,135,6|0,1:2|0:0,0:0:0:0:
384,180,105440,2,0,P|352:206|294:205,1,90,10|0,0:0|0:0,0:0:0:0:
174,135,105783,1,2,1:2:0:0:
265,91,105954,1,0,0:0:0:0:
286,0,106126,1,10,0:0:0:0:
189,45,106297,1,2,0:0:0:0:
243,201,106469,6,0,P|291:188|340:178,1,90,2|0,1:2|0:0,0:0:0:0:
174,135,106811,2,0,P|126:148|77:158,1,90,10|0,0:0|0:0,0:0:0:0:
214,300,107154,2,0,P|310:274|408:254,1,180,2|10,1:2|0:0,0:0:0:0:
465,308,107669,5,2,0:0:0:0:
465,308,107754,1,0,0:0:0:0:
465,308,107840,2,0,P|482:256|491:218,1,90,2|0,1:2|0:0,0:0:0:0:
355,93,108183,2,0,P|338:145|329:183,1,90,10|0,0:0|0:0,0:0:0:0:
380,363,108526,1,2,1:2:0:0:
331,186,108697,1,0,0:0:0:0:
214,344,108869,1,10,0:0:0:0:
399,267,109040,5,0,0:0:0:0:
399,267,109126,1,0,0:0:0:0:
399,267,109211,2,0,L|305:294,1,90,2|0,1:2|0:0,0:0:0:0:
56,234,109554,2,0,L|142:209,1,90,10|0,0:0|0:0,0:0:0:0:
214,148,109897,5,2,1:2:0:0:
153,293,110069,1,0,0:0:0:0:
269,384,110240,1,10,0:0:0:0:
327,246,110411,1,2,0:0:0:0:
327,246,110497,1,0,0:0:0:0:
327,246,110583,2,0,B|357:136|397:209|419:96,2,180,6|8|0,1:2|0:0|1:2,0:0:0:0:
420,247,111440,1,2,0:0:0:0:
248,174,111611,1,10,0:0:0:0:
152,337,111783,6,0,B|99:333|65:359|65:359|8:340|42:280,1,180,6|2,1:2|1:2,0:0:0:0:
246,364,112297,1,10,0:0:0:0:
146,239,112469,1,0,1:2:0:0:
357,210,112640,5,2,1:2:0:0:
344,246,112726,1,0,1:2:0:0:
314,264,112811,1,2,1:2:0:0:
272,268,112897,1,0,1:2:0:0:
238,251,112983,6,0,P|243:223|251:197,1,53.9999983520508,10|0,0:2|0:0,0:0:0:0:
197,65,113154,2,0,P|192:93|184:119,1,53.9999983520508,2|0,1:2|0:0,0:0:0:0:
101,155,113326,1,8,0:3:0:0:
101,155,113497,1,4,0:3:0:0:
246,364,113669,6,0,P|309:319|398:325,1,161.999995056153,8|0,0:0|0:0,0:0:0:0:
352,230,114011,2,0,P|420:280|512:254,1,161.999995056153,6|0,1:0|0:0,0:0:0:0:
492,268,114354,1,8,0:0:0:0:
463,45,114526,6,0,B|435:71|404:91|404:91|419:130|437:196,1,180,6|8,1:2|0:3,0:0:0:0:
259,376,115040,2,0,L|280:280,1,90,10|4,0:0|0:3,0:0:0:0:
223,136,115383,5,0,1:2:0:0:
364,258,115554,1,8,0:3:0:0:
184,341,115726,2,0,P|168:293|149:251,1,90,8|4,0:0|0:3,0:0:0:0:
282,210,116069,1,8,0:3:0:0:
282,210,116240,1,4,0:3:0:0:
23,61,116411,6,0,P|96:103|176:78,1,161.999995056153,8|0,0:0|0:0,0:0:0:0:
264,58,116754,2,0,P|197:98|187:176,1,161.999995056153,6|0,1:0|0:0,0:0:0:0:
187,176,117097,1,0,0:0:0:0:
337,364,117269,6,0,B|364:322|435:338|435:338|455:370|494:379,1,180,6|2,1:2|1:2,0:0:0:0:
339,245,117783,1,10,0:0:0:0:
490,186,117954,5,0,1:2:0:0:
500,220,118040,1,0,1:2:0:0:
485,251,118126,1,8,0:3:0:0:
457,265,118211,1,8,0:3:0:0:
425,258,118297,1,4,0:3:0:0:
260,141,118469,6,0,P|267:174|246:206,1,45,10|0,0:0|0:0,0:0:0:0:
205,350,118640,5,0,1:2:0:0:
205,350,118726,1,0,1:2:0:0:
205,350,118811,2,0,P|195:295|180:257,1,90,2|2,1:2|0:0,0:0:0:0:
343,90,119154,2,0,P|357:132|365:176,1,90,10|2,0:0|0:0,0:0:0:0:
310,303,119497,1,2,1:2:0:0:
114,195,119669,6,0,L|159:183,1,45,2|2,0:0|0:0,0:0:0:0:
254,226,119840,2,0,L|299:214,1,45,10|0,0:0|0:0,0:0:0:0:
425,258,120011,1,2,0:0:0:0:
459,142,120183,6,0,P|410:161|375:173,1,90,2|2,1:2|0:0,0:0:0:0:
309,377,120526,2,0,P|321:325|332:282,1,90,10|2,0:0|0:0,0:0:0:0:
111,185,120869,6,0,P|130:237|141:287,1,90,2|2,1:2|0:0,0:0:0:0:
222,177,121211,1,10,0:0:0:0:
79,351,121383,5,2,0:0:0:0:
79,351,121469,1,0,0:0:0:0:
79,351,121554,2,0,B|124:338|142:294|142:294|189:326|249:315,1,180,6|8,1:2|0:0,0:0:0:0:
397,175,122069,1,2,0:0:0:0:
346,361,122240,2,0,P|332:316|325:271,1,90,2|0,1:2|0:0,0:0:0:0:
508,167,122583,1,8,0:0:0:0:
249,136,122754,5,2,0:0:0:0:
249,136,122840,1,2,0:0:0:0:
249,136,122926,2,0,P|305:183|376:168,1,135,2|0,1:2|0:0,0:0:0:0:
397,175,123269,2,0,P|413:111|425:80,1,90,2|0,1:2|0:0,0:0:0:0:
294,212,123611,2,0,P|279:254|269:298,1,90,2|0,1:2|0:0,0:0:0:0:
166,108,123954,1,2,1:2:0:0:
24,212,124126,5,0,1:2:0:0:
24,212,124211,1,0,0:0:0:0:
24,212,124297,2,0,B|77:183|135:180|135:180|167:200|211:198,2,175.499991966248,6|8|4,1:0|0:3|0:3,0:0:0:0:
89,380,124983,6,0,P|108:317|109:261,1,116.999994644165,6|0,1:0|0:0,0:0:0:0:
307,139,125240,2,0,P|288:202|287:258,1,116.999994644165,8|0,0:3|0:0,0:0:0:0:
228,355,125497,2,0,P|220:326|210:299,1,58.4999973220826,4|0,0:3|0:0,0:0:0:0:
190,197,125669,6,0,L|204:144,3,45,6|2|2|2,1:2|0:0|0:0|0:0,0:0:0:0:
131,31,126011,2,0,L|142:76,3,45,2|2|2|2,0:0|0:0|0:0|0:0,0:0:0:0:
307,100,126354,5,2,0:0:0:0:
324,96,126440,1,0,0:0:0:0:
340,92,126526,1,0,0:0:0:0:
360,87,126611,1,0,0:0:0:0:
351,60,126697,5,6,1:2:0:0:
338,106,126783,1,2,0:0:0:0:
338,159,126869,1,2,0:0:0:0:
368,204,126954,1,2,0:0:0:0:
419,238,127040,2,0,P|464:217|512:205,1,99.0000030212403,6|0,1:2|0:0,0:0:0:0:
427,137,127383,1,8,0:0:0:0:
428,348,127554,5,0,0:0:0:0:
428,348,127640,1,0,0:0:0:0:
428,348,127726,2,0,B|366:316|306:322|306:322|281:349|238:367,1,198.000006042481,2|8,1:2|0:0,0:0:0:0:
46,279,128240,1,0,0:0:0:0:
182,137,128411,6,0,B|181:233|134:201|132:289,1,148.50000453186,2|0,1:2|0:0,0:0:0:0:
135,281,128754,2,0,P|155:332|163:377,1,99.0000030212403,10|0,0:0|0:0,0:0:0:0:
243,261,129097,1,2,1:2:0:0:
76,188,129269,1,0,0:0:0:0:
243,261,129440,1,10,0:0:0:0:
19,91,129611,5,2,0:0:0:0:
19,91,129697,1,2,0:0:0:0:
19,91,129783,2,0,P|108:69|184:26,1,148.50000453186,2|0,1:2|0:0,0:0:0:0:
252,15,130126,2,0,P|241:63|231:114,1,99.0000030212403,10|2,0:0|0:0,0:0:0:0:
383,210,130469,1,2,1:2:0:0:
320,83,130640,1,0,0:0:0:0:
390,230,130811,1,10,0:0:0:0:
512,24,130983,5,0,0:0:0:0:
512,24,131069,1,0,0:0:0:0:
512,24,131154,2,0,P|414:53|424:141,1,198.000006042481,2|8,1:2|0:0,0:0:0:0:
504,270,131669,1,2,0:0:0:0:
327,384,131840,5,2,1:2:0:0:
420,229,132011,1,2,0:0:0:0:
224,173,132183,1,10,0:0:0:0:
374,295,132354,5,2,0:0:0:0:
374,295,132440,1,2,0:0:0:0:
374,295,132526,2,0,B|267:271|293:345|180:320,1,198.000006042481,6|10,1:2|0:0,0:0:0:0:
41,209,133040,1,0,0:0:0:0:
237,158,133211,5,2,1:2:0:0:
54,87,133383,1,2,0:0:0:0:
168,256,133554,1,10,0:0:0:0:
266,41,133726,5,2,0:0:0:0:
266,41,133811,1,0,0:0:0:0:
266,41,133897,2,0,P|198:57|161:70,1,99.0000030212403,2|0,1:2|0:0,0:0:0:0:
329,244,134240,2,0,P|340:195|361:151,1,99.0000030212403,10|0,0:0|0:0,0:0:0:0:
129,0,134583,2,0,P|108:96|66:185,1,198.000006042481,2|10,1:2|0:0,0:0:0:0:
229,318,135097,1,2,0:0:0:0:
60,284,135269,5,2,1:2:0:0:
208,217,135440,1,0,0:0:0:0:
157,84,135611,1,10,0:0:0:0:
7,136,135783,1,2,0:0:0:0:
142,274,135954,5,2,1:2:0:0:
233,130,136126,1,2,0:0:0:0:
356,216,136297,1,10,0:0:0:0:
310,353,136469,5,2,0:0:0:0:
310,353,136554,1,0,0:0:0:0:
310,353,136640,2,0,P|306:322|298:293,1,49.5000015106202,6|0,1:2|0:0,0:0:0:0:
478,131,136811,2,0,P|482:162|490:191,1,49.5000015106202,2|0,1:2|0:0,0:0:0:0:
235,243,136983,1,10,0:0:0:0:
408,384,137154,5,2,0:0:0:0:
408,384,137240,1,2,0:0:0:0:
408,384,137326,2,0,P|426:303|445:264,1,116.999994644165,6|0,1:0|0:0,0:0:0:0:
267,131,137583,2,0,P|249:212|230:251,1,116.999994644165,2|0,1:1|0:0,0:0:0:0:
320,308,137840,2,0,P|329:280|339:252,1,58.4999973220826,2|0,1:1|0:0,0:0:0:0:
512,69,138011,6,0,P|459:119|378:110,1,148.50000453186,6|0,1:2|0:0,0:0:0:0:
365,102,138354,2,0,P|309:115|263:132,1,99.0000030212403,8|2,0:0|0:0,0:0:0:0:
97,61,138697,1,2,1:2:0:0:
269,129,138869,1,2,0:0:0:0:
119,229,139040,1,10,0:0:0:0:
209,45,139211,5,0,0:0:0:0:
209,45,139297,1,0,0:0:0:0:
209,45,139383,2,0,P|188:96|178:143,1,99.0000030212403,2|0,1:2|0:0,0:0:0:0:
27,298,139726,2,0,P|81:313|121:340,1,99.0000030212403,10|0,0:0|0:0,0:0:0:0:
331,199,140069,6,0,P|258:211|212:279,1,148.50000453186,2|0,1:2|0:0,0:0:0:0:
212,289,140411,2,0,P|230:337|244:392,1,99.0000030212403,10|2,0:0|0:0,0:0:0:0:
416,204,140754,5,2,1:2:0:0:
481,339,140926,1,0,0:0:0:0:
303,287,141097,1,10,0:0:0:0:
438,177,141269,1,0,0:0:0:0:
438,177,141354,1,0,0:0:0:0:
438,177,141440,2,0,P|427:120|413:80,1,99.0000030212403,2|0,1:2|0:0,0:0:0:0:
194,262,141783,2,0,P|205:319|219:359,1,99.0000030212403,10|0,0:0|0:0,0:0:0:0:
339,146,142126,6,0,B|231:112|252:179|138:138,1,198.000006042481,2|8,1:2|0:0,0:0:0:0:
219,54,142640,1,2,0:0:0:0:
31,117,142811,6,0,P|50:170|61:213,1,99.0000030212403,2|2,1:2|0:0,0:0:0:0:
221,351,143154,1,10,0:0:0:0:
0,332,143326,5,2,0:0:0:0:
0,332,143411,1,0,0:0:0:0:
0,332,143497,2,0,P|51:266|171:269,1,198.000006042481,6|10,1:2|0:0,0:0:0:0:
361,191,144011,1,2,0:0:0:0:
422,271,144183,2,0,P|357:288|279:235,1,148.50000453186,2|0,1:2|0:0,0:0:0:0:
282,233,144526,2,0,P|272:199|261:174,1,49.5000015106202,8|0,0:0|0:0,0:0:0:0:
395,87,144697,5,2,0:0:0:0:
395,87,144783,1,0,0:0:0:0:
395,87,144869,1,6,1:2:0:0:
198,4,145040,1,8,0:3:0:0:
361,191,145211,1,10,0:0:0:0:
512,43,145383,6,0,P|468:57|414:68,1,99.0000030212403,8|8,0:3|0:0,0:0:0:0:
395,87,145640,1,8,0:0:0:0:
395,87,145726,2,0,P|366:79|334:75,1,49.5000015106202,8|8,0:0|0:0,0:0:0:0:
208,210,145897,5,8,0:0:0:0:
166,222,145983,1,8,0:0:0:0:
121,207,146069,1,8,0:0:0:0:
99,171,146154,1,8,0:0:0:0:
96,127,146240,2,0,P|109:77|121:7,1,116.999994644165,6|0,1:0|0:0,0:0:0:0:
339,45,146497,2,0,P|326:95|314:165,1,116.999994644165,8|0,0:3|0:0,0:0:0:0:
185,107,146754,2,0,P|223:95|248:84,1,58.4999973220826,4|0,0:3|0:0,0:0:0:0:
423,8,146926,5,6,1:0:0:0:
361,250,147183,1,8,0:3:0:0:
185,107,147440,1,4,0:3:0:0:
475,141,147611,6,0,P|418:157|375:178,1,99.0000030212403,2|2,1:3|0:3,0:0:0:0:
275,384,147954,2,0,P|223:358|123:336,1,148.50000453186,8|2,0:0|0:3,0:0:0:0:
135,337,148297,1,2,1:3:0:0:
282,253,148469,1,0,0:0:0:0:
177,199,148640,2,0,P|187:232|193:256,1,49.5000015106202,8|8,0:0|0:0,0:0:0:0:
384,384,148811,5,8,0:0:0:0:
384,384,148897,1,8,0:0:0:0:
384,384,148983,2,0,B|379:348|379:348|391:318|391:318|364:272|373:204,1,180,6|8,1:2|0:0,0:0:0:0:
512,104,149497,1,0,0:0:0:0:
512,104,149583,1,0,0:0:0:0:
512,104,149669,2,0,L|411:133,1,90,0|2,1:2|0:0,0:0:0:0:
269,37,150011,1,10,0:0:0:0:
425,128,150183,1,2,0:0:0:0:
282,253,150354,6,0,P|299:187|320:123,1,135,0|0,1:2|0:0,0:0:0:0:
320,123,150697,2,0,P|273:144|219:156,1,90,10|0,0:0|0:0,0:0:0:0:
29,78,151040,1,2,1:2:0:0:
235,153,151211,1,0,0:0:0:0:
179,6,151383,1,10,0:0:0:0:
45,182,151554,5,0,0:0:0:0:
45,182,151640,1,0,0:0:0:0:
45,182,151726,2,0,B|73:234|90:309|90:309|79:327|67:356,1,180,2|8,1:2|0:0,0:0:0:0:
182,209,152240,1,0,0:0:0:0:
279,334,152411,2,0,P|222:312|185:303,1,90,0|2,1:2|0:0,0:0:0:0:
348,136,152754,1,10,0:0:0:0:
182,209,152926,1,2,0:0:0:0:
351,266,153097,6,0,P|426:274|491:189,1,180,2|8,1:2|0:0,0:0:0:0:
389,39,153611,1,2,0:0:0:0:
389,39,153697,1,2,0:0:0:0:
389,39,153783,2,0,P|406:100|415:145,1,90,2|2,1:2|0:0,0:0:0:0:
252,229,154126,1,10,0:0:0:0:
303,91,154297,5,2,0:0:0:0:
303,91,154383,1,0,0:0:0:0:
303,91,154469,2,0,B|241:76|199:39|199:39|166:66|151:88,1,180,6|8,1:2|0:0,0:0:0:0:
89,192,154983,1,0,0:0:0:0:
31,112,155154,1,0,1:2:0:0:
196,177,155326,1,2,0:0:0:0:
17,276,155497,1,10,0:0:0:0:
178,355,155669,5,2,0:0:0:0:
178,355,155754,1,0,0:0:0:0:
178,355,155840,2,0,P|159:306|138:260,1,90,2|2,1:2|0:0,0:0:0:0:
382,155,156183,2,0,P|326:219|245:219,1,135,10|0,0:0|0:0,0:0:0:0:
247,215,156526,1,2,1:2:0:0:
410,285,156697,1,0,0:0:0:0:
268,372,156869,1,10,0:0:0:0:
157,189,157040,5,0,0:0:0:0:
157,189,157126,1,0,0:0:0:0:
157,189,157211,2,0,L|197:-4,1,180,2|8,1:2|0:0,0:0:0:0:
68,112,157726,1,0,0:0:0:0:
68,112,157811,1,0,0:0:0:0:
68,112,157897,1,0,1:2:0:0:
255,183,158069,1,2,0:0:0:0:
62,280,158240,1,10,0:0:0:0:
222,352,158411,5,2,0:0:0:0:
222,352,158497,1,0,0:0:0:0:
222,352,158583,2,0,P|215:307|200:265,1,90,6|2,1:2|1:2,0:0:0:0:
369,128,158926,1,8,0:0:0:0:
456,264,159097,5,0,1:2:0:0:
456,264,159183,1,0,1:2:0:0:
456,264,159269,2,0,P|386:280|332:298,1,116.999994644165,2|0,1:0|0:0,0:0:0:0:
98,212,159526,2,0,P|168:196|222:178,1,116.999994644165,2|0,1:0|0:0,0:0:0:0:
271,245,159783,2,0,P|259:280|254:308,1,58.4999973220826,2|0,1:0|0:0,0:0:0:0:
370,176,159954,6,0,L|392:74,1,101.250003862381,6|0,1:2|0:0,0:0:0:0:
452,5,160297,2,0,P|378:70|281:40,1,175.499991966248,8|0,0:0|0:0,0:0:0:0:
241,13,160640,5,2,1:2:0:0:
276,160,160811,1,2,0:0:0:0:
172,283,160983,1,10,0:0:0:0:
16,226,161154,2,0,P|102:199|177:176,1,135,2|0,0:0|0:0,0:0:0:0:
172,176,161497,1,2,0:0:0:0:
263,325,161669,1,10,0:0:0:0:
411,231,161840,1,2,0:0:0:0:
306,128,162011,5,2,1:2:0:0:
186,268,162183,1,0,0:0:0:0:
356,368,162354,1,8,0:0:0:0:
497,205,162526,5,2,0:0:0:0:
497,205,162611,1,2,0:0:0:0:
497,205,162697,2,0,P|447:221|385:236,1,90,2|2,1:2|0:0,0:0:0:0:
312,161,163040,1,10,0:0:0:0:
280,308,163211,1,2,0:2:0:0:
143,178,163383,1,2,1:2:0:0:
201,380,163554,1,0,0:0:0:0:
36,291,163726,1,8,0:0:0:0:
244,149,163897,5,0,0:0:0:0:
244,149,163983,1,0,0:0:0:0:
244,149,164069,2,0,P|230:197|220:239,1,90,2|0,1:0|0:0,0:0:0:0:
143,178,164411,1,8,0:0:0:0:
233,347,164583,1,0,0:0:0:0:
344,249,164754,2,0,L|281:272,2,45,0|0|0,1:2|0:0|0:0,0:0:0:0:
459,157,165097,5,0,1:2:0:0:
488,120,165183,1,0,0:0:0:0:
491,76,165269,1,2,0:0:0:0:
464,37,165354,1,2,0:0:0:0:
419,24,165440,6,0,B|378:32|352:52|352:52|307:58|245:37,1,180,2|8,1:2|0:0,0:0:0:0:
155,218,165954,1,2,0:0:0:0:
43,7,166126,6,0,P|29:55|15:104,1,90,2|0,1:2|0:0,0:0:0:0:
253,185,166469,2,0,P|197:133|110:137,1,135,10|0,0:0|0:0,0:0:0:0:
106,144,166811,1,2,1:2:0:0:
232,272,166983,1,0,0:0:0:0:
309,110,167154,2,0,P|295:66|285:23,1,90,10|0,0:0|0:0,0:0:0:0:
285,23,167411,1,0,0:0:0:0:
285,23,167497,1,2,1:2:0:0:
253,185,167669,1,0,0:0:0:0:
396,132,167840,2,0,P|344:121|304:108,1,90,10|0,0:0|0:0,0:0:0:0:
73,249,168183,6,0,P|150:244|220:324,2,175.499991966248,6|8|4,1:0|0:3|0:3,0:0:0:0:
119,338,168869,5,6,1:0:0:0:
254,180,169126,1,8,0:3:0:0:
188,27,169383,1,4,0:3:0:0:
63,152,169554,6,0,P|125:138|185:118,1,125.999996154785,6|0,1:0|0:0,0:0:0:0:
375,146,169811,2,0,P|313:159|253:179,1,125.999996154785,8|0,0:3|0:0,0:0:0:0:
147,237,170069,2,0,P|139:268|129:298,1,62.9999980773926,4|0,0:3|0:0,0:0:0:0:
200,384,170240,6,0,P|216:316|236:260,1,125.999996154785,6|0,1:0|0:0,0:0:0:0:
63,152,170497,2,0,P|47:220|27:276,1,125.999996154785,8|0,0:3|0:0,0:0:0:0:
112,358,170754,2,0,P|119:327|129:297,1,62.9999980773926,4|0,0:3|0:0,0:0:0:0:
252,184,170926,5,6,1:0:0:0:
256,192,171011,12,0,171954,0:0:0:0:
342,10,172297,5,0,3:0:0:0:
366,200,172469,1,0,3:0:0:0:
188,148,172640,1,0,3:0:0:0:
305,95,172811,6,0,P|299:123|290:151,1,58.4999973220826,0|0,3:0|3:0,0:0:0:0:
366,200,172983,2,0,P|400:190|426:178,3,58.4999973220826,0|0|2|0,3:0|0:0|0:0|0:0,0:0:0:0:
323,293,173326,5,12,0:0:0:0:
281,281,173411,1,2,0:0:0:0:
241,291,173497,1,2,0:0:0:0:
207,322,173583,1,2,0:0:0:0:
191,365,173669,1,6,0:0:0:0:
256,192,177783,12,0,178983,0:0:0:0:
376,202,179154,6,0,P|401:114|434:21,2,180,6|10|2,1:2|0:0|1:2,0:0:0:0:
305,126,180011,1,2,0:0:0:0:
449,279,180183,2,0,P|398:290|348:311,1,90,8|2,0:0|0:0,0:0:0:0:
362,303,180440,1,0,0:0:0:0:
362,303,180526,1,2,1:2:0:0:
197,251,180697,1,0,0:0:0:0:
256,384,180869,2,0,P|264:336|283:286,1,90,10|0,0:0|0:0,0:0:0:0:
73,120,181211,5,2,1:2:0:0:
126,293,181383,1,2,0:0:0:0:
267,171,181554,1,8,0:0:0:0:
267,171,181897,5,2,1:2:0:0:
161,202,182069,1,2,0:0:0:0:
266,343,182240,2,0,P|254:291|230:251,1,90,10|2,0:0|0:0,0:0:0:0:
371,119,182583,5,2,1:2:0:0:
330,246,182754,1,2,0:0:0:0:
471,300,182926,1,10,0:0:0:0:
508,168,183097,5,2,0:0:0:0:
508,168,183183,1,0,0:0:0:0:
508,168,183269,2,0,P|460:186|401:202,1,90,2|2,1:2|1:2,0:0:0:0:
307,120,183611,1,2,1:2:0:0:
249,298,183783,5,2,0:0:0:0:
249,298,183869,1,2,0:0:0:0:
249,298,183954,1,6,1:0:0:0:
396,112,184211,1,2,1:0:0:0:
144,64,184469,1,2,1:0:0:0:
194,0,184640,6,0,P|225:40|173:149,1,155.250002961159,6|0,1:2|0:0,0:0:0:0:
175,162,184983,2,0,P|123:149|62:138,1,103.500001974106,12|2,0:0|0:0,0:0:0:0:
144,64,185326,1,2,1:2:0:0:
175,253,185497,1,2,0:0:0:0:
307,120,185669,1,10,0:0:0:0:
335,330,185840,5,0,0:0:0:0:
335,330,185926,1,0,0:0:0:0:
335,330,186011,2,0,B|371:320|388:314|388:314|430:321|430:321|456:310|496:300,1,155.250002961159,2|0,1:2|0:0,0:0:0:0:
484,303,186354,2,0,P|497:248|508:200,1,103.500001974106,10|0,0:0|0:0,0:0:0:0:
408,110,186697,1,2,1:2:0:0:
326,249,186869,1,0,0:0:0:0:
248,99,187040,1,10,0:0:0:0:
156,224,187211,5,2,0:0:0:0:
156,224,187297,1,2,0:0:0:0:
156,224,187383,2,0,P|106:240|50:251,1,103.500001974106,2|0,1:2|0:0,0:0:0:0:
192,20,187726,2,0,P|249:39|344:60,1,155.250002961159,10|0,0:0|0:0,0:0:0:0:
341,59,188069,1,2,1:2:0:0:
302,241,188240,1,0,0:0:0:0:
483,140,188411,1,10,0:0:0:0:
381,162,188583,5,0,0:0:0:0:
381,162,188669,1,0,0:0:0:0:
381,162,188754,2,0,P|396:208|412:265,1,103.500001974106,2|0,1:2|0:0,0:0:0:0:
246,373,189097,2,0,P|232:323|216:273,1,103.500001974106,8|2,0:0|0:0,0:0:0:0:
302,101,189440,1,2,1:2:0:0:
141,228,189611,1,2,0:0:0:0:
141,228,189697,1,0,0:0:0:0:
141,228,189783,1,10,0:0:0:0:
320,289,189954,2,0,P|308:254|298:233,1,51.7500009870529,2|0,0:0|0:0,0:0:0:0:
430,39,190126,6,0,P|382:91|275:90,1,155.250002961159,6|2,1:2|0:0,0:0:0:0:
266,85,190469,1,10,0:0:0:0:
221,241,190640,1,2,0:0:0:0:
69,180,190811,2,0,P|120:167|171:146,1,103.500001974106,2|0,1:2|0:0,0:0:0:0:
417,245,191154,1,8,0:0:0:0:
265,73,191326,1,2,0:0:0:0:
490,121,191497,5,6,1:2:0:0:
271,218,191669,1,8,0:3:0:0:
392,27,191840,1,10,0:0:0:0:
467,235,192011,6,0,P|425:242|402:250,1,51.7500009870529,8|0,0:3|0:0,0:0:0:0:
271,218,192183,5,8,0:0:0:0:
262,242,192269,1,8,0:0:0:0:
256,263,192354,1,8,0:0:0:0:
251,281,192440,1,8,0:0:0:0:
267,313,192526,5,8,0:0:0:0:
239,272,192611,1,8,0:0:0:0:
196,263,192697,1,8,0:0:0:0:
146,273,192783,1,8,0:0:0:0:
106,300,192869,6,0,P|86:227|67:175,1,121.500000463486,6|0,1:0|0:0,0:0:0:0:
197,28,193126,2,0,P|217:101|236:154,1,121.500000463486,8|0,0:3|0:0,0:0:0:0:
162,192,193383,2,0,P|152:163|141:131,1,60.7500002317429,4|0,0:3|0:0,0:0:0:0:
291,52,193554,5,6,1:0:0:0:
355,280,193811,1,8,0:3:0:0:
512,92,194069,1,4,0:3:0:0:
372,157,194240,5,2,1:3:0:0:
475,249,194411,1,2,0:3:0:0:
418,369,194583,2,0,P|373:324|263:336,1,175.499991966248,8|2,0:0|0:3,0:0:0:0:
267,332,194926,1,2,1:3:0:0:
134,210,195097,1,0,0:0:0:0:
254,137,195269,2,0,B|267:163|267:163|266:185|251:206,1,67.5000025749208,12|0,0:0|0:0,0:0:0:0:
137,328,195440,5,0,0:0:0:0:
137,328,195526,1,0,0:0:0:0:
137,328,195611,1,6,1:0:0:0:
60,144,195783,1,2,0:0:0:0:
248,212,195954,1,10,0:0:0:0:
48,238,196126,6,0,P|110:219|153:200,1,90,2|0,0:0|0:0,0:0:0:0:
351,346,196469,2,0,P|289:365|246:384,1,90,2|8,0:0|0:0,0:0:0:0:
248,212,196811,2,0,P|301:126|281:46,1,180,2|0,0:0|0:0,0:0:0:0:
163,28,197326,2,0,P|181:81|194:131,1,90,8|2,0:0|0:0,0:0:0:0:
189,113,197583,1,2,0:0:0:0:
189,113,197669,1,2,1:2:0:0:
375,160,197840,1,2,0:0:0:0:
212,298,198011,1,10,0:0:0:0:
338,332,198183,1,2,0:0:0:0:
160,209,198354,6,0,P|118:228|67:243,1,90,2|2,1:2|0:0,0:0:0:0:
262,365,198697,1,10,0:0:0:0:
76,240,198869,1,2,0:0:0:0:
266,156,199040,1,2,1:2:0:0:
156,297,199211,2,0,P|170:340|181:384,1,90,2|8,2:0|0:0,0:0:0:0:
336,230,199554,6,0,B|390:216|445:194|445:194|473:208|516:221,1,180,6|0,0:1|0:0,0:0:0:0:
407,306,200069,1,10,0:1:0:0:
236,260,200240,2,0,P|248:210|257:159,1,90,2|0,0:1|1:0,0:0:0:0:
391,96,200583,1,0,0:0:0:0:
196,20,200754,5,8,0:0:0:0:
207,49,200840,1,0,0:0:0:0:
215,77,200926,1,0,0:0:0:0:
220,106,201011,1,0,0:0:0:0:
225,140,201097,1,6,1:0:0:0:
322,11,201269,1,0,1:2:0:0:
125,100,201440,1,8,0:0:0:0:
282,256,201611,6,0,P|311:247|337:238,1,45,2|0,1:0|0:0,0:0:0:0:
225,140,201954,2,0,P|219:166|213:190,1,45,2|0,1:0|0:0,0:0:0:0:
356,371,202297,5,6,1:0:0:0:
238,267,202469,2,0,P|259:262|281:255,1,45,0|0,3:3|3:3,0:0:0:0:
479,302,202640,2,0,P|457:306|435:313,1,45,0|0,3:3|0:0,0:0:0:0:
306,177,202811,1,0,3:3:0:0:
269,348,202983,5,0,3:2:0:0:
269,348,203069,1,0,3:2:0:0:
269,348,203154,1,6,1:0:0:0:
419,231,203326,1,6,1:0:0:0:
204,139,203497,6,0,L|221:198,1,45,8|0,0:0|0:0,0:0:0:0:
356,290,203669,1,2,0:0:0:0:
256,192,203754,12,0,206583,0:0:0:0:
