osu file format v14

[General]
AudioFilename: audio.mp3
AudioLeadIn: 0
PreviewTime:126869
Countdown: 0
SampleSet: Soft
StackLeniency: 0.7
Mode: 0
LetterboxInBreaks: 0
WidescreenStoryboard: 1

[Editor]
Bookmarks: 868,6354,17326,25554,36526,47497,61211,83154,91383,102354,113326,127040,148983,159954,173669,184640,195611,203669,206583
DistanceSpacing: 0.8
BeatDivisor: 4
GridSize: 32
TimelineZoom: 2

[Metadata]
Title:Mogitate <3 Fruit Girls
TitleUnicode:も・ぎ・た・て♥フルーツガールズ
Artist:Kinoshita Ringo (CV: Tamura Yukari) & Nakazawa Minori (CV: Hanazawa Kana)
ArtistUnicode:木下林檎(CV:田村ゆかり)& 中沢農(CV:花澤香菜)
Creator:Yogurtt
Version:Kyuuteurre's Radish
Source:のうりん
Tags:zekk shizuku- shikibe mayu kazato asa frozz -keqing froskya revialink koldnoodl amateurre kyuuchie gazimal - ex -_ex_- iMage-- meg ending ed nourin no-rin full version ver anime japanese pop jpop j-pop
BeatmapID:3529204
BeatmapSetID:1714748

[Difficulty]
HPDrainRate:7
CircleSize:4
OverallDifficulty:8
ApproachRate:9
SliderMultiplier:1.8
SliderTickRate:1

[Events]
//Background and Video events
0,0,"cropped-1920-1080-846085.jpg",0,0
//Break Periods
2,173868,177183
//Storyboard Layer 0 (Background)
//Storyboard Layer 1 (Fail)
//Storyboard Layer 2 (Pass)
//Storyboard Layer 3 (Foreground)
//Storyboard Layer 4 (Overlay)
//Storyboard Sound Samples

[TimingPoints]
869,342.857142857143,4,2,1,60,1,0
869,-125,4,2,1,60,0,0
3611,-100,4,2,1,60,0,0
4983,-100,4,2,1,70,0,0
6354,-125,4,2,1,70,0,0
11326,-100,4,2,1,70,0,0
17326,-90.9090909090909,4,2,1,70,0,0
25554,-125,4,2,1,50,0,0
34983,-125,4,2,1,30,0,0
36526,-111.111111111111,4,2,1,60,0,0
47840,-111.111111111111,4,2,1,70,0,0
49040,-111.111111111111,4,2,2,70,0,0
50583,-111.111111111111,4,2,1,70,0,0
61211,-90.9090909090908,4,2,2,80,0,0
82811,-90.9090909090908,4,2,0,80,0,0
83154,-90.9090909090908,4,2,1,70,0,0
91383,-125,4,2,1,50,0,0
100811,-125,4,2,1,30,0,0
102354,-111.111111111111,4,2,1,60,0,0
113669,-111.111111111111,4,2,1,70,0,0
114869,-111.111111111111,4,2,2,70,0,0
116411,-111.111111111111,4,2,1,70,0,0
127040,-90.9090909090908,4,2,2,80,0,0
148983,-90.9090909090908,4,2,2,70,0,0
170926,-250,4,2,2,70,0,0
172297,-100,4,2,2,70,0,0
173326,-100,4,2,0,70,0,0
177783,-100,4,2,2,60,0,0
179154,-125,4,2,2,60,0,0
183269,-90.9090909090909,4,2,2,60,0,0
183954,-90.9090909090909,4,2,2,70,0,0
184640,-90.9090909090909,4,2,2,80,0,0
195269,-90.9090909090909,4,2,0,80,0,0
195611,-90.9090909090909,4,2,1,70,0,0
206583,-90.9090909090909,4,2,1,5,0,0

[Colours]
Combo1 : 255,192,0
Combo2 : 226,101,160
Combo3 : 98,215,68
Combo4 : 251,15,21

[HitObjects]
30,314,869,6,0,P|73:304|113:294,1,72,6|0,1:2|0:0,0:0:0:0:
250,252,1211,1,10,0:0:0:0:
118,172,1383,1,8,0:0:0:0:
166,243,1554,1,2,0:0:0:0:
318,201,1726,2,0,P|344:149|338:115,1,72,2|8,1:2|0:0,0:0:0:0:
240,70,2069,6,0,P|258:131|265:163,1,72,2|0,0:0|1:2,0:0:0:0:
172,234,2411,2,0,P|161:190|150:154,1,72,2|8,0:0|0:0,0:0:0:0:
0,48,2754,1,10,0:0:0:0:
156,46,2926,2,0,P|98:75|69:102,1,72,2|0,0:0|1:2,0:0:0:0:
12,204,3269,2,0,P|57:234|104:219,1,72,10|0,0:0|0:0,0:0:0:0:
250,151,3611,6,0,B|324:135|301:192|379:174,1,135,6|0,1:2|0:0,0:0:0:0:
469,128,3954,6,0,P|450:193|437:259,1,135,10|0,0:0|0:0,0:0:0:0:
341,344,4297,5,0,0:0:0:0:
341,344,4469,2,0,P|327:277|314:242,1,90,2|8,0:0|0:0,0:0:0:0:
184,203,4811,5,0,1:0:0:0:
184,203,4897,1,0,1:0:0:0:
184,203,4983,2,0,P|138:194|112:194,1,45,6|0,1:2|0:0,0:0:0:0:
296,121,5154,2,0,P|317:115|340:112,1,45,0|0,0:2|0:0,0:0:0:0:
512,203,5326,5,0,1:2:0:0:
494,231,5411,1,0,1:2:0:0:
466,250,5497,1,0,1:2:0:0:
433,256,5583,1,0,1:2:0:0:
400,248,5669,2,0,L|409:188,3,45,0|0|0|0,1:2|1:0|1:0|1:0,0:0:0:0:
512,344,6011,1,6,1:2:0:0:
400,248,6354,6,0,P|335:248|320:339,2,144,6|0|0,0:2|0:0|0:0,0:0:0:0:
512,145,7211,1,2,0:0:0:0:
512,145,7297,1,2,0:0:0:0:
512,145,7383,1,2,0:0:0:0:
358,120,7554,5,2,0:0:0:0:
358,120,7640,1,2,0:0:0:0:
358,120,7726,2,0,P|323:129|288:137,1,72,2|0,0:2|0:0,0:0:0:0:
400,248,8069,2,0,P|409:213|417:178,1,72,2|0,0:2|0:0,0:0:0:0:
242,13,8411,2,0,P|232:47|224:82,1,72,2|0,0:2|0:0,0:0:0:0:
195,234,8754,2,0,P|230:225|264:216,1,72,2|0,0:2|0:0,0:0:0:0:
116,136,9097,6,0,P|44:136|15:206,1,144,2|2,0:2|0:0,0:0:0:0:
203,241,9611,1,2,0:0:0:0:
203,241,9697,1,2,0:0:0:0:
203,241,9783,2,0,P|222:268|228:306,1,72,2|0,0:2|0:0,0:0:0:0:
134,337,10126,2,0,P|114:309|108:271,1,72,2|0,0:0|0:0,0:0:0:0:
195,153,10469,6,0,P|228:212|297:210,1,144,2|0,0:2|0:0,0:0:0:0:
297,210,11154,1,0,1:2:0:0:
465,146,11326,2,0,P|458:122|451:103,1,45,0|0,1:2|1:2,0:0:0:0:
380,0,11497,2,0,P|372:21|366:42,1,45,0|0,1:2|1:2,0:0:0:0:
286,134,11669,2,0,P|307:126|328:120,1,45,0|0,1:2|1:2,0:0:0:0:
512,219,11840,6,0,P|450:284|358:269,1,180,6|8,1:2|0:0,0:0:0:0:
189,298,12354,1,2,0:0:0:0:
297,210,12526,2,0,P|273:322|277:354,1,135,2|0,1:2|0:0,0:0:0:0:
289,357,12869,1,8,0:2:0:0:
83,234,13040,1,2,0:0:0:0:
197,166,13211,6,0,L|178:229,1,45,6|0,1:2|0:0,0:0:0:0:
129,356,13383,1,2,1:2:0:0:
129,356,13469,1,0,1:0:0:0:
129,356,13554,1,2,1:2:0:0:
242,278,13726,1,6,1:0:0:0:
49,163,13897,1,8,0:3:0:0:
49,163,13983,1,8,0:3:0:0:
49,163,14069,2,0,L|23:97,1,45,8|8,0:3|0:3,0:0:0:0:
208,0,14240,5,8,0:3:0:0:
238,13,14325,1,4,0:3:0:0:
259,39,14411,1,4,0:3:0:0:
265,72,14497,1,4,0:3:0:0:
255,104,14583,2,0,B|217:110|168:129,1,90,6|0,1:0|0:0,0:0:0:0:
23,91,14840,2,0,B|61:85|109:65,1,90,8|0,0:3|0:0,0:0:0:0:
161,141,15097,2,0,P|156:167|153:185,1,45,4|0,0:3|0:0,0:0:0:0:
296,320,15269,6,0,P|284:277|276:232,1,90,6|0,1:0|0:0,0:0:0:0:
90,273,15526,2,0,P|102:316|109:360,1,90,8|0,0:3|0:0,0:0:0:0:
193,314,15783,2,0,P|196:291|201:269,1,45,4|0,0:3|0:0,0:0:0:0:
250,153,15954,5,4,1:2:0:0:
250,153,16040,1,0,1:2:0:0:
250,153,16126,1,0,1:2:0:0:
362,208,16297,1,4,0:3:0:0:
463,50,16469,1,2,0:0:0:0:
463,50,16554,1,2,0:0:0:0:
463,50,16640,2,0,L|476:-14,2,45,2|2|2,0:0|0:0|0:0,0:0:0:0:
512,170,16983,6,0,B|434:165|469:128|388:122,1,135,8|0,0:0|1:2,0:0:0:0:
379,128,17326,5,6,1:0:0:0:
509,255,17497,1,2,0:0:0:0:
312,333,17669,1,10,0:0:0:0:
384,209,17840,2,0,P|405:262|408:305,1,99.0000030212403,2|0,0:0|0:0,0:0:0:0:
230,382,18183,2,0,P|209:329|203:288,1,99.0000030212403,2|8,0:0|0:0,0:0:0:0:
279,115,18526,6,0,P|240:179|104:151,1,198.000006042481,2|0,0:0|0:0,0:0:0:0:
32,56,19040,1,8,0:0:0:0:
182,90,19211,1,2,0:0:0:0:
182,90,19297,1,2,0:0:0:0:
182,89,19383,2,0,P|186:40|195:-8,1,99.0000030212403,2|2,1:2|0:0,0:0:0:0:
33,157,19726,2,0,P|37:206|46:254,1,99.0000030212403,10|2,0:0|0:0,0:0:0:0:
272,268,20069,5,2,1:2:0:0:
55,357,20240,1,2,0:0:0:0:
286,268,20411,1,10,0:0:0:0:
117,196,20583,1,2,0:0:0:0:
233,344,20754,1,2,1:2:0:0:
380,201,20926,2,0,P|394:248|405:296,1,99.0000030212403,2|8,2:0|0:0,0:0:0:0:
219,206,21269,6,0,P|203:101|286:33,1,198.000006042481,6|0,0:1|0:0,0:0:0:0:
482,93,21783,1,10,0:1:0:0:
391,0,21954,1,2,0:1:0:0:
391,0,22040,1,2,0:0:0:0:
391,0,22126,2,0,P|376:61|371:106,1,99.0000030212403
304,249,22469,5,8,0:0:0:0:
328,221,22554,1,2,0:0:0:0:
361,205,22640,1,2,0:0:0:0:
398,204,22726,1,2,0:0:0:0:
432,219,22811,1,6,1:0:0:0:
327,337,22983,1,2,1:2:0:0:
236,169,23154,1,2,0:0:0:0:
411,303,23326,6,0,P|459:321|517:335,1,99.0000030212403,2|0,1:0|0:0,0:0:0:0:
226,288,23669,2,0,P|178:300|131:317,1,99.0000030212403,2|0,1:0|0:0,0:0:0:0:
346,216,24011,6,0,P|379:119|381:18,1,198.000006042481,6|0,1:0|1:2,0:0:0:0:
206,137,24526,2,0,P|183:128|158:121,1,49.5000015106202,0|0,3:0|3:0,0:0:0:0:
259,13,24697,2,0,P|268:36|274:60,1,49.5000015106202,0|0,3:0|3:0,0:0:0:0:
343,133,24869,5,6,1:0:0:0:
127,43,25040,1,6,1:0:0:0:
127,43,25554,6,0,P|118:92|103:185,2,144,6|2|2,1:2|1:2|1:2,0:0:0:0:
218,143,26411,1,0,0:0:0:0:
301,113,26583,1,2,1:2:0:0:
369,206,26754,5,2,0:0:0:0:
369,206,26840,1,2,0:0:0:0:
369,206,26926,2,0,P|413:192|452:187,1,72,2|0,1:2|0:0,0:0:0:0:
499,92,27269,2,0,P|455:106|416:111,1,72,2|0,1:2|0:0,0:0:0:0:
328,284,27611,2,0,P|274:232|287:158,1,144,2|2,1:2|1:2,0:0:0:0:
345,64,28126,1,2,0:0:0:0:
188,11,28297,6,0,P|213:55|214:90,1,72,2|0,1:2|0:0,0:0:0:0:
66,134,28640,2,0,P|41:90|40:55,1,72,2|0,1:2|0:0,0:0:0:0:
134,74,28983,2,0,P|114:172|104:236,1,144,2|2,1:2|1:2,0:0:0:0:
251,300,29497,1,2,0:0:0:0:
144,380,29669,6,0,P|153:338|166:294,1,72,2|0,1:2|0:0,0:0:0:0:
174,190,30011,2,0,P|111:213|87:221,1,72,2|0,1:2|0:0,0:0:0:0:
257,308,30354,2,0,P|306:347|401:311,1,144,2|2,1:2|1:2,0:0:0:0:
472,227,30869,1,2,0:0:0:0:
339,261,31040,1,2,1:2:0:0:
339,261,31383,6,0,P|327:205|317:177,1,72,2|0,1:2|0:0,0:0:0:0:
421,87,31726,2,0,P|410:121|404:156,1,72,2|0,1:2|0:0,0:0:0:0:
241,234,32069,2,0,P|198:219|153:209,1,72,2|0,1:2|0:0,0:0:0:0:
42,158,32411,2,0,P|30:232|104:279,2,144,2|2|2,1:2|1:2|1:2,0:0:0:0:
161,121,33269,1,2,0:0:0:0:
161,121,33354,1,2,0:0:0:0:
161,121,33440,2,0,P|184:83|197:39,1,72,2|0,1:2|0:0,0:0:0:0:
101,61,33783,6,0,P|121:120|143:213,1,144,2|0,1:2|1:2,0:0:0:0:
76,275,34297,1,2,0:0:0:0:
268,148,34469,2,0,P|248:207|226:300,1,144,2|0,1:2|1:2,0:0:0:0:
273,363,34983,5,2,0:0:0:0:
273,363,35069,1,2,0:0:0:0:
273,363,35154,1,2,0:0:0:0:
384,384,35326,5,2,0:0:0:0:
477,338,35497,5,2,0:0:0:0:
503,253,35669,5,2,0:0:0:0:
459,184,35840,5,2,0:0:0:0:
377,194,36011,5,2,0:0:0:0:
359,235,36183,5,2,0:0:0:0:
370,253,36354,5,2,0:0:0:0:
470,172,36526,6,0,P|479:132|492:94,1,80.9999975280763,6|0,1:2|0:0,0:0:0:0:
310,11,36869,2,0,P|323:49|332:88,1,80.9999975280763,10|0,0:0|0:0,0:0:0:0:
370,253,37211,2,0,P|375:212|384:173,1,80.9999975280763,2|0,1:2|0:0,0:0:0:0:
416,54,37554,1,10,0:0:0:0:
299,174,37726,1,2,0:0:0:0:
98,124,37897,6,0,P|59:136|20:147,1,80.9999975280763,2|0,1:2|0:0,0:0:0:0:
198,138,38240,2,0,P|187:98|174:60,1,80.9999975280763,10|0,0:0|0:0,0:0:0:0:
98,212,38583,2,0,P|108:251|121:289,1,80.9999975280763,2|0,1:2|0:0,0:0:0:0:
223,318,38926,1,10,0:0:0:0:
75,384,39097,1,2,0:0:0:0:
244,306,39269,6,0,P|307:310|351:362,1,121.499996292114,6|0,1:2|0:0,0:0:0:0:
355,362,39611,2,0,P|399:355|446:353,1,80.9999975280763,10|0,0:0|0:0,0:0:0:0:
512,257,39954,2,0,P|468:264|421:266,1,80.9999975280763,2|0,1:2|0:0,0:0:0:0:
299,186,40297,1,10,0:0:0:0:
408,108,40469,1,2,0:0:0:0:
321,272,40640,6,0,P|300:236|292:176,1,80.9999975280763,2|0,1:2|0:0,0:0:0:0:
422,23,40983,2,0,P|406:72|399:108,1,80.9999975280763,10|0,0:0|0:0,0:0:0:0:
512,163,41326,2,0,P|470:213|370:189,1,161.999995056153,2|10,1:2|0:0,0:0:0:0:
256,82,41840,1,2,0:0:0:0:
187,209,42011,1,2,1:2:0:0:
187,209,42354,6,0,P|178:248|173:288,1,80.9999975280763,10|0,0:0|0:0,0:0:0:0:
294,184,42697,2,0,P|285:223|280:263,1,80.9999975280763,2|0,1:2|0:0,0:0:0:0:
119,100,43040,2,0,P|110:139|105:179,1,80.9999975280763,10|0,0:0|0:0,0:0:0:0:
0,296,43383,6,0,P|52:281|86:275,1,80.9999975280763,2|0,1:2|0:0,0:0:0:0:
309,370,43726,2,0,P|269:361|230:350,1,80.9999975280763,10|0,0:0|0:0,0:0:0:0:
132,371,44069,1,2,1:2:0:0:
132,371,44154,1,2,0:0:0:0:
132,371,44240,1,2,0:0:0:0:
235,253,44411,2,0,P|246:214|236:175,1,80.9999975280763,10|2,0:0|0:0,0:0:0:0:
145,46,44754,6,0,P|85:91|-9:62,2,161.999995056153,6|8|0,1:2|0:0|1:2,0:0:0:0:
316,116,45611,1,2,0:0:0:0:
141,186,45783,1,10,0:0:0:0:
253,11,45954,2,0,P|233:84|228:108,1,80.9999975280763,6|0,1:2|0:0,0:0:0:0:
281,206,46297,1,2,1:2:0:0:
413,172,46469,1,10,0:0:0:0:
512,259,46640,1,0,1:2:0:0:
300,369,46811,6,0,P|294:348|289:329,1,40.4999987640381,2|0,1:2|1:2,0:0:0:0:
420,164,46983,2,0,P|413:185|409:203,1,40.4999987640381,2|0,1:2|1:2,0:0:0:0:
457,332,47154,1,10,0:2:0:0:
263,207,47326,1,2,1:2:0:0:
362,275,47497,5,8,0:3:0:0:
362,275,47669,1,4,0:3:0:0:
499,116,47840,6,0,P|449:72|369:88,1,121.499996292114,8|0,0:0|0:0,0:0:0:0:
372,93,48183,2,0,P|329:79|294:70,1,80.9999975280763,6|0,1:0|0:0,0:0:0:0:
201,11,48526,1,8,0:0:0:0:
92,208,48697,6,0,B|107:156|107:156|87:117|87:117|109:47,1,161.999995056153,6|8,1:2|0:3,0:0:0:0:
113,40,49126,1,8,0:3:0:0:
113,40,49211,1,10,0:0:0:0:
224,123,49383,2,0,P|195:130|184:132,1,40.4999987640381,4|0,0:3|0:0,0:0:0:0:
0,231,49554,2,0,P|7:202|9:191,1,40.4999987640381,2|0,1:2|0:0,0:0:0:0:
43,113,49726,5,8,0:3:0:0:
196,219,49897,1,8,0:0:0:0:
0,314,50069,1,4,0:3:0:0:
96,212,50240,5,8,0:3:0:0:
96,212,50411,1,4,0:3:0:0:
206,343,50583,6,0,B|284:340|255:378|331:363,1,121.499996292114,8|0,0:0|0:0,0:0:0:0:
339,354,50926,2,0,P|353:303|366:266,1,80.9999975280763,6|0,1:0|0:0,0:0:0:0:
421,217,51269,1,0,0:0:0:0:
346,60,51440,6,0,P|401:7|475:28,1,161.999995056153,6|2,1:2|1:2,0:0:0:0:
366,141,51954,2,0,P|325:146|287:158,1,80.9999975280763,10|0,0:0|1:2,0:0:0:0:
270,149,52211,1,0,1:2:0:0:
270,149,52297,2,0,P|263:129|259:110,1,40.4999987640381,8|8,0:3|0:3,0:0:0:0:
203,11,52469,2,0,P|222:14|241:21,1,40.4999987640381,4|4,0:3|0:3,0:0:0:0:
334,58,52640,1,10,0:0:0:0:
176,137,52811,5,0,1:2:0:0:
176,137,52897,1,0,1:2:0:0:
176,137,52983,2,0,P|137:148|96:153,1,80.9999975280763,2|2,1:2|0:0,0:0:0:0:
261,243,53326,2,0,P|301:248|340:259,1,80.9999975280763,10|2,0:0|0:0,0:0:0:0:
202,380,53669,2,0,P|190:341|185:300,1,80.9999975280763,2|2,1:2|0:0,0:0:0:0:
264,143,54011,1,10,0:0:0:0:
104,243,54183,6,0,P|58:189|106:100,1,161.999995056153,2|2,0:0|0:0,0:0:0:0:
215,56,54697,1,10,0:0:0:0:
353,159,54869,1,2,0:0:0:0:
353,159,54954,1,0,0:0:0:0:
353,159,55040,2,0,P|401:148|459:143,1,80.9999975280763,2|2,1:2|0:0,0:0:0:0:
363,61,55383,1,10,0:0:0:0:
256,148,55554,1,2,0:0:0:0:
488,74,55726,6,0,P|470:137|454:232,1,161.999995056153,6|8,1:2|0:0,0:0:0:0:
319,331,56240,1,2,0:0:0:0:
458,310,56411,2,0,P|412:301|381:268,1,80.9999975280763,2|0,1:2|0:0,0:0:0:0:
277,170,56754,2,0,P|294:206|298:246,1,80.9999975280763,8|2,0:0|0:0,0:0:0:0:
207,365,57097,5,2,1:2:0:0:
207,365,57440,2,0,P|205:313|118:283,1,121.499996292114,2|0,1:2|0:0,0:0:0:0:
133,282,57783,2,0,P|79:271|42:247,1,80.9999975280763,2|0,1:2|0:0,0:0:0:0:
139,126,58126,1,2,1:2:0:0:
25,41,58297,5,0,1:2:0:0:
25,41,58383,1,0,1:0:0:0:
25,41,58469,2,0,P|39:91|50:142,1,80.9999975280763,6|0,1:0|0:0,0:0:0:0:
125,201,58726,2,0,P|134:161|145:122,1,80.9999975280763,8|0,0:3|3:0,0:0:0:0:
225,52,58983,2,0,P|230:76|234:91,1,40.4999987640381,4|0,0:3|0:0,0:0:0:0:
280,224,59154,6,0,P|335:211|380:205,1,80.9999975280763,6|0,1:0|0:0,0:0:0:0:
481,35,59411,2,0,P|426:48|381:54,1,80.9999975280763,8|0,0:3|0:0,0:0:0:0:
354,120,59669,2,0,P|372:125|392:131,1,40.4999987640381,4|0,0:3|0:0,0:0:0:0:
477,309,59840,5,6,1:2:0:0:
452,340,59925,1,2,0:0:0:0:
417,361,60011,1,2,0:0:0:0:
377,367,60097,1,2,0:0:0:0:
338,358,60182,1,2,0:0:0:0:
305,336,60268,1,2,0:0:0:0:
282,302,60354,1,2,0:0:0:0:
273,263,60439,1,2,0:0:0:0:
279,223,60526,2,0,P|278:213|276:204,6,20.2499993820191,2|0|0|0|0|0|0,0:0|0:0|0:0|0:0|0:0|0:0|0:0,0:0:0:0:
196,299,60869,5,6,1:2:0:0:
159,308,60954,1,2,0:0:0:0:
126,318,61040,1,2,0:0:0:0:
91,330,61126,1,2,0:0:0:0:
59,347,61211,6,0,P|32:287|41:249,1,99.0000030212403,6|0,1:2|0:0,0:0:0:0:
219,127,61554,2,0,P|170:117|122:105,1,99.0000030212403,8|0,0:0|0:0,0:0:0:0:
31,71,61897,1,2,1:2:0:0:
143,221,62069,1,2,0:0:0:0:
143,221,62154,1,2,0:0:0:0:
143,221,62240,1,8,0:0:0:0:
7,237,62411,6,0,L|63:218,1,49.5000015106202
227,278,62583,2,0,P|237:230|249:182,1,99.0000030212403,2|0,1:2|0:0,0:0:0:0:
331,46,62926,1,10,0:0:0:0:
465,115,63097,1,0,0:0:0:0:
356,227,63269,1,2,1:2:0:0:
507,324,63440,1,0,0:0:0:0:
450,199,63611,1,10,0:0:0:0:
287,313,63783,1,2,0:0:0:0:
331,126,63954,6,0,P|356:186|367:233,1,99.0000030212403,2|0,1:2|0:0,0:0:0:0:
215,384,64297,2,0,P|190:324|179:277,1,99.0000030212403,10|0,0:0|0:0,0:0:0:0:
87,131,64640,2,0,P|132:148|181:160,1,99.0000030212403,2|0,1:2|0:0,0:0:0:0:
390,300,64983,2,0,P|342:312|295:329,1,99.0000030212403,10|0,0:0|0:0,0:0:0:0:
106,384,65326,6,0,P|39:270|78:201,1,198.000006042481,2|8,1:2|0:0,0:0:0:0:
176,61,65840,1,2,0:0:0:0:
176,61,65926,1,2,0:0:0:0:
176,61,66011,1,2,1:2:0:0:
200,230,66183,1,2,0:0:0:0:
0,122,66354,1,10,0:0:0:0:
87,18,66526,1,2,0:0:0:0:
156,157,66697,6,0,P|84:176|37:210,1,99.0000030212403,6|0,1:2|0:0,0:0:0:0:
249,14,67040,2,0,P|308:8|390:94,1,148.50000453186,10|0,0:0|0:0,0:0:0:0:
385,76,67383,1,2,1:2:0:0:
271,163,67554,1,2,0:0:0:0:
440,237,67726,1,10,0:0:0:0:
391,93,67897,1,2,0:0:0:0:
334,242,68069,6,0,P|348:304|356:356,1,99.0000030212403,2|0,1:2|0:0,0:0:0:0:
512,176,68411,2,0,P|503:127|492:79,1,99.0000030212403,10|0,0:0|0:0,0:0:0:0:
218,94,68754,2,0,P|286:153|405:127,1,198.000006042481,2|10,1:2|0:0,0:0:0:0:
491,303,69269,5,2,0:0:0:0:
491,303,69354,1,2,0:0:0:0:
491,303,69440,1,2,1:2:0:0:
404,238,69611,1,0,0:0:0:0:
255,355,69783,1,10,0:0:0:0:
212,229,69954,1,2,0:0:0:0:
320,176,70126,1,2,1:2:0:0:
260,370,70297,1,2,0:0:0:0:
98,310,70469,1,10,0:0:0:0:
299,280,70640,5,2,0:0:0:0:
299,280,70726,1,2,0:0:0:0:
299,280,70811,1,6,1:2:0:0:
111,197,70983,1,2,1:2:0:0:
280,46,71154,1,10,0:0:0:0:
240,164,71326,6,0,P|218:150|199:135,1,49.5000015106202,2|2,0:0|0:0,0:0:0:0:
63,42,71497,6,0,P|45:87|27:133,1,99.0000030212403,6|0,1:0|0:0,0:0:0:0:
204,272,71754,2,0,P|221:225|239:179,1,99.0000030212403,2|0,1:1|0:0,0:0:0:0:
173,126,72011,2,0,P|149:135|126:143,1,49.5000015106202,2|0,1:1|0:0,0:0:0:0:
15,369,72183,6,0,P|81:328|153:360,1,148.50000453186,6|0,1:2|0:0,0:0:0:0:
151,366,72526,2,0,P|129:313|114:264,1,99.0000030212403,8|2,0:0|0:0,0:0:0:0:
248,166,72869,1,2,1:2:0:0:
89,46,73040,1,2,0:0:0:0:
89,46,73126,1,2,0:0:0:0:
89,46,73211,1,10,0:0:0:0:
142,157,73383,1,0,0:0:0:0:
314,112,73554,6,0,P|362:100|409:87,1,99.0000030212403,2|0,1:2|0:0,0:0:0:0:
512,268,73897,2,0,P|463:256|416:243,1,99.0000030212403,10|0,0:0|0:0,0:0:0:0:
237,178,74240,1,2,1:2:0:0:
190,306,74411,1,0,0:0:0:0:
348,191,74583,1,10,0:0:0:0:
235,55,74754,1,2,0:0:0:0:
358,200,74926,6,0,P|407:194|453:177,1,99.0000030212403,2|0,1:2|0:0,0:0:0:0:
347,0,75269,2,0,P|330:46|324:95,1,99.0000030212403,10|0,0:0|0:0,0:0:0:0:
348,312,75611,2,0,P|307:285|263:263,1,99.0000030212403,2|0,1:2|0:0,0:0:0:0:
129,188,75954,2,0,P|173:165|214:138,1,99.0000030212403,10|0,0:0|0:0,0:0:0:0:
498,56,76297,6,0,P|418:77|347:-30,1,198.000006042481,2|8,1:2|0:0,0:0:0:0:
346,0,76983,1,2,1:2:0:0:
425,164,77154,1,2,0:0:0:0:
299,132,77326,1,10,0:0:0:0:
261,290,77497,1,2,0:0:0:0:
500,271,77669,6,0,P|423:196|333:216,1,198.000006042481,6|10,1:2|0:0,0:0:0:0:
230,34,78183,1,2,0:0:0:0:
425,164,78354,6,0,P|348:239|258:219,1,198.000006042481,2|8,1:2|0:0,0:0:0:0:
153,148,78869,1,2,0:0:0:0:
35,192,79040,5,6,1:2:0:0:
221,292,79211,1,8,0:3:0:0:
32,362,79383,1,10,0:0:0:0:
154,140,79554,1,8,0:3:0:0:
311,320,79726,5,8,0:0:0:0:
311,320,79811,1,8,0:0:0:0:
311,320,79897,2,0,L|369:331,1,49.5000015106202,8|8,0:0|0:0,0:0:0:0:
158,353,80069,2,0,L|112:390,1,49.5000015106202,8|8,0:0|0:0,0:0:0:0:
206,203,80240,2,0,L|190:147,1,49.5000015106202,8|8,0:0|0:0,0:0:0:0:
60,21,80411,6,0,P|31:61|30:110,1,99.0000030212403,6|0,1:0|0:0,0:0:0:0:
174,248,80669,2,0,P|202:208|203:159,1,99.0000030212403,8|0,0:3|0:0,0:0:0:0:
133,90,80926,2,0,P|125:109|116:136,1,49.5000015106202,4|0,0:3|0:0,0:0:0:0:
260,319,81097,6,0,P|311:338|357:360,1,99.0000030212403,6|0,1:0|0:0,0:0:0:0:
512,256,81354,2,0,P|461:237|415:215,1,99.0000030212403,8|0,0:3|0:0,0:0:0:0:
340,258,81611,2,0,P|335:233|329:209,1,49.5000015106202,4|0,0:3|0:0,0:0:0:0:
454,33,81783,5,2,1:3:0:0:
454,33,81869,1,2,0:3:0:0:
454,33,81954,1,2,0:3:0:0:
422,228,82126,1,8,0:0:0:0:
253,148,82297,1,2,0:3:0:0:
253,148,82383,1,2,0:3:0:0:
253,148,82469,2,0,L|264:95,2,49.5000015106202,2|0|0,1:3|0:0|0:0,0:0:0:0:
215,307,82811,6,0,P|302:300|348:225,1,148.50000453186,12|0,0:0|0:0,0:0:0:0:
332,247,83154,5,6,1:0:0:0:
405,333,83326,1,2,0:0:0:0:
227,234,83497,1,10,0:0:0:0:
411,172,83669,2,0,P|434:126|441:68,1,99.0000030212403,2|0,0:0|0:0,0:0:0:0:
260,8,84011,2,0,P|283:54|290:112,1,99.0000030212403,2|8,0:0|0:0,0:0:0:0:
309,259,84354,6,0,P|258:208|124:224,1,198.000006042481,2|0,0:0|0:0,0:0:0:0:
0,363,84869,1,8,0:0:0:0:
193,347,85040,1,2,0:0:0:0:
193,347,85126,1,2,0:0:0:0:
193,347,85211,2,0,P|122:323|82:301,1,99.0000030212403,2|2,1:2|0:0,0:0:0:0:
4,126,85554,2,0,P|24:170|38:218,1,99.0000030212403,10|2,0:0|0:0,0:0:0:0:
90,320,85897,5,2,1:2:0:0:
207,124,86069,1,2,0:0:0:0:
249,268,86240,1,10,0:0:0:0:
120,58,86411,1,2,0:0:0:0:
39,231,86583,1,2,1:2:0:0:
218,116,86754,2,0,P|233:60|241:1,1,99.0000030212403,2|8,2:0|0:0,0:0:0:0:
319,190,87097,6,0,P|249:251|128:210,1,198.000006042481,2|0,0:1|3:0,0:0:0:0:
236,9,87611,1,10,0:1:0:0:
54,82,87783,1,2,0:1:0:0:
54,82,87869,1,2,0:0:0:0:
54,82,87954,2,0,P|129:107|176:127,1,99.0000030212403
420,275,88297,5,8,0:0:0:0:
386,290,88382,1,0,0:0:0:0:
349,289,88468,1,0,0:0:0:0:
316,273,88554,1,0,0:0:0:0:
292,245,88639,1,6,1:0:0:0:
469,162,88811,1,2,1:2:0:0:
301,68,88982,1,2,0:0:0:0:
415,19,89154,6,0,P|397:67|383:125,1,99.0000030212403,2|0,1:0|0:0,0:0:0:0:
222,329,89497,2,0,P|210:281|193:234,1,99.0000030212403,2|0,1:0|0:0,0:0:0:0:
92,109,89839,6,0,P|183:146|281:154,1,198.000006042481,6|0,1:0|1:2,0:0:0:0:
486,235,90354,2,0,P|462:241|439:250,1,49.5000015106202,0|0,3:0|3:0,0:0:0:0:
311,324,90525,2,0,P|316:300|326:276,1,49.5000015106202,0|0,3:0|3:0,0:0:0:0:
373,155,90697,5,6,1:0:0:0:
434,354,90868,1,6,1:0:0:0:
183,238,91383,6,0,P|133:280|43:266,2,144,6|0|2,1:2|1:0|1:2,0:0:0:0:
327,370,92240,1,0,0:0:0:0:
224,333,92411,1,2,1:2:0:0:
321,205,92583,5,2,0:0:0:0:
321,205,92669,1,2,0:0:0:0:
321,205,92754,2,0,P|307:251|300:296,1,72,2|0,1:2|0:0,0:0:0:0:
419,357,93097,2,0,P|433:311|440:266,1,72,2|0,1:2|0:0,0:0:0:0:
358,61,93440,2,0,P|396:119|489:112,1,144,2|2,1:2|1:2,0:0:0:0:
400,214,93954,1,2,0:0:0:0:
271,120,94126,6,0,P|222:128|178:146,1,72,2|0,1:2|0:0,0:0:0:0:
81,271,94469,2,0,P|115:260|151:255,1,72,2|0,1:2|0:0,0:0:0:0:
234,358,94811,2,0,P|272:291|241:221,1,144,2|2,1:2|1:2,0:0:0:0:
127,176,95326,1,2,0:0:0:0:
251,50,95497,6,0,P|267:101|273:138,1,72,2|0,1:2|0:0,0:0:0:0:
454,197,95840,2,0,P|438:146|432:109,1,72,2|0,1:2|0:0,0:0:0:0:
355,76,96183,1,2,1:2:0:0:
355,76,96269,1,2,0:0:0:0:
355,76,96354,1,2,0:0:0:0:
333,210,96526,1,2,1:2:0:0:
449,123,96697,1,2,0:0:0:0:
318,226,96869,1,2,1:2:0:0:
318,226,97211,6,0,P|331:292|343:321,1,72,2|0,1:2|0:0,0:0:0:0:
224,375,97554,2,0,P|211:309|199:280,1,72,2|0,1:2|0:0,0:0:0:0:
43,233,97897,2,0,P|109:220|138:208,1,72,2|0,1:2|0:0,0:0:0:0:
274,113,98240,2,0,P|208:113|163:40,2,144,2|2|2,1:2|1:2|1:2,0:0:0:0:
378,46,99097,1,0,0:0:0:0:
378,46,99269,2,0,P|389:87|395:120,1,72,2|0,1:2|0:0,0:0:0:0:
358,331,99611,6,0,P|334:241|320:169,1,144,2|0,1:2|1:2,0:0:0:0:
491,230,100126,1,2,0:0:0:0:
491,230,100297,2,0,P|441:241|409:255,1,72,2|0,1:2|0:0,0:0:0:0:
277,360,100640,2,0,P|243:347|207:341,1,72,0|2,1:2|0:0,0:0:0:0:
207,341,100897,1,2,0:0:0:0:
207,341,100983,1,2,0:0:0:0:
235,249,101154,5,2,0:0:0:0:
173,161,101326,5,2,0:0:0:0:
78,152,101497,5,2,0:0:0:0:
14,225,101669,5,2,0:0:0:0:
52,295,101840,5,2,0:0:0:0:
125,273,102011,5,2,0:0:0:0:
125,237,102183,5,2,0:0:0:0:
55,152,102354,6,0,P|41:102|27:65,1,80.9999975280763,6|0,1:2|0:0,0:0:0:0:
228,9,102697,2,0,P|214:47|203:86,1,80.9999975280763,10|0,0:0|0:0,0:0:0:0:
15,222,103040,2,0,P|54:232|92:246,1,80.9999975280763,2|0,1:2|0:0,0:0:0:0:
247,253,103383,1,10,0:0:0:0:
150,160,103554,1,2,0:0:0:0:
157,359,103726,6,0,P|244:339|338:330,1,161.999995056153,2|10,1:2|0:0,0:0:0:0:
480,254,104240,1,2,0:0:0:0:
480,254,104326,1,2,0:0:0:0:
480,254,104411,1,2,1:2:0:0:
305,197,104583,1,0,0:0:0:0:
412,369,104754,2,0,P|400:308|380:276,1,80.9999975280763,10|2,0:0|0:0,0:0:0:0:
299,104,105097,6,0,P|340:169|422:173,1,161.999995056153,6|10,1:2|0:0,0:0:0:0:
408,15,105611,1,0,0:0:0:0:
408,15,105783,2,0,P|389:74|384:105,1,80.9999975280763,2|0,1:2|0:0,0:0:0:0:
227,147,106126,1,10,0:0:0:0:
137,44,106297,1,2,0:0:0:0:
37,155,106469,6,0,P|101:138|131:134,1,80.9999975280763,2|0,1:2|0:0,0:0:0:0:
282,247,106811,2,0,P|242:254|203:266,1,80.9999975280763,10|0,0:0|0:0,0:0:0:0:
127,384,107154,2,0,P|111:303|88:225,1,161.999995056153,2|10,1:2|0:0,0:0:0:0:
232,52,107669,1,2,0:0:0:0:
183,187,107840,1,2,1:2:0:0:
183,187,108183,6,0,P|195:225|202:265,1,80.9999975280763,10|0,0:0|0:0,0:0:0:0:
330,372,108526,2,0,P|317:333|310:293,1,80.9999975280763,2|0,1:2|0:0,0:0:0:0:
386,72,108869,2,0,P|358:101|328:128,1,80.9999975280763,10|0,0:0|0:0,0:0:0:0:
202,265,109211,6,0,P|301:239|396:224,1,161.999995056153,2|10,1:2|0:0,0:0:0:0:
512,295,109726,1,0,0:0:0:0:
512,295,109897,2,0,P|512:335|490:368,1,80.9999975280763,2|0,1:2|0:0,0:0:0:0:
413,339,110240,2,0,P|414:299|437:267,1,80.9999975280763,10|2,0:0|0:0,0:0:0:0:
504,60,110583,6,0,P|451:128|382:127,1,161.999995056153,6|8,1:2|0:0,0:0:0:0:
217,68,111097,1,2,0:0:0:0:
217,68,111183,1,2,0:0:0:0:
217,68,111269,1,2,1:2:0:0:
334,23,111440,1,2,0:0:0:0:
276,166,111611,1,10,0:0:0:0:
106,41,111783,2,0,P|130:108|133:138,1,80.9999975280763,6|0,1:2|0:0,0:0:0:0:
20,251,112125,5,2,1:2:0:0:
144,205,112297,1,10,0:0:0:0:
239,301,112469,1,0,1:2:0:0:
344,163,112640,6,0,P|307:171|282:183,1,40.4999987640381,2|0,1:2|1:2,0:0:0:0:
126,367,112811,2,0,P|145:361|165:358,1,40.4999987640381,2|0,1:2|1:2,0:0:0:0:
345,268,112983,1,10,0:2:0:0:
126,205,113154,1,2,1:2:0:0:
255,54,113326,5,8,0:3:0:0:
255,54,113497,1,4,0:3:0:0:
210,183,113669,6,0,P|229:250|244:338,1,121.499996292114,8|0,0:0|0:0,0:0:0:0:
244,314,114011,2,0,P|295:298|331:294,1,80.9999975280763,6|0,1:0|0:0,0:0:0:0:
454,169,114354,1,8,0:0:0:0:
450,373,114526,6,0,B|465:319|423:292|418:321|382:274|398:217,1,161.999995056153,6|8,1:2|0:3,0:0:0:0:
395,231,114954,1,8,0:3:0:0:
395,231,115040,1,10,0:0:0:0:
264,135,115211,1,4,0:3:0:0:
385,40,115383,2,0,P|369:98|363:140,1,80.9999975280763,0|8,1:2|0:3,0:0:0:0:
322,294,115726,1,8,0:0:0:0:
454,169,115897,1,4,0:3:0:0:
264,135,116069,5,8,0:3:0:0:
264,135,116240,1,4,0:3:0:0:
162,365,116411,6,0,P|83:362|47:316,1,121.499996292114,8|0,0:0|0:0,0:0:0:0:
59,312,116754,2,0,P|47:265|34:227,1,80.9999975280763,6|0,1:0|0:0,0:0:0:0:
80,140,117097,1,0,0:0:0:0:
242,269,117269,6,0,B|311:256|311:256|340:271|340:271|426:256,1,161.999995056153,6|2,1:2|1:2,0:0:0:0:
497,146,117783,2,0,P|484:107|476:67,1,80.9999975280763,10|0,0:0|1:2,0:0:0:0:
406,169,118126,1,8,0:3:0:0:
246,100,118297,1,4,0:3:0:0:
371,30,118469,1,10,0:0:0:0:
314,172,118640,5,0,1:2:0:0:
314,172,118726,1,0,1:2:0:0:
314,172,118811,2,0,P|234:150|132:133,1,161.999995056153,2|10,1:2|0:0,0:0:0:0:
28,306,119326,1,2,0:0:0:0:
28,306,119497,2,0,P|76:291|110:286,1,80.9999975280763,2|2,1:2|0:0,0:0:0:0:
175,229,119840,1,10,0:0:0:0:
76,72,120011,6,0,P|12:97|7:192,1,161.999995056153,2|2,0:0|0:0,0:0:0:0:
106,286,120526,2,0,P|93:234|80:204,1,80.9999975280763,10|2,0:0|0:0,0:0:0:0:
161,40,120869,2,0,P|174:92|187:122,1,80.9999975280763,2|2,1:2|0:0,0:0:0:0:
280,191,121211,1,10,0:0:0:0:
376,105,121383,1,2,0:0:0:0:
502,250,121554,6,0,P|448:248|386:340,1,161.999995056153,6|8,1:2|0:0,0:0:0:0:
214,276,122069,1,2,0:0:0:0:
286,380,122240,2,0,P|298:321|299:279,1,80.9999975280763,2|0,1:2|0:0,0:0:0:0:
133,175,122583,2,0,P|121:234|120:276,1,80.9999975280763,8|2,0:0|0:0,0:0:0:0:
201,356,122926,1,2,1:2:0:0:
201,356,123269,6,0,P|213:297|214:255,1,80.9999975280763,2|0,1:2|0:0,0:0:0:0:
327,130,123611,2,0,P|315:189|314:231,1,80.9999975280763,2|0,1:2|0:0,0:0:0:0:
206,127,123954,1,2,1:2:0:0:
329,47,124126,5,0,1:2:0:0:
329,47,124211,1,0,1:0:0:0:
329,47,124297,2,0,P|393:56|428:68,1,80.9999975280763,6|0,1:0|0:0,0:0:0:0:
498,178,124554,2,0,P|458:168|418:164,1,80.9999975280763,8|0,0:3|3:0,0:0:0:0:
313,209,124811,2,0,P|326:236|331:261,1,40.4999987640381,4|0,0:3|0:0,0:0:0:0:
110,353,124983,6,0,P|81:323|84:267,1,80.9999975280763,6|0,1:0|0:0,0:0:0:0:
152,248,125240,2,0,P|181:278|178:334,1,80.9999975280763,8|0,0:3|0:0,0:0:0:0:
80,199,125497,2,0,P|64:168|49:145,1,40.4999987640381,4|0,0:3|0:0,0:0:0:0:
181,45,125669,5,6,1:2:0:0:
219,34,125754,1,2,0:0:0:0:
257,46,125840,1,2,0:0:0:0:
284,76,125926,1,2,0:0:0:0:
291,115,126011,1,2,0:0:0:0:
306,152,126096,1,2,0:0:0:0:
338,176,126182,1,2,0:0:0:0:
378,181,126268,1,2,0:0:0:0:
415,166,126354,2,0,P|444:156|467:151,3,40.4999987640381,2|0|0|0,0:0|0:0|0:0|0:0,0:0:0:0:
298,382,126697,5,6,1:2:0:0:
291,350,126783,1,2,0:0:0:0:
283,318,126869,1,2,0:0:0:0:
274,286,126954,1,2,0:0:0:0:
264,254,127040,6,0,B|201:225|163:312|213:266|167:362|104:333,1,198.000006042481,6|8,1:2|0:0,0:0:0:0:
0,207,127554,1,0,0:0:0:0:
122,91,127726,2,0,P|106:172|100:216,1,99.0000030212403,2|2,1:2|0:0,0:0:0:0:
242,352,128069,2,0,P|258:271|264:227,1,99.0000030212403,8|0,0:0|0:0,0:0:0:0:
398,51,128411,5,2,1:2:0:0:
339,217,128583,1,0,0:0:0:0:
201,145,128754,1,10,0:0:0:0:
332,104,128926,1,0,0:0:0:0:
425,303,129097,1,2,1:2:0:0:
256,234,129269,1,0,0:0:0:0:
459,106,129440,2,0,P|443:187|437:231,1,99.0000030212403,10|2,0:0|0:0,0:0:0:0:
171,377,129783,6,0,P|228:322|301:360,1,148.50000453186,2|0,1:2|0:0,0:0:0:0:
317,345,130126,2,0,P|325:296|335:247,1,99.0000030212403,10|2,0:0|0:0,0:0:0:0:
86,75,130469,2,0,P|110:141|117:183,1,99.0000030212403,2|0,1:2|0:0,0:0:0:0:
35,331,130811,2,0,P|11:265|4:223,1,99.0000030212403,10|0,0:0|0:0,0:0:0:0:
242,60,131154,6,0,P|226:158|215:263,1,198.000006042481,2|8,1:2|0:0,0:0:0:0:
327,368,131669,1,2,0:0:0:0:
327,368,131754,1,2,0:0:0:0:
327,368,131840,1,2,1:2:0:0:
499,242,132011,1,2,0:0:0:0:
319,159,132183,1,10,0:0:0:0:
394,270,132354,1,2,0:0:0:0:
198,353,132526,6,0,P|207:290|219:240,1,99.0000030212403,6|0,1:2|0:0,0:0:0:0:
427,81,132869,2,0,P|391:141|295:151,1,148.50000453186,10|0,0:0|0:0,0:0:0:0:
319,159,133211,1,2,1:2:0:0:
147,98,133383,1,2,0:0:0:0:
271,39,133554,1,10,0:0:0:0:
332,172,133726,1,2,0:0:0:0:
123,266,133897,6,0,P|57:279|16:294,1,99.0000030212403,2|0,1:2|0:0,0:0:0:0:
312,307,134240,2,0,P|359:291|407:283,1,99.0000030212403,10|0,0:0|0:0,0:0:0:0:
243,364,134583,2,0,P|178:319|185:210,1,198.000006042481,2|10,1:2|0:0,0:0:0:0:
307,78,135097,5,2,0:0:0:0:
307,78,135183,1,2,0:0:0:0:
307,78,135269,1,2,1:2:0:0:
112,157,135440,1,0,0:0:0:0:
313,261,135611,1,10,0:0:0:0:
229,141,135783,1,2,0:0:0:0:
97,271,135954,1,2,1:2:0:0:
21,118,136126,1,2,0:0:0:0:
179,221,136297,1,10,0:0:0:0:
214,55,136469,1,2,0:0:0:0:
433,204,136640,5,6,1:2:0:0:
267,135,136811,1,2,1:2:0:0:
451,78,136983,1,10,0:0:0:0:
319,281,137154,1,2,0:0:0:0:
319,281,137240,1,2,0:0:0:0:
319,281,137326,2,0,P|252:290|214:303,1,99.0000030212403,6|0,1:0|0:0,0:0:0:0:
3,194,137583,2,0,P|70:185|108:172,1,99.0000030212403,2|0,1:1|0:0,0:0:0:0:
177,189,137840,2,0,P|170:234|165:266,1,49.5000015106202,2|0,1:1|0:0,0:0:0:0:
371,365,138011,6,0,P|431:336|453:213,1,198.000006042481,6|8,1:2|0:0,0:0:0:0:
267,63,138526,1,2,0:0:0:0:
369,215,138697,1,2,1:2:0:0:
497,84,138869,1,2,0:0:0:0:
497,84,138954,1,2,0:0:0:0:
497,84,139040,2,0,P|431:95|380:116,1,99.0000030212403,10|0,0:0|0:0,0:0:0:0:
179,332,139383,6,0,P|161:275|142:233,1,99.0000030212403,2|0,1:2|0:0,0:0:0:0:
263,59,139726,2,0,P|281:116|300:158,1,99.0000030212403,10|0,0:0|0:0,0:0:0:0:
115,104,140069,1,2,1:2:0:0:
45,284,140240,1,0,0:0:0:0:
201,165,140411,1,10,0:0:0:0:
313,301,140583,5,2,0:0:0:0:
313,301,140669,1,2,0:0:0:0:
313,301,140754,2,0,P|381:282|419:279,1,99.0000030212403,2|0,1:2|0:0,0:0:0:0:
498,83,141097,2,0,P|430:102|392:105,1,99.0000030212403,10|0,0:0|0:0,0:0:0:0:
249,365,141440,2,0,P|187:358|162:259,1,148.50000453186,2|0,1:2|0:0,0:0:0:0:
169,268,141783,2,0,P|156:214|143:170,1,99.0000030212403,10|0,0:0|0:0,0:0:0:0:
285,11,142126,6,0,P|311:120|337:210,1,198.000006042481,2|8,1:2|0:0,0:0:0:0:
406,264,142640,1,2,0:0:0:0:
406,264,142726,1,2,0:0:0:0:
406,264,142811,1,2,1:2:0:0:
252,200,142983,1,2,0:0:0:0:
362,345,143154,1,10,0:0:0:0:
477,185,143326,1,2,0:0:0:0:
275,298,143497,6,0,B|162:257|192:392|81:374,1,198.000006042481,6|10,1:2|0:0,0:0:0:0:
2,236,144011,1,2,0:0:0:0:
203,99,144183,2,0,P|148:124|48:35,1,198.000006042481,2|8,1:2|0:0,0:0:0:0:
133,216,144697,1,2,0:0:0:0:
308,56,144869,5,6,1:2:0:0:
460,197,145040,1,8,0:3:0:0:
257,274,145211,1,10,0:0:0:0:
324,165,145383,1,8,0:3:0:0:
423,308,145554,5,8,0:0:0:0:
423,308,145640,1,8,0:0:0:0:
423,308,145726,2,0,P|387:279|362:275,1,49.5000015106202,8|8,0:0|0:0,0:0:0:0:
212,292,145897,2,0,P|255:275|271:255,1,49.5000015106202,8|8,0:0|0:0,0:0:0:0:
331,117,146069,2,0,P|323:162|332:186,1,49.5000015106202,8|8,0:0|0:0,0:0:0:0:
150,370,146240,6,0,P|136:322|115:277,1,99.0000030212403,6|0,1:0|0:0,0:0:0:0:
205,46,146497,2,0,P|218:93|239:138,1,99.0000030212403,8|0,0:3|0:0,0:0:0:0:
178,199,146754,2,0,P|144:190|125:187,1,49.5000015106202,4|0,0:3|0:0,0:0:0:0:
328,335,146926,6,0,P|401:312|449:304,1,99.0000030212403,6|0,1:0|0:0,0:0:0:0:
504,122,147183,2,0,P|431:145|383:153,1,99.0000030212403,8|0,0:3|0:0,0:0:0:0:
344,226,147440,2,0,P|385:232|409:238,1,49.5000015106202,4|0,0:3|0:0,0:0:0:0:
252,364,147611,5,2,1:3:0:0:
252,364,147697,1,2,0:3:0:0:
252,364,147783,1,2,0:3:0:0:
54,289,147954,1,8,0:0:0:0:
262,213,148126,1,2,0:3:0:0:
262,213,148211,1,2,0:3:0:0:
262,213,148297,2,0,L|252:266,2,49.5000015106202,2|0|0,1:3|0:0|0:0,0:0:0:0:
60,59,148640,5,8,0:0:0:0:
59,107,148725,1,8,0:0:0:0:
85,148,148811,1,8,0:0:0:0:
130,168,148897,1,8,0:0:0:0:
178,160,148983,2,0,P|244:172|378:212,2,198.000006042481,6|8|0,1:2|0:0|1:2,0:0:0:0:
81,252,149840,1,2,0:0:0:0:
262,213,150011,1,10,0:0:0:0:
204,380,150183,6,0,P|185:325|175:271,1,99.0000030212403,2|0,0:0|1:2,0:0:0:0:
260,121,150526,1,2,0:0:0:0:
81,24,150697,2,0,P|141:44|196:55,1,99.0000030212403,10|0,0:0|0:0,0:0:0:0:
356,185,151040,2,0,P|307:196|261:212,1,99.0000030212403,2|0,1:2|0:0,0:0:0:0:
11,202,151383,2,0,P|64:145|157:170,1,148.50000453186,10|0,0:0|0:0,0:0:0:0:
166,252,151726,6,0,P|179:137|191:55,2,198.000006042481,2|8|0,1:2|0:0|1:2,0:0:0:0:
318,324,152583,1,2,0:0:0:0:
376,194,152754,1,10,0:0:0:0:
465,354,152926,5,2,0:0:0:0:
465,354,153011,1,0,0:0:0:0:
465,354,153097,2,0,P|482:272|500:237,1,99.0000030212403,2|0,1:2|0:0,0:0:0:0:
512,80,153440,2,0,P|449:101|415:124,1,99.0000030212403,8|2,0:0|0:0,0:0:0:0:
253,98,153783,1,2,1:2:0:0:
390,204,153954,1,2,0:0:0:0:
218,306,154126,1,10,0:0:0:0:
426,359,154297,1,2,0:0:0:0:
315,257,154469,6,0,P|284:179|330:67,1,198.000006042481,6|8,1:2|0:0,0:0:0:0:
464,15,154983,1,2,0:0:0:0:
464,15,155069,1,2,0:0:0:0:
464,15,155154,2,0,P|444:71|437:124,1,99.0000030212403,0|2,1:2|0:0,0:0:0:0:
259,6,155497,1,10,0:0:0:0:
507,199,155669,6,0,P|423:142|304:174,1,198.000006042481,2|2,0:0|0:0,0:0:0:0:
159,200,156183,2,0,P|112:117|114:80,1,99.0000030212403,10|0,0:0|0:0,0:0:0:0:
262,15,156526,2,0,P|234:105|243:141,1,99.0000030212403,2|0,1:2|0:0,0:0:0:0:
281,242,156869,2,0,P|228:191|152:203,1,148.50000453186,10|0,0:0|0:0,0:0:0:0:
164,212,157211,6,0,P|296:201|373:157,2,198.000006042481,2|8|0,1:2|0:0|1:2,0:0:0:0:
27,163,158069,1,2,0:0:0:0:
27,163,158154,1,2,0:0:0:0:
27,163,158240,1,10,0:0:0:0:
148,302,158411,5,2,0:0:0:0:
148,302,158497,1,2,0:0:0:0:
148,302,158583,1,6,1:2:0:0:
1,373,158754,2,0,L|32:305,1,49.5000015106202,2|0,1:2|0:0,0:0:0:0:
116,158,158926,2,0,L|137:253,1,49.5000015106202,8|0,0:0|0:0,0:0:0:0:
229,356,159097,5,0,1:2:0:0:
229,356,159183,1,0,1:2:0:0:
229,356,159269,2,0,P|294:386|328:368,1,99.0000030212403,2|0,1:0|0:0,0:0:0:0:
491,272,159526,2,0,P|452:242|404:249,1,99.0000030212403,2|0,1:0|0:0,0:0:0:0:
318,238,159783,2,0,L|331:285,1,49.5000015106202,2|0,1:0|0:0,0:0:0:0:
433,357,159954,6,0,P|441:291|467:161,2,198.000006042481,6|8|2,1:2|0:0|1:2,0:0:0:0:
285,233,160811,1,2,0:0:0:0:
474,269,160983,1,10,0:0:0:0:
300,139,161154,6,0,P|251:150|207:171,1,99.0000030212403,2|2,0:0|1:2,0:0:0:0:
56,260,161497,1,2,0:0:0:0:
56,260,161583,1,2,0:0:0:0:
56,260,161669,1,10,0:0:0:0:
141,308,161840,1,2,0:0:0:0:
38,164,162011,2,0,P|26:110|56:62,1,99.0000030212403,2|0,1:2|0:0,0:0:0:0:
189,184,162354,1,8,0:0:0:0:
123,124,162526,5,2,0:0:0:0:
123,124,162612,1,2,0:0:0:0:
123,124,162697,1,2,1:2:0:0:
340,67,162869,2,0,L|298:112,1,49.5000015106202,2|2,0:0|0:0,0:0:0:0:
180,203,163040,1,10,0:0:0:0:
384,285,163211,2,0,L|342:240,1,49.5000015106202,2|2,0:2|0:2,0:0:0:0:
287,175,163383,1,2,1:2:0:0:
417,108,163555,2,0,P|470:91|513:84,1,99.0000030212403,0|8,0:0|0:0,0:0:0:0:
328,42,163897,5,0,0:0:0:0:
328,42,163983,1,0,0:0:0:0:
328,42,164069,1,2,1:0:0:0:
478,183,164240,1,0,0:0:0:0:
245,248,164411,1,8,0:0:0:0:
349,145,164583,1,0,0:0:0:0:
512,384,164754,5,2,1:2:0:0:
493,338,164839,1,2,0:0:0:0:
453,311,164925,1,2,0:0:0:0:
404,309,165011,1,2,0:0:0:0:
362,334,165097,5,2,1:2:0:0:
341,355,165182,1,2,0:0:0:0:
312,362,165268,1,2,0:0:0:0:
283,354,165354,1,2,0:0:0:0:
264,334,165440,6,0,P|250:220|237:137,1,198.000006042481,2|8,1:2|0:0,0:0:0:0:
93,16,165954,1,2,0:0:0:0:
93,16,166040,1,0,0:0:0:0:
93,16,166126,2,0,P|152:33|195:51,1,99.0000030212403,2|0,1:2|0:0,0:0:0:0:
38,192,166469,2,0,P|9:100|3:83,1,99.0000030212403,10|0,0:0|0:0,0:0:0:0:
216,145,166811,2,0,P|180:179|146:215,1,99.0000030212403,2|0,1:2|0:0,0:0:0:0:
59,310,167154,5,10,0:0:0:0:
214,361,167326,1,0,0:0:0:0:
140,210,167497,1,2,1:2:0:0:
299,318,167669,1,0,0:0:0:0:
226,132,167840,1,10,0:0:0:0:
396,281,168011,2,0,P|389:299|380:328,1,49.5000015106202
251,231,168183,6,0,P|224:173|240:130,1,99.0000030212403,6|0,1:0|0:0,0:0:0:0:
395,105,168440,2,0,P|421:162|405:205,1,99.0000030212403,8|0,0:3|0:0,0:0:0:0:
318,190,168697,2,0,P|322:163|326:141,1,49.5000015106202,4|0,0:3|0:0,0:0:0:0:
424,11,168869,6,0,P|376:23|327:32,1,99.0000030212403,6|0,1:0|0:0,0:0:0:0:
416,206,169126,2,0,P|463:193|512:184,1,99.0000030212403,8|0,0:3|0:0,0:0:0:0:
448,116,169383,2,0,P|419:108|400:102,1,49.5000015106202,4|0,0:3|0:0,0:0:0:0:
161,69,169554,6,0,P|202:31|258:32,1,99.0000030212403,6|0,1:0|0:0,0:0:0:0:
316,201,169811,2,0,P|275:239|219:238,1,99.0000030212403,8|0,0:3|0:0,0:0:0:0:
234,109,170069,2,0,P|241:127|247:156,1,49.5000015106202,4|0,0:3|0:0,0:0:0:0:
275,335,170240,6,0,P|210:315|170:308,1,99.0000030212403,6|0,1:0|0:0,0:0:0:0:
0,164,170497,2,0,P|48:153|95:138,1,99.0000030212403,8|0,0:3|0:0,0:0:0:0:
136,200,170754,2,0,P|128:226|125:248,1,49.5000015106202,4|0,0:3|0:0,0:0:0:0:
351,384,170926,6,0,B|386:296|302:302|341:206,1,180,6|0,1:0|0:0,0:0:0:0:
413,174,171954,2,0,P|430:178|447:184,1,36,2|0,0:0|0:0,0:0:0:0:
223,247,172297,5,0,3:0:0:0:
223,247,172383,1,0,3:0:0:0:
223,247,172469,1,0,3:0:0:0:
377,302,172640,1,0,3:0:0:0:
335,168,172811,2,0,P|330:190|324:211,1,45,0|0,3:0|3:0,0:0:0:0:
297,301,172983,1,0,3:0:0:0:
240,164,173154,5,2,0:0:0:0:
222,131,173239,1,2,0:0:0:0:
219,93,173325,1,12,0:0:0:0:
230,58,173411,1,2,0:0:0:0:
255,30,173496,1,2,0:0:0:0:
288,13,173582,1,2,0:0:0:0:
325,12,173668,1,6,0:0:0:0:
256,192,177783,12,0,179069,0:0:0:0:
494,54,179154,6,0,P|426:68|398:82,1,72,6|0,1:2|0:0,0:0:0:0:
293,145,179497,2,0,P|328:149|363:159,1,72,10|0,0:0|0:0,0:0:0:0:
491,232,179840,1,2,1:2:0:0:
376,295,180011,1,2,0:0:0:0:
377,153,180183,1,8,0:0:0:0:
483,221,180354,1,2,0:0:0:0:
296,221,180526,6,0,P|284:189|276:152,1,72,2|0,1:2|0:0,0:0:0:0:
461,103,180869,2,0,P|454:67|441:33,1,72,10|0,0:0|0:0,0:0:0:0:
392,170,181211,1,2,1:2:0:0:
283,139,181383,1,2,0:0:0:0:
337,11,181554,2,0,P|349:44|356:80,1,72,8|0,0:0|0:0,0:0:0:0:
279,251,181897,5,2,1:2:0:0:
177,214,182069,1,2,0:0:0:0:
142,314,182240,1,10,0:0:0:0:
257,348,182411,1,2,0:0:0:0:
174,203,182583,1,2,1:2:0:0:
432,286,182754,1,2,0:0:0:0:
341,123,182926,1,10,0:0:0:0:
256,367,183097,1,2,0:0:0:0:
460,200,183269,6,0,L|406:183,1,49.5000015106202,2|0,1:2|0:0,0:0:0:0:
238,100,183440,2,0,L|258:169,1,49.5000015106202,2|0,1:2|0:0,0:0:0:0:
309,285,183611,2,0,L|320:236,1,49.5000015106202,2|0,1:2|0:0,0:0:0:0:
436,79,183783,5,2,0:0:0:0:
436,79,183869,1,2,1:2:0:0:
436,79,183954,2,0,P|382:113|335:102,1,99.0000030212403,6|0,1:0|0:0,0:0:0:0:
129,43,184211,2,0,P|183:9|230:20,1,99.0000030212403,2|0,1:0|0:0,0:0:0:0:
284,52,184469,2,0,P|278:70|272:100,1,49.5000015106202,2|0,1:0|0:0,0:0:0:0:
259,292,184640,6,0,P|139:264|101:259,1,148.50000453186,6|0,1:2|0:0,0:0:0:0:
88,267,184983,2,0,P|66:188|70:160,1,99.0000030212403,12|2,0:0|0:0,0:0:0:0:
254,109,185326,1,2,1:2:0:0:
133,22,185497,2,0,L|147:74,1,49.5000015106202,2|2,0:0|0:0,0:0:0:0:
176,153,185669,1,10,0:0:0:0:
313,40,185840,1,0,0:0:0:0:
345,226,186011,6,0,P|326:271|311:319,1,99.0000030212403,2|0,1:2|0:0,0:0:0:0:
189,147,186354,2,0,P|249:131|306:122,1,99.0000030212403,10|0,0:0|0:0,0:0:0:0:
512,269,186697,2,0,P|463:278|415:291,1,99.0000030212403,2|0,1:2|0:0,0:0:0:0:
384,143,187040,2,0,P|398:95|417:49,1,99.0000030212403,10|2,0:0|0:0,0:0:0:0:
261,217,187383,5,2,1:2:0:0:
418,298,187554,1,0,0:0:0:0:
196,363,187726,1,10,0:0:0:0:
316,279,187897,1,0,0:0:0:0:
115,158,188069,1,2,1:2:0:0:
196,277,188240,1,0,0:0:0:0:
358,194,188411,2,0,P|366:137|344:97,1,99.0000030212403,10|0,0:0|0:0,0:0:0:0:
201,0,188754,6,0,P|224:85|246:203,1,198.000006042481,2|8,1:2|0:0,0:0:0:0:
292,333,189269,1,2,0:0:0:0:
292,333,189354,1,2,0:0:0:0:
292,333,189440,2,0,L|235:306,1,49.5000015106202,2|0,1:2|0:0,0:0:0:0:
99,240,189611,2,0,L|123:304,1,49.5000015106202,2|0,0:0|0:0,0:0:0:0:
163,373,189783,1,10,0:0:0:0:
237,217,189954,1,2,0:0:0:0:
26,330,190126,6,0,P|-8:255|66:152,1,198.000006042481,6|10,1:2|0:0,0:0:0:0:
213,83,190640,1,2,0:0:0:0:
0,59,190811,6,0,P|55:136|150:137,1,198.000006042481,2|8,1:2|0:0,0:0:0:0:
299,43,191326,1,2,0:0:0:0:
165,11,191497,1,6,1:2:0:0:
279,160,191669,1,8,0:3:0:0:
95,240,191840,1,10,0:0:0:0:
165,122,192011,1,8,0:3:0:0:
326,250,192183,5,8,0:0:0:0:
326,250,192269,1,8,0:0:0:0:
326,250,192354,2,0,L|393:237,1,49.5000015106202,8|8,0:0|0:0,0:0:0:0:
512,247,192526,2,0,L|475:213,1,49.5000015106202,8|8,0:0|0:0,0:0:0:0:
420,82,192697,2,0,L|401:127,1,49.5000015106202,8|8,0:0|0:0,0:0:0:0:
261,325,192869,6,0,P|246:267|232:206,1,99.0000030212403,6|0,1:0|0:0,0:0:0:0:
67,153,193126,2,0,P|78:201|90:249,1,99.0000030212403,8|0,0:3|0:0,0:0:0:0:
155,316,193383,2,0,L|169:268,1,49.5000015106202,4|0,0:3|0:0,0:0:0:0:
372,62,193554,6,0,P|373:110|347:152,1,99.0000030212403,6|0,1:0|0:0,0:0:0:0:
166,105,193811,2,0,P|164:56|190:14,1,99.0000030212403,8|0,0:3|0:0,0:0:0:0:
264,61,194069,2,0,P|269:84|272:109,1,49.5000015106202,4|0,0:3|0:0,0:0:0:0:
299,231,194240,5,2,1:3:0:0:
299,231,194326,1,2,0:3:0:0:
299,231,194411,1,2,0:3:0:0:
447,172,194583,1,8,0:0:0:0:
379,338,194754,1,2,0:3:0:0:
379,338,194840,1,2,0:3:0:0:
379,338,194926,2,0,P|369:364|361:384,2,49.5000015106202,2|0|0,1:3|0:0|0:0,0:0:0:0:
202,221,195269,2,0,P|145:266|72:266,1,148.50000453186,12|0,0:0|0:0,0:0:0:0:
59,256,195611,5,6,1:0:0:0:
208,135,195783,1,2,0:0:0:0:
23,61,195954,1,10,0:0:0:0:
146,3,196126,2,0,P|123:78|115:130,1,99.0000030212403,2|0,0:0|0:0,0:0:0:0:
289,243,196469,2,0,P|305:196|315:147,1,99.0000030212403,2|8,0:0|0:0,0:0:0:0:
420,12,196811,6,0,P|355:42|226:59,1,198.000006042481,2|0,0:0|0:0,0:0:0:0:
427,144,197326,1,8,0:0:0:0:
301,262,197497,1,2,0:0:0:0:
301,262,197583,1,2,0:0:0:0:
301,262,197669,1,2,1:2:0:0:
497,362,197840,1,2,0:0:0:0:
417,226,198011,2,0,P|393:293|386:328,1,99.0000030212403,10|2,0:0|0:0,0:0:0:0:
266,369,198354,5,2,1:2:0:0:
160,202,198526,1,2,0:0:0:0:
313,266,198697,1,10,0:0:0:0:
341,86,198869,1,2,0:0:0:0:
179,199,199040,1,2,1:2:0:0:
386,331,199211,2,0,P|433:322|480:300,1,99.0000030212403,2|8,2:0|0:0,0:0:0:0:
227,280,199554,5,6,0:1:0:0:
227,280,199640,1,0,0:0:0:0:
227,280,199726,2,0,P|150:296|109:314,1,99.0000030212403,0|0,1:0|0:0,0:0:0:0:
123,89,200069,1,10,0:1:0:0:
0,137,200240,2,0,P|36:203|163:195,1,198.000006042481,2|0,0:1|0:0,0:0:0:0:
367,79,200754,5,8,0:0:0:0:
332,65,200839,1,2,0:0:0:0:
297,54,200925,1,2,0:0:0:0:
261,44,201011,1,2,0:0:0:0:
225,37,201096,1,6,1:0:0:0:
368,170,201269,1,0,1:2:0:0:
178,284,201440,1,8,0:0:0:0:
270,214,201611,6,0,P|288:279|293:323,1,99.0000030212403,2|0,1:0|0:0,0:0:0:0:
442,110,201954,2,0,P|449:61|464:13,1,99.0000030212403,2|0,1:0|0:0,0:0:0:0:
491,239,202297,5,6,1:0:0:0:
389,179,202469,1,0,3:3:0:0:
389,179,202554,1,0,3:3:0:0:
389,179,202640,1,0,3:3:0:0:
305,311,202811,2,0,L|259:329,1,49.5000015106202,0|0,3:3|3:3,0:0:0:0:
461,256,202983,2,0,L|506:274,1,49.5000015106202,0|0,3:2|3:2,0:0:0:0:
275,175,203154,5,6,1:0:0:0:
416,339,203326,1,6,1:0:0:0:
477,78,203497,1,8,0:0:0:0:
381,207,203669,5,6,0:0:0:0:
256,192,203754,12,0,206583,0:0:0:0:
