osu file format v14

[General]
AudioFilename: audio.mp3
AudioLeadIn: 0
PreviewTime: 123121
Countdown: 0
SampleSet: Soft
StackLeniency: 0.7
Mode: 0
LetterboxInBreaks: 0
WidescreenStoryboard: 0

[Editor]
Bookmarks: 123697,188313,217851,236313,252928
DistanceSpacing: 1
BeatDivisor: 2
GridSize: 4
TimelineZoom: 1.1

[Metadata]
Title:Norowareta Sei / Shukufuku Sareta Sei (the confusion)
TitleUnicode:呪われた生/祝福された生 (the confusion)
Artist:Kinoshita
ArtistUnicode:木下
Creator:Mirash
Version:Normal
Source:素晴らしき日々~不連続存在~
Tags:neko ds lu^3 hey_lululu allein subahibi subarashiki hibi remix Quite!Quiet!! rock japanese ~Furenzoku Sonzai~ jrock eroge すかぢ szak SCA-ji KeroQ Wonderful Everyday Discontinuous Existence Diskontinuierliches Dasein
BeatmapID:2616299
BeatmapSetID:1004928

[Difficulty]
HPDrainRate:4
CircleSize:4
OverallDifficulty:5
ApproachRate:5
SliderMultiplier:1.2
SliderTickRate:1

[Events]
//Background and Video events
0,0,"scary.jpg",0,0
//Break Periods
//Storyboard Layer 0 (Background)
//Storyboard Layer 1 (Fail)
//Storyboard Layer 2 (Pass)
//Storyboard Layer 3 (Foreground)
//Storyboard Layer 4 (Overlay)
//Storyboard Sound Samples

[TimingPoints]
40621,461.538461538462,4,2,1,71,1,0
72005,-100,4,2,2,61,0,0
101544,-100,4,2,3,50,0,0
114467,-100,4,2,3,70,0,0
114697,-100,4,2,3,50,0,0
116313,-100,4,2,3,70,0,0
123698,-100,4,2,4,81,0,0
144005,-100,4,2,4,51,0,0
145852,-100,4,2,4,81,0,0
153236,-100,4,2,4,61,0,0
156928,-100,4,2,4,71,0,0
171697,-100,4,2,0,71,0,0
171813,-100,4,2,4,71,0,0
187390,-100,4,2,1,40,0,0
187505,-100,4,2,1,10,0,0
188313,-100,4,2,2,61,0,0
217851,-100,4,2,4,50,0,0
225236,-100,4,2,4,41,0,0
227082,-100,4,2,4,50,0,0
228928,-100,4,2,3,71,0,0
229044,-100,4,2,1,50,0,0
232621,-100,4,2,4,71,0,0
236313,-100,4,2,4,81,0,0
250159,-100,4,2,4,91,0,0
251082,-100,4,2,4,41,0,0
258467,-100,4,2,4,61,0,0
260313,-100,4,2,4,41,0,0
265851,-100,4,2,4,51,0,0
267697,-100,4,2,4,31,0,0
272313,-100,4,2,4,14,0,0

[Colours]
Combo1 : 255,255,255
Combo2 : 73,73,73
Combo3 : 189,9,13
Combo4 : 165,157,191

[HitObjects]
193,133,40621,5,4,1:0:0:0:
296,194,41082,2,0,P|322:149|320:76,1,120,8|0,1:0|1:0,0:0:0:0:
280,57,41774,1,0,1:0:0:0:
302,14,42005,2,0,P|337:14|371:8,1,60,8|0,1:0|1:0,0:0:0:0:
408,0,42467,2,0,P|408:52|425:129,1,120,2|8,1:0|1:0,0:0:0:0:
490,216,43390,1,0,1:0:0:0:
464,256,43621,1,2,1:0:0:0:
491,295,43851,1,8,1:0:0:0:
371,310,44313,6,0,B|296:315|333:347|260:352,1,120,0|8,1:0|1:0,0:0:0:0:
225,320,45005,1,0,1:0:0:0:
177,322,45236,2,0,P|183:369|182:390,2,60,0|0|8,1:0|1:0|1:0,0:0:0:0:
116,218,46159,2,0,B|94:187|94:187|120:103,1,120,2|8,1:0|1:0,0:0:0:0:
84,74,46851,1,0,1:0:0:0:
43,48,47082,2,0,B|21:79|21:79|47:163,1,120,0|8,1:0|1:0,0:0:0:0:
157,201,48005,5,0,1:0:0:0:
250,125,48467,2,0,P|280:142|369:167,1,120,8|0,1:0|1:0,0:0:0:0:
404,145,49159,1,0,1:0:0:0:
441,175,49390,1,8,1:0:0:0:
411,291,49851,1,2,1:0:0:0:
304,235,50313,1,8,1:0:0:0:
201,296,50774,2,0,P|198:327|191:359,1,60,0|0,1:0|1:0,0:0:0:0:
149,377,51236,1,8,1:0:0:0:
33,345,51697,6,0,P|39:276|44:196,1,120,0|8,1:0|1:0,0:0:0:0:
33,177,52390,2,0,P|37:140|46:105,1,60,0|0,1:0|1:0,0:0:0:0:
76,84,52851,1,0,1:0:0:0:
68,36,53082,1,8,1:0:0:0:
183,3,53544,2,0,P|243:33|301:60,1,120,2|10,1:0|1:0,0:0:0:0:
278,101,54236,2,0,P|315:96|358:95,1,60,0|2,1:0|1:0,0:0:0:0:
371,128,54697,1,0,1:0:0:0:
415,108,54928,2,0,P|444:109|474:114,1,60,10|0,1:0|1:0,0:0:0:0:
503,153,55390,5,4,1:0:0:0:
414,233,55851,2,0,P|413:299|408:375,1,120,8|0,1:0|1:0,0:0:0:0:
362,361,56544,1,0,1:0:0:0:
319,338,56774,1,8,1:0:0:0:
227,260,57236,1,2,1:0:0:0:
132,333,57697,1,8,1:0:0:0:
89,310,57928,2,0,P|94:276|93:229,1,60,0|0,0:0|1:0,0:0:0:0:
74,206,58390,1,2,1:0:0:0:
91,161,58621,1,8,1:0:0:0:
190,94,59082,6,0,P|250:99|314:96,1,120,0|8,1:0|1:0,0:0:0:0:
353,115,59774,2,0,P|384:113|434:118,1,60,0|0,1:0|1:0,0:0:0:0:
439,74,60236,1,0,1:0:0:0:
483,93,60467,1,8,1:0:0:0:
435,203,60928,2,0,P|378:227|353:295,1,120,2|8,1:0|1:0,0:0:0:0:
379,317,61621,1,0,1:0:0:0:
424,333,61851,2,0,P|452:335|494:315,2,60,0|0|8,0:0|1:0|1:0,0:0:0:0:
313,363,62774,6,0,P|245:350|185:335,1,120,0|8,1:0|1:0,0:0:0:0:
171,296,63467,2,0,P|135:294|100:294,1,60,0|0,0:0|1:0,0:0:0:0:
74,263,63928,1,0,1:0:0:0:
28,277,64159,1,10,1:0:0:0:
13,157,64621,1,2,1:0:0:0:
130,182,65082,1,8,1:0:0:0:
168,153,65313,2,0,P|166:126|163:84,1,60,0|0,1:0|1:0,0:0:0:0:
142,50,65774,1,2,1:0:0:0:
169,10,66005,1,8,1:0:0:0:
258,89,66467,6,0,P|312:81|400:52,1,120,0|8,1:0|1:0,0:0:0:0:
412,33,67159,1,0,0:0:0:0:
438,72,67390,2,0,P|472:71|506:75,2,60,2|0|8,1:0|0:0|1:0,0:0:0:0:
376,175,68313,1,2,1:0:0:0:
346,213,68544,1,0,1:0:0:0:
354,260,68774,1,10,1:0:0:0:
458,319,69236,1,2,1:0:0:0:
466,272,69466,1,0,1:0:0:0:
436,234,69697,1,10,1:0:0:0:
491,129,70159,5,4,1:2:0:0:
256,192,70390,12,2,72005,1:0:0:0:
286,186,72928,6,0,L|214:214,2,60,0|0|10,1:0|1:0|1:0,0:0:0:0:
377,108,73851,2,0,B|410:173|410:173|385:211|385:211|421:278,1,180,2|0,1:0|1:0,0:0:0:0:
402,311,74774,2,0,L|436:368,2,60,0|0|10,0:0|1:0|1:0,0:0:0:0:
285,283,75697,6,0,B|217:271|217:271|134:349,1,180,2|0,1:0|1:0,0:0:0:0:
96,374,76621,2,0,L|32:351,2,60,0|0|10,0:0|1:0|1:0,0:0:0:0:
215,381,77544,1,2,1:0:0:0:
313,312,78005,1,8,1:0:0:0:
300,265,78236,1,0,0:1:0:0:
312,218,78467,1,0,1:0:0:0:
397,133,78928,2,0,L|374:8,1,120,10|2,1:0|1:0,0:0:0:0:
288,98,79851,5,10,1:0:0:0:
319,134,80082,1,0,0:0:0:0:
419,199,80544,1,2,1:0:0:0:
409,245,80774,1,10,1:0:0:0:
302,300,81236,2,0,B|263:167,1,120,2|10,1:0|1:0,0:0:0:0:
230,154,81928,2,0,L|208:212,2,60,0|2|2,0:0|1:0|1:0,0:0:0:0:
198,117,82621,1,10,1:0:0:0:
131,216,83082,6,0,P|156:289|162:343,1,120,2|8,1:0|1:0,0:0:0:0:
116,348,83774,2,0,P|100:364|66:383,2,60,0|0|0,0:0|1:0|1:0,0:0:0:0:
153,378,84467,1,10,1:0:0:0:
269,348,84928,2,0,P|244:275|238:221,1,120,2|8,1:0|1:0,0:0:0:0:
284,216,85620,2,0,P|300:200|334:181,2,60,0|0|0,0:0|1:0|1:0,0:0:0:0:
247,186,86313,1,10,1:0:0:0:
127,178,86774,5,2,1:0:0:0:
75,69,87236,1,8,1:0:0:0:
113,39,87467,1,0,0:0:0:0:
159,47,87697,2,0,L|230:42,1,60,0|0,1:0|1:0,0:0:0:0:
257,13,88159,1,10,1:0:0:0:
341,98,88621,2,0,P|351:183|357:223,1,120,2|8,1:0|1:0,0:0:0:0:
396,242,89313,1,0,0:0:0:0:
407,288,89544,2,0,P|390:308|366:340,1,60,0|0,1:0|1:0,0:0:0:0:
333,366,90005,1,10,1:0:0:0:
220,322,90467,6,0,P|210:237|204:197,1,120,2|8,1:0|1:0,0:0:0:0:
165,178,91159,1,0,0:0:0:0:
154,132,91390,2,0,P|171:112|195:80,2,60,0|0|10,1:0|1:0|1:0,0:0:0:0:
36,108,92313,2,0,P|30:170|21:251,1,120,2|8,1:0|1:0,0:0:0:0:
46,269,93005,1,0,0:1:0:0:
35,315,93236,1,0,1:0:0:0:
52,359,93467,2,0,P|95:353|136:351,1,60,0|10,1:0|1:0,0:0:0:0:
208,280,94159,5,2,1:0:0:0:
305,350,94621,1,10,1:0:0:0:
342,320,94851,1,0,0:0:0:0:
389,327,95082,2,0,P|416:323|453:319,2,60,2|2|10,1:0|1:0|1:0,0:0:0:0:
360,210,96005,1,2,1:0:0:0:
397,95,96467,1,10,1:0:0:0:
419,53,96697,1,0,0:0:0:0:
466,59,96928,1,2,1:0:0:0:
503,173,97390,1,10,1:0:0:0:
481,215,97620,1,0,0:0:0:0:
434,209,97851,6,0,P|362:209|291:218,1,120,2|8,1:0|1:0,0:0:0:0:
276,184,98544,1,0,0:0:0:0:
230,197,98774,1,0,1:0:0:0:
184,182,99005,2,0,P|160:177|106:181,1,60,0|10,1:0|1:0,0:0:0:0:
42,89,99697,2,0,P|41:190|39:245,1,120,2|10,1:0|1:0,0:0:0:0:
55,254,100390,1,0,0:0:0:0:
55,302,100621,2,0,P|49:336|38:373,2,60,2|0|10,1:0|0:0|1:0,0:0:0:0:
171,274,101544,5,0,1:0:0:0:
267,345,102005,2,0,P|327:313|333:150,1,240,8|8,1:0|1:0,0:0:0:0:
364,39,103390,1,0,1:0:0:0:
466,101,103851,2,0,P|467:184|476:349,1,240,8|8,1:0|1:0,0:0:0:0:
475,340,105236,6,0,P|402:328|285:314,1,180,0|2,1:0|0:1,0:0:0:0:
259,284,106159,2,0,P|221:296|184:298,2,60,0|2|10,1:0|1:0|1:0,0:0:0:0:
233,166,107082,2,0,P|226:107|226:17,1,120,2|2,1:0|1:0,0:0:0:0:
110,9,108005,1,2,1:0:0:0:
97,128,108467,2,0,P|34:137|19:137,1,60,10|0,1:0|0:0,0:0:0:0:
4,101,108928,6,0,P|11:178|14:239,1,120,2|10,1:0|1:0,0:0:0:0:
72,336,109851,1,0,1:0:0:0:
72,336,110082,1,2,1:0:0:0:
72,336,110313,1,8,1:0:0:0:
181,286,110774,2,0,P|250:257|273:247,1,60,2|0,1:0|0:0,0:0:0:0:
247,217,111236,2,0,P|314:236|382:242,2,120,10|0|10,1:0|1:0|1:0,0:0:0:0:
147,149,112621,6,0,P|137:216|119:287,1,120,0|8,1:0|1:0,0:0:0:0:
201,359,113544,1,0,1:0:0:0:
303,297,114005,1,8,1:0:0:0:
252,187,114467,2,0,P|251:146|385:119,1,180,2|0,1:2|0:0,0:0:0:0:
379,142,115390,2,0,P|426:135|456:136,2,60,0|0|8,1:0|1:0|1:0,0:0:0:0:
319,246,116313,6,0,P|319:275|310:325,1,60,4|0,0:1|0:0,0:0:0:0:
269,321,116774,2,0,P|269:350|273:380,2,60,4|0|4,1:1|0:0|0:1,0:0:0:0:
188,231,117697,1,4,1:0:0:0:
89,299,118159,1,4,0:1:0:0:
11,207,118621,1,4,1:0:0:0:
105,133,119082,2,0,P|103:78|103:-5,1,120,4|4,0:1|1:0,0:0:0:0:
61,36,119774,1,0,0:0:0:0:
27,69,120005,6,0,P|26:128|24:188,1,120,4|4,0:1|1:0,0:0:0:0:
55,225,120697,1,0,0:0:0:0:
46,272,120928,1,4,0:1:0:0:
145,339,121390,1,4,1:0:0:0:
169,297,121621,1,0,0:0:0:0:
216,297,121851,2,0,P|255:306|284:318,1,60,4|4,1:0|1:0,0:0:0:0:
280,360,122313,2,0,P|319:351|415:298,1,120,4|4,1:0|1:0,0:0:0:0:
377,197,123236,1,4,1:0:0:0:
412,165,123467,1,0,1:0:0:0:
397,119,123697,6,0,B|349:76|349:76|272:102,1,120,6|12,1:0|1:0,0:0:0:0:
248,86,124390,1,0,1:0:0:0:
218,123,124621,1,14,1:0:0:0:
107,77,125082,1,12,1:0:0:0:
209,6,125544,1,6,1:0:0:0:
209,6,125774,2,0,L|296:23,1,60,2|14,1:0|1:0,0:0:0:0:
282,63,126236,2,0,L|429:42,1,120,2|0,1:0|1:0,0:0:0:0:
437,14,126928,1,12,1:0:0:0:
494,119,127390,6,0,B|473:150|473:150|484:191|484:191|460:232,1,120,6|12,1:0|1:0,0:0:0:0:
421,247,128082,1,0,1:0:0:0:
429,294,128313,1,6,1:0:0:0:
320,344,128774,1,14,1:0:0:0:
257,241,129236,2,0,P|257:211|262:172,2,60,6|0|14,1:0|1:0|1:0,0:0:0:0:
146,289,130159,2,0,P|149:318|149:348,2,60,6|10|14,1:0|1:0|1:0,0:0:0:0:
38,234,131082,6,0,P|46:155|48:84,2,120,6|14|6,1:0|1:0|1:0,0:0:0:0:
73,266,132236,1,0,1:0:0:0:
119,252,132467,1,14,1:0:0:0:
138,133,132928,2,0,P|179:121|216:117,1,60,6|0,1:0|1:0,0:0:0:0:
229,153,133390,2,0,P|256:152|295:145,1,60,14|0,1:0|1:0,0:0:0:0:
323,114,133851,2,0,P|330:182|343:262,2,120,6|14|6,1:0|1:0|1:0,0:0:0:0:
348,73,135005,5,0,1:0:0:0:
315,38,135236,1,12,1:0:0:0:
431,9,135697,1,4,1:0:0:0:
479,118,136159,1,12,1:0:0:0:
479,118,136390,1,0,1:0:0:0:
479,118,136621,1,4,1:0:0:0:
401,209,137082,2,0,P|406:287|409:314,1,60,14|0,1:0|0:0,0:0:0:0:
432,308,137544,2,0,P|427:386|424:413,2,60,6|2|12,1:0|1:0|1:0,0:0:0:0:
316,340,138467,6,0,P|261:331|186:327,1,120,6|12,1:0|1:0,0:0:0:0:
157,299,139159,1,0,1:0:0:0:
117,326,139390,1,14,1:0:0:0:
35,237,139851,1,12,1:0:0:0:
133,168,140313,1,6,1:0:0:0:
133,168,140544,1,0,1:0:0:0:
133,168,140774,1,12,1:0:0:0:
207,262,141236,2,0,P|253:243|279:174,1,120,14|12,1:0|1:0,0:0:0:0:
257,138,141928,1,0,0:0:0:0:
282,97,142159,5,6,1:0:0:0:
192,16,142621,1,12,1:0:0:0:
101,94,143082,1,6,1:0:0:0:
56,111,143313,1,2,1:0:0:0:
13,87,143544,1,14,1:0:0:0:
108,14,144005,2,0,P|168:41|247:55,1,120,0|8,1:0|1:0,0:0:0:0:
297,144,144928,2,0,P|351:121|412:110,1,120,0|8,1:0|1:0,0:0:0:0:
490,200,145851,6,0,P|451:227|469:307,1,120,6|12,1:0|1:0,0:0:0:0:
422,329,146544,1,0,1:0:0:0:
377,311,146774,1,6,1:0:0:0:
265,266,147236,1,14,1:0:0:0:
219,281,147467,1,4,1:0:0:0:
214,328,147697,1,6,1:0:0:0:
95,346,148159,1,12,1:0:0:0:
47,341,148390,1,0,1:0:0:0:
26,297,148621,1,6,1:0:0:0:
100,202,149082,5,14,1:0:0:0:
69,164,149313,1,0,1:0:0:0:
90,120,149544,1,6,1:0:0:0:
60,82,149774,2,0,P|63:47|71:15,2,60,0|14|2,0:0|1:0|0:1,0:0:0:0:
166,137,150697,1,0,1:0:0:0:
166,137,150928,2,0,P|201:140|233:148,1,60,12|2,1:0|1:0,0:0:0:0:
256,182,151390,2,0,P|324:169|389:147,1,120,6|12,1:0|1:0,0:0:0:0:
396,111,152082,1,0,0:0:0:0:
441,126,152313,2,0,P|447:189|458:248,1,120,6|14,1:0|1:0,0:0:0:0:
378,335,153236,6,0,P|308:331|234:323,1,120,6|8,1:0|1:0,0:0:0:0:
159,257,154159,2,0,P|89:261|15:269,1,120,0|8,0:0|1:0,0:0:0:0:
28,146,155082,2,0,P|149:152|441:182,1,360,0|8,1:0|1:0,0:0:0:0:
464,266,156928,6,0,P|393:260|324:259,1,120,4|12,1:0|1:0,0:0:0:0:
300,238,157621,1,0,0:0:0:0:
269,275,157851,1,4,1:0:0:0:
160,326,158313,2,0,P|154:285|159:243,1,60,12|0,1:0|0:0,0:0:0:0:
189,233,158774,2,0,P|186:171|171:91,1,120,4|14,1:0|1:0,0:0:0:0:
146,76,159467,1,0,0:0:0:0:
172,36,159697,1,4,1:0:0:0:
282,83,160159,1,12,1:0:0:0:
382,17,160621,6,0,B|415:21|415:21|439:61,2,60,4|2|14,1:0|1:0|1:0,0:0:0:0:
339,39,161313,1,2,1:0:0:0:
293,24,161544,2,0,L|156:40,1,120,4|12,1:0|1:0,0:0:0:0:
54,50,162467,2,2,P|90:63|101:154,1,120,4|12,1:0|1:0,1:0:0:0:
78,170,163159,1,0,0:0:0:0:
81,217,163390,1,4,1:0:0:0:
168,298,163851,1,12,1:0:0:0:
249,209,164313,6,0,P|310:224|362:264,1,120,6|12,1:0|1:0,0:0:0:0:
328,296,165005,1,0,0:0:0:0:
346,340,165236,2,0,P|355:358|389:389,1,60,4|0,1:0|1:0,0:0:0:0:
428,370,165697,2,0,P|420:291|417:242,1,120,12|0,1:0|1:0,0:0:0:0:
417,250,166621,2,0,B|447:248|447:248|474:270,2,60,14|0|6,1:0|0:0|1:0,0:0:0:0:
377,222,167313,1,2,1:0:0:0:
331,236,167544,1,14,1:0:0:0:
240,157,168005,6,0,L|173:174,2,60,6|0|14,1:0|0:0|1:0,0:0:0:0:
261,114,168697,1,2,1:0:0:0:
307,124,168928,2,2,B|352:117|352:117|373:95|373:95|426:88,1,120,6|12,1:0|1:0,1:0:0:0:
307,38,169851,2,2,P|248:47|162:46,1,120,6|14,1:0|1:0,1:0:0:0:
143,66,170544,1,0,1:0:0:0:
104,37,170774,1,6,1:0:0:0:
39,138,171236,2,0,P|46:168|49:201,1,60,14|2,1:0|1:0,0:0:0:0:
94,210,171697,6,0,P|75:303|70:354,1,120,4|14,1:0|1:0,0:0:0:0:
113,351,172390,1,0,0:0:0:0:
157,333,172621,1,4,1:0:0:0:
185,216,173082,2,0,P|183:147|184:84,1,120,12|6,1:0|1:0,0:0:0:0:
152,59,173774,1,2,1:0:0:0:
177,18,174005,2,2,B|238:26|238:26|255:60|255:60|296:67,2,120,14|6|14,1:0|1:0|1:0,1:0:0:0:
65,62,175390,6,2,P|42:92|45:179,1,120,6|8,1:0|1:0,1:0:0:0:
88,178,176082,1,0,1:0:0:0:
93,225,176313,1,4,1:0:0:0:
178,308,176774,1,12,1:0:0:0:
178,308,177005,1,0,0:0:0:0:
178,308,177236,2,0,B|203:250|203:250|179:186,2,120,6|14|6,1:0|1:0|1:0,0:0:0:0:
284,364,178621,1,14,1:0:0:0:
322,250,179082,6,2,P|388:246|464:247,1,120,6|14,1:0|1:0,1:0:0:0:
473,210,179774,1,0,0:0:0:0:
447,169,180005,2,0,P|440:153|446:104,2,60,6|2|14,1:0|1:0|1:0,0:0:0:0:
327,158,180928,2,0,P|292:153|247:138,1,60,6|0,1:0|0:0,0:0:0:0:
246,103,181390,2,2,B|209:84|217:128|184:110|189:123|148:92|171:151|129:136|126:142,1,120,14|6,1:0|1:0,1:0:0:0:
89,117,182082,1,0,0:0:0:0:
57,153,182313,1,12,1:0:0:0:
104,263,182774,6,0,P|145:261|233:268,1,120,6|14,1:0|1:0,0:0:0:0:
263,294,183467,1,2,1:0:0:0:
259,341,183697,1,6,1:0:0:0:
141,367,184159,1,14,1:0:0:0:
31,310,184621,2,0,B|31:285|25:273|25:273|32:268|32:268|27:261|27:261|33:255|33:255|29:246|29:246|34:238|34:238|27:197,1,120,6|14,1:0|1:0,0:0:0:0:
75,91,185544,2,0,B|65:74|65:73|71:57|71:57|62:32,2,60,6|0|14,1:0|1:0|1:0,0:0:0:0:
122,99,186236,1,0,1:0:0:0:
155,133,186467,1,4,1:0:0:0:
342,91,187390,1,4,0:0:0:0:
393,276,188313,6,0,P|344:279|203:312,2,180,2|0|10,1:0|1:0|1:0,0:0:0:0:
355,161,190159,1,2,1:0:0:0:
400,49,190621,1,8,1:0:0:0:
400,49,190851,1,0,0:0:0:0:
463,151,191313,1,0,1:0:0:0:
463,151,191544,1,10,1:0:0:0:
343,164,192005,6,0,P|268:145|156:133,1,180,2|0,1:0|1:0,0:0:0:0:
143,91,192928,1,0,1:0:0:0:
37,148,193390,2,0,P|37:219|30:275,1,120,10|2,1:0|1:0,0:0:0:0:
147,314,194313,1,8,1:0:0:0:
147,314,194544,2,0,P|140:254|141:194,1,120,0|0,1:1|1:0,0:0:0:0:
144,146,195236,1,10,1:0:0:0:
230,63,195697,6,0,P|296:68|336:137,1,120,2|10,1:0|1:0,0:0:0:0:
306,148,196390,2,0,P|292:224|284:278,1,120,0|2,0:0|1:0,0:0:0:0:
310,307,197082,1,10,1:0:0:0:
428,284,197544,2,0,P|506:298|526:307,2,60,2|2|10,1:0|1:0|1:0,0:0:0:0:
398,246,198236,2,0,P|409:177|407:117,1,120,0|0,0:0|1:0,0:0:0:0:
420,80,198928,1,10,1:0:0:0:
315,20,199390,6,0,P|240:25|124:37,2,180,2|0|10,1:0|1:0|1:0,0:0:0:0:
257,125,201236,1,2,1:0:0:0:
288,240,201697,1,8,1:0:0:0:
288,240,201928,1,0,1:0:0:0:
228,344,202390,1,0,1:0:0:0:
228,344,202621,1,10,1:0:0:0:
175,236,203082,6,0,P|109:214|92:127,1,120,2|8,1:0|1:0,0:0:0:0:
41,155,203774,2,0,B|62:96|62:96|126:100,1,120,0|0,1:0|1:0,0:0:0:0:
148,60,204467,1,10,1:0:0:0:
252,1,204928,2,0,P|253:73|254:187,1,180,2|0,1:0|1:0,0:0:0:0:
252,229,205851,2,0,P|256:275|260:302,1,60,0|0,1:0|1:0,0:0:0:0:
257,336,206313,1,10,1:0:0:0:
141,367,206774,6,0,P|102:351|71:249,1,120,2|8,1:0|1:0,0:0:0:0:
93,245,207467,2,0,P|84:171|78:110,1,120,0|0,0:0|1:0,0:0:0:0:
45,91,208159,1,10,1:0:0:0:
136,12,208621,2,0,P|208:23|301:30,1,120,2|8,1:0|1:0,0:0:0:0:
281,67,209313,2,0,P|340:60|399:51,1,120,0|0,0:1|1:0,0:0:0:0:
432,16,210005,1,10,1:0:0:0:
501,113,210467,6,0,P|493:188|492:249,1,120,2|10,1:0|1:0,0:0:0:0:
462,270,211159,2,0,P|404:259|382:203,1,120,0|2,0:0|1:0,0:0:0:0:
338,185,211851,1,10,1:0:0:0:
259,276,212313,2,0,P|264:312|266:365,2,60,2|0|10,1:0|0:0|1:0,0:0:0:0:
230,237,213005,2,0,P|156:250|77:259,1,120,0|2,0:0|1:0,0:0:0:0:
68,233,213697,1,10,1:0:0:0:
123,126,214159,6,0,P|218:97|232:66,1,120,2|8,1:0|1:0,0:0:0:0:
197,45,214851,2,0,P|126:47|41:41,1,120,0|0,0:0|1:0,0:0:0:0:
36,18,215544,1,10,1:0:0:0:
36,137,216005,2,0,P|59:210|64:261,1,120,2|8,1:0|1:0,0:0:0:0:
57,300,216697,2,0,P|135:285|222:283,1,120,0|0,1:0|0:0,0:0:0:0:
212,251,217390,1,10,1:0:0:0:
256,268,217621,1,2,1:0:0:0:
290,235,217851,6,0,B|325:226|325:226|368:258|368:258|415:248,2,120,0|8|0,1:0|1:0|1:0,0:0:0:0:
197,157,219236,1,8,1:0:0:0:
114,69,219697,2,0,B|79:60|79:60|36:92|36:92|-11:82,2,120,0|8|0,1:0|1:0|1:0,0:0:0:0:
159,54,220851,1,0,1:0:0:0:
200,77,221082,1,8,1:0:0:0:
317,52,221544,6,0,B|356:27|356:27|471:76,1,120,0|8,1:0|1:0,0:0:0:0:
468,39,222236,2,0,L|409:158,1,120,0|0,1:0|0:0,0:0:0:0:
367,154,222928,1,8,1:0:0:0:
417,262,223390,2,0,P|451:320|472:345,1,60,0|0,1:0|0:0,0:0:0:0:
461,359,223851,2,0,P|391:341|328:331,1,120,8|0,1:0|0:0,0:0:0:0:
304,305,224544,1,0,1:0:0:0:
261,327,224774,1,8,1:0:0:0:
147,364,225236,6,0,P|149:290|145:231,1,120,0|8,1:0|1:0,0:0:0:0:
256,189,226159,1,0,0:0:0:0:
256,189,226390,1,0,0:0:0:0:
256,189,226621,2,0,P|219:188|177:186,1,60,8|0,1:0|0:0,0:0:0:0:
172,147,227082,2,0,P|132:113|49:103,2,120,0|8|0,1:0|1:0|0:0,0:0:0:0:
258,64,228467,1,8,1:0:0:0:
338,152,228928,6,0,B|366:144|372:95|383:63|341:12,1,120,2|8,1:2|1:0,0:0:0:0:
318,24,229621,1,0,1:0:0:0:
281,54,229851,2,0,P|232:54|191:45,2,60,0|0|8,0:0|1:0|1:0,0:0:0:0:
393,11,230774,2,0,P|464:17|522:20,1,120,0|8,1:0|1:0,0:0:0:0:
501,66,231467,1,0,1:0:0:0:
492,112,231697,1,0,1:0:0:0:
429,214,232159,1,8,1:0:0:0:
313,181,232621,6,0,P|247:196|219:201,2,60,4|0|12,1:0|0:0|1:0,0:0:0:0:
348,212,233313,1,0,1:0:0:0:
394,198,233544,2,0,P|382:284|380:341,1,120,4|12,1:0|1:0,0:0:0:0:
267,358,234467,2,0,P|262:298|253:238,1,120,4|12,1:0|1:0,0:0:0:0:
219,204,235159,1,0,1:0:0:0:
179,231,235390,1,4,1:0:0:0:
80,299,235851,2,0,B|67:325|67:325|75:359,1,60,12|0,1:0|1:0,0:0:0:0:
121,365,236313,6,0,L|110:223,1,120,6|12,1:0|1:0,0:0:0:0:
75,213,237005,1,0,1:0:0:0:
83,165,237236,1,14,1:0:0:0:
172,84,237697,1,12,1:0:0:0:
77,10,238159,2,0,L|61:78,1,60,6|2,1:0|1:0,0:0:0:0:
21,92,238621,2,0,L|5:160,1,60,14|2,1:0|1:0,0:0:0:0:
23,195,239082,1,12,1:0:0:0:
140,218,239544,1,12,1:0:0:0:
201,115,240005,6,0,P|267:128|329:141,1,120,6|12,1:0|1:0,0:0:0:0:
338,182,240697,1,0,1:0:0:0:
385,174,240928,1,6,1:0:0:0:
448,71,241390,1,14,1:0:0:0:
342,13,241851,2,0,P|292:26|267:103,1,120,6|14,1:0|1:0,0:0:0:0:
295,120,242544,1,0,1:0:0:0:
283,166,242774,1,6,1:0:0:0:
321,279,243236,1,14,1:0:0:0:
216,338,243697,6,0,L|135:354,2,60,6|0|14,1:0|0:0|1:0,0:0:0:0:
321,279,244621,2,0,L|379:290,2,60,6|0|14,1:0|1:0|1:0,0:0:0:0:
232,197,245544,2,0,B|192:187|192:187|155:221|155:221|100:226,1,120,6|14,1:0|1:0,0:0:0:0:
84,199,246236,1,0,1:0:0:0:
44,226,246467,1,6,1:0:0:0:
104,329,246928,1,14,1:0:0:0:
143,302,247159,1,2,1:0:0:0:
186,322,247390,5,6,1:0:0:0:
299,359,247851,1,12,1:0:0:0:
366,259,248313,1,4,1:0:0:0:
348,214,248544,1,0,1:0:0:0:
360,167,248774,1,12,1:0:0:0:
303,61,249236,2,0,P|230:62|163:68,1,120,4|14,1:0|1:0,0:0:0:0:
69,27,250159,1,6,1:0:0:0:
41,66,250390,1,2,1:0:0:0:
47,113,250621,1,12,1:0:0:0:
154,166,251082,6,0,P|251:176|542:221,1,360,6|2,1:0|0:0,0:0:0:0:
510,118,252928,2,0,P|444:124|247:155,1,240,2|2,0:1|0:1,0:0:0:0:
175,154,254313,2,0,P|179:220|179:245,1,60,2|0,0:0|0:0,0:0:0:0:
209,251,254774,6,0,P|202:179|209:-6,1,240,2|2,0:1|0:1,0:0:0:0:
307,77,256159,1,2,0:0:0:0:
408,0,256621,2,0,P|332:14|160:33,1,240,2|2,0:0|0:0,0:0:0:0:
0,27,258467,6,2,B|85:-17|205:18|174:234|311:270|409:220,1,480,2|2,1:0|0:0,1:0:0:0:
256,332,261236,1,2,0:1:0:0:
174,244,261697,1,2,0:1:0:0:
273,176,262159,5,2,0:0:0:0:
273,176,262390,2,0,L|343:191,1,60,2|2,0:1|0:1,0:0:0:0:
352,231,262851,2,0,P|420:197|414:62,1,180,2|2,0:1|0:0,0:0:0:0:
400,13,264005,2,0,L|138:54,1,240,2|2,0:1|0:1,0:0:0:0:
82,103,265390,1,2,0:0:0:0:
32,22,265851,6,2,B|117:-22|237:13|206:229|343:265|441:215,1,480,2|2,0:1|0:0,1:0:0:0:
256,192,269544,12,0,272313,0:0:0:0:
