osu file format v14

[General]
AudioFilename: audio.mp3
AudioLeadIn: 0
PreviewTime: 498
Countdown: 0
SampleSet: Normal
StackLeniency: 0.7
Mode: 0
LetterboxInBreaks: 0
WidescreenStoryboard: 1

[Editor]
Bookmarks: 22399,44222,66040,76949,98767,111040,132858,154676,165585,176494,191494,213312,235130,256778,256948,278766,289675,301948
DistanceSpacing: 0.4
BeatDivisor: 8
GridSize: 32
TimelineZoom: 1.2

[Metadata]
Title:Paranoid Parade
TitleUnicode:パラノイドパレード
Artist:Kinoko Teikoku
ArtistUnicode:きのこ帝国
Creator:Arsalan
Version:a blue flower-print dress
Source:
Tags:seros ロンググッドバイ Long Goodbye EP 佐藤千亜紀 sato chiaki paranoido pareedo japanese shoegaze rock
BeatmapID:4060628
BeatmapSetID:1959646

[Difficulty]
HPDrainRate:7
CircleSize:4
OverallDifficulty:8
ApproachRate:8
SliderMultiplier:1.6
SliderTickRate:1

[Events]
//Background and Video events
0,0,"One Piece is Real.jpg",0,0
//Break Periods
//Storyboard Layer 0 (Background)
//Storyboard Layer 1 (Fail)
//Storyboard Layer 2 (Pass)
//Storyboard Layer 3 (Foreground)
//Storyboard Layer 4 (Overlay)
//Storyboard Sound Samples

[TimingPoints]
669,681.818181818182,4,2,2,40,1,0
5101,750,4,2,2,40,1,0
6123,681.818181818182,4,2,2,40,1,0
21123,638.297872340426,4,2,2,40,1,0
21123,-400,4,2,2,40,0,0
22399,689.655172413793,4,1,1,60,1,0
22399,-40,4,1,1,60,0,0
23778,-66.6666666666667,4,1,1,60,0,0
24381,-66.6666666666667,4,1,1,5,0,0
24467,-40,4,1,1,60,0,0
26536,677.966101694915,4,1,1,60,1,0
26536,-66.6666666666667,4,1,1,60,0,0
27891,681.818181818182,4,1,1,60,1,0
27891,-40,4,1,1,60,0,0
29254,-66.6666666666667,4,1,1,60,0,0
29936,-40,4,1,1,60,0,0
31981,-66.6666666666667,4,1,1,60,0,0
32237,-66.6666666666667,4,1,1,5,0,0
32322,-100,4,1,1,60,0,0
32663,-40,4,1,1,60,0,0
32748,-40,4,1,1,5,0,0
32834,-66.6666666666667,4,1,1,60,0,0
33345,666.666666666667,4,1,1,60,1,0
33345,-40,4,1,1,60,0,0
34678,681.818181818182,4,1,1,60,1,0
34678,-40,4,1,1,60,0,0
36041,689.655172413793,4,1,1,60,1,0
36041,-40,4,1,1,60,0,0
38799,677.966101694915,4,1,1,60,1,0
38799,-40,4,1,1,60,0,0
43968,-40,4,1,1,5,0,0
44053,-40,4,1,1,60,0,0
44137,-40,4,1,1,5,0,0
44222,681.818181818182,4,1,1,65,1,0
44222,-50,4,1,1,65,0,0
45585,-50,4,1,1,50,0,0
45926,-66.6666666666667,4,1,1,50,0,0
46949,-50,4,1,1,50,0,0
47631,-66.6666666666667,4,1,1,50,0,0
49335,-100,4,1,1,50,0,0
49676,-50,4,1,1,50,0,0
50699,-100,4,1,1,50,0,0
51040,-66.6666666666667,4,1,1,50,0,0
52403,-50,4,1,1,50,0,0
53085,-66.6666666666667,4,1,1,50,0,0
55131,-50,4,1,1,65,0,0
56494,-50,4,1,1,50,0,0
56835,-66.6666666666667,4,1,1,50,0,0
57858,-50,4,1,1,50,0,0
58540,-66.6666666666667,4,1,1,50,0,0
60585,-50,4,1,1,50,0,0
61608,-100,4,1,1,50,0,0
61949,-66.6666666666667,4,1,1,50,0,0
63312,-50,4,1,1,50,0,0
65784,-50,4,1,1,5,0,0
65869,-50,4,1,1,50,0,0
65954,-50,4,1,1,5,0,0
66040,-50,4,1,1,50,0,0
76437,-100,4,1,1,50,0,0
76949,-50,4,1,1,65,0,0
78312,-50,4,1,1,50,0,0
78653,-66.6666666666667,4,1,1,50,0,0
79676,-50,4,1,1,50,0,0
80358,-66.6666666666667,4,1,1,50,0,0
82403,-50,4,1,1,50,0,0
82659,-50,4,1,1,5,0,0
82744,-50,4,1,1,50,0,0
83767,-66.6666666666667,4,1,1,50,0,0
85131,-50,4,1,1,50,0,0
86494,-66.6666666666667,4,1,1,50,0,0
86835,-100,4,1,1,50,0,0
87347,-66.6666666666667,4,1,1,50,0,0
87858,-50,4,1,1,65,0,0
89222,-50,4,1,1,50,0,0
89562,-66.6666666666667,4,1,1,50,0,0
91267,-50,4,1,1,50,0,0
91949,-66.6666666666667,4,1,1,50,0,0
93312,-50,4,1,1,50,0,0
94335,-66.6666666666667,4,1,1,50,0,0
96040,-50,4,1,1,50,0,0
97744,-66.6666666666667,4,1,1,50,0,0
98085,-40,4,1,1,50,0,0
98170,-40,4,1,1,5,0,0
98256,-40,4,1,1,50,0,0
98767,-66.6666666666667,4,1,1,60,0,0
98937,-66.6666666666667,4,1,1,5,0,0
99108,-66.6666666666667,4,1,1,60,0,0
99278,-66.6666666666667,4,1,1,5,0,0
99449,-50,4,1,1,60,0,0
100131,-66.6666666666667,4,1,1,60,0,0
100472,-66.6666666666667,4,1,1,60,0,0
100812,-50,4,1,1,60,0,0
101494,-66.6666666666667,4,1,1,60,0,0
101665,-66.6666666666667,4,1,1,5,0,0
101836,-66.6666666666667,4,1,1,60,0,0
102006,-66.6666666666667,4,1,1,5,0,0
102176,-50,4,1,1,60,0,0
102858,-66.6666666666667,4,1,1,60,0,0
103199,-66.6666666666667,4,1,1,60,0,0
103540,-50,4,1,1,60,0,0
104222,-66.6666666666667,4,1,1,60,0,0
104392,-66.6666666666667,4,1,1,5,0,0
104563,-66.6666666666667,4,1,1,60,0,0
104733,-66.6666666666667,4,1,1,5,0,0
104903,-50,4,1,1,60,0,0
105585,-66.6666666666667,4,1,1,60,0,0
105927,-66.6666666666667,4,1,1,60,0,0
106267,-50,4,1,1,60,0,0
106949,-66.6666666666667,4,1,1,60,0,0
107119,-66.6666666666667,4,1,1,5,0,0
107290,-66.6666666666667,4,1,1,60,0,0
107460,-66.6666666666667,4,1,1,5,0,0
107631,-50,4,1,1,60,0,0
108312,-66.6666666666667,4,1,1,60,0,0
110358,-133.333333333333,4,1,1,60,0,0
111040,681.818181818182,4,1,1,65,1,0
111040,-40,4,1,1,65,0,1
132858,-66.6666666666667,4,1,1,60,0,0
133540,-40,4,1,1,60,0,0
134221,-66.6666666666667,4,1,1,60,0,0
134903,-40,4,1,1,60,0,0
135585,-66.6666666666667,4,1,1,60,0,0
136267,-40,4,1,1,60,0,0
136949,-66.6666666666667,4,1,1,60,0,0
138227,-66.6666666666667,4,1,1,5,0,0
138312,-40,4,1,1,60,0,0
143767,-50,4,1,1,60,0,0
145130,-40,4,1,1,60,0,0
146494,-50,4,1,1,60,0,0
148028,-40,4,1,1,60,0,0
149221,-50,4,1,1,60,0,0
150755,-40,4,1,1,60,0,0
151949,-50,4,1,1,60,0,0
153312,-40,4,1,1,60,0,0
154676,-100,4,1,1,50,0,0
165585,-66.6666666666667,4,1,1,50,0,0
175812,-66.6666666666667,4,1,1,60,0,0
176494,-66.6666666666667,4,1,1,60,0,0
176665,-66.6666666666667,4,1,1,5,0,0
176836,-66.6666666666667,4,1,1,60,0,0
177006,-66.6666666666667,4,1,1,5,0,0
177176,-50,4,1,1,60,0,0
177858,-66.6666666666667,4,1,1,60,0,0
178028,-66.6666666666667,4,1,1,5,0,0
178199,-66.6666666666667,4,1,1,60,0,0
178539,-50,4,1,1,60,0,0
179221,-66.6666666666667,4,1,1,60,0,0
179392,-66.6666666666667,4,1,1,5,0,0
179563,-66.6666666666667,4,1,1,60,0,0
179733,-66.6666666666667,4,1,1,5,0,0
179903,-50,4,1,1,60,0,0
180585,-66.6666666666667,4,1,1,60,0,0
180755,-66.6666666666667,4,1,1,5,0,0
180926,-66.6666666666667,4,1,1,60,0,0
181267,-50,4,1,1,60,0,0
181949,-66.6666666666667,4,1,1,60,0,0
182119,-66.6666666666667,4,1,1,5,0,0
182290,-66.6666666666667,4,1,1,60,0,0
182460,-66.6666666666667,4,1,1,5,0,0
182630,-50,4,1,1,60,0,0
183312,-66.6666666666667,4,1,1,60,0,0
183483,-66.6666666666667,4,1,1,5,0,0
183654,-66.6666666666667,4,1,1,60,0,0
183994,-50,4,1,1,60,0,0
184676,-66.6666666666667,4,1,1,60,0,0
184846,-66.6666666666667,4,1,1,5,0,0
185017,-66.6666666666667,4,1,1,60,0,0
185187,-66.6666666666667,4,1,1,5,0,0
185358,-50,4,1,1,60,0,0
186039,-66.6666666666667,4,1,1,60,0,0
186721,-40,4,1,1,60,0,0
188085,-133.333333333333,4,1,1,60,0,0
188767,-100,4,1,1,60,0,0
189449,-66.6666666666667,4,1,1,60,0,0
190130,-133.333333333333,4,1,1,60,0,0
191494,681.818181818182,4,1,1,45,1,0
191494,-100,4,2,1,45,0,0
211607,-66.6666666666667,4,1,1,45,0,0
212033,-66.6666666666667,4,1,1,5,0,0
212119,-66.6666666666667,4,1,1,45,0,0
212630,-133.333333333333,4,1,1,45,0,0
213312,-40,4,1,1,65,0,1
220726,-40,4,1,1,5,0,1
220812,-40,4,1,1,65,0,1
226181,-40,4,1,1,5,0,1
226266,-40,4,1,1,65,0,1
235130,-50,4,1,1,60,0,0
244675,-40,4,1,1,60,0,0
246039,-50,4,1,1,60,0,0
251494,-40,4,1,1,60,0,0
252090,-40,4,1,1,5,0,0
252175,-40,4,1,1,60,0,0
254221,-50,4,1,1,60,0,0
254903,-40,4,1,1,60,0,0
256351,-40,4,1,1,5,0,0
256437,-40,4,1,1,60,0,0
256522,-40,4,1,1,5,0,0
256607,-40,4,1,1,60,0,0
256692,-40,4,1,1,5,0,0
256778,-40,4,1,1,60,0,0
256863,-40,4,1,1,5,0,0
256948,-43.4782608695652,4,1,1,60,0,0
276039,-33.3333333333333,4,1,1,60,0,0
276295,-33.3333333333333,4,1,1,5,0,0
276380,-50,4,1,1,60,0,0
276721,-33.3333333333333,4,1,1,60,0,0
276976,-33.3333333333333,4,1,1,5,0,0
277062,-50,4,1,1,60,0,0
277403,-33.3333333333333,4,1,1,60,0,0
277658,-33.3333333333333,4,1,1,5,0,0
277744,-50,4,1,1,60,0,0
278766,-50,4,1,1,50,0,0
280130,-50,4,1,1,50,0,0
298965,-50,4,1,1,5,0,0
299562,-66.6666666666667,4,1,1,50,0,0
300414,-66.6666666666667,4,1,1,15,0,0

[Colours]
Combo1 : 122,199,175
Combo2 : 85,135,176
Combo3 : 73,89,165
Combo4 : 192,192,192
Combo5 : 128,128,128
Combo6 : 213,163,130
Combo7 : 255,0,0
Combo8 : 242,245,137

[HitObjects]
17,325,669,6,0,P|62:337|97:371,1,80,2|0,2:2|0:2,0:0:0:0:
90,372,1180,1,2,2:2:0:0:
111,221,1351,2,0,P|139:252|152:289,1,80,2|0,2:2|0:2,0:0:0:0:
146,301,1862,1,2,2:2:0:0:
250,196,2032,6,0,P|297:205|338:209,1,80,2|0,2:2|0:2,0:0:0:0:
342,220,2544,1,2,2:2:0:0:
164,139,2714,2,0,P|150:96|162:54,1,80,2|0,2:2|0:2,0:0:0:0:
170,55,3226,1,2,2:2:0:0:
244,215,3396,102,0,L|71:247,2,160,2|2|2,2:2|2:2|2:2,0:0:0:0:
404,332,5101,2,0,L|493:346,2,80,2|2|2,0:2|2:2|0:2,0:0:0:0:
292,384,6123,6,0,P|255:351|250:320,1,80,0|0,0:2|0:2,0:0:0:0:
262,310,6635,1,2,2:2:0:0:
119,345,6805,2,0,P|132:290|161:270,1,80,2|0,2:2|0:2,0:0:0:0:
163,279,7317,1,2,2:2:0:0:
40,260,7487,102,0,P|27:208|16:179,1,80,2|0,2:2|0:2,0:0:0:0:
4,171,7998,1,2,2:2:0:0:
158,199,8169,2,0,B|225:177|192:146|253:121,1,120,2|2,2:2|2:2,0:0:0:0:
270,217,8851,6,0,L|300:33,1,160,2|2,2:2|2:2,0:0:0:0:
136,325,9873,102,0,B|112:322|102:367|45:364,1,80,2|2,2:2|2:2,0:0:0:0:
49,354,10385,1,2,0:2:0:0:
153,339,10555,6,0,P|212:345|317:355,1,160,2|0,0:2|0:2,0:0:0:0:
323,365,11407,1,2,2:2:0:0:
190,250,11578,102,0,P|182:198|209:170,1,80,2|0,2:2|0:2,0:0:0:0:
213,176,12089,1,2,2:2:0:0:
119,310,12260,2,0,P|85:290|72:248,1,80,2|0,2:2|0:2,0:0:0:0:
83,240,12771,1,2,2:2:0:0:
263,329,12942,6,0,L|431:360,2,160,2|2|2,2:2|2:2|2:2,0:0:0:0:
65,361,14646,2,0,L|-20:376,2,80,2|2|0,0:2|2:2|0:2,0:0:0:0:
174,384,15669,5,2,2:2:0:0:
300,249,16010,5,2,2:2:0:0:
214,307,16351,69,2,2:2:0:0:
105,225,16692,101,2,2:2:0:0:
250,103,17032,6,0,P|312:106|336:125,1,80,2|0,2:2|0:2,0:0:0:0:
333,132,17544,1,2,2:2:0:0:
190,212,17714,2,0,P|165:164|172:87,1,120,2|2,2:2|2:2,0:0:0:0:
199,198,18396,6,0,P|153:216|111:204,1,80,2|0,2:2|0:2,0:0:0:0:
113,199,18907,1,2,2:2:0:0:
267,254,19078,2,0,B|314:272|292:313|359:336,1,120,2|2,2:2|2:2,0:0:0:0:
369,325,19760,101,2,2:2:0:0:
140,378,20101,2,0,P|100:363|56:355,2,80,2|2|0,2:2|2:2|0:2,0:0:0:0:
248,225,21123,22,0,B|255:182|263:203|270:158,1,70,2|0,2:2|0:2,0:0:0:0:
194,136,22399,21,4,3:1:0:0:
305,288,22571,2,0,P|359:296|400:259,1,100
360,255,22916,1,0,3:0:0:0:
166,370,23088,2,0,P|93:321|114:192,1,200,8|0,0:2|0:0,0:0:0:0:
401,36,23778,22,0,P|434:49|525:78,1,120.000004577637,0|0,3:0|0:0,0:0:0:0:
392,25,24295,2,0,L|363:31,1,30.0000011444092,0|0,3:0|0:0,0:0:0:0:
260,150,24467,2,0,P|189:122|167:0,1,200,8|0,0:2|0:0,0:0:0:0:
463,96,25157,85,0,3:0:0:0:
407,256,25330,2,0,B|389:202|353:229|335:168,1,100
362,173,25674,1,0,3:0:0:0:
298,360,25847,2,0,P|190:342|160:241,1,200,8|0,0:2|0:0,0:0:0:0:
418,337,26536,22,0,B|491:356|450:361|533:382,1,120.000004577637,0|0,3:0|0:0,0:0:0:0:
446,329,27044,1,0,3:0:0:0:
252,370,27213,101,8,0:2:0:0:
142,334,27383,1,0,0:0:0:0:
174,223,27552,1,0,0:0:0:0:
282,257,27722,1,0,0:0:0:0:
252,370,27891,101,0,3:0:0:0:
69,266,28061,2,0,P|73:204|113:180,1,100
92,265,28402,1,0,3:0:0:0:
0,100,28572,2,0,P|49:36|174:44,1,200,8|0,0:2|0:0,0:0:0:0:
393,153,29254,22,0,P|444:143|516:114,1,120.000004577637,0|0,3:0|0:0,0:0:0:0:
380,290,29766,1,0,3:0:0:0:
380,290,29851,1,0,0:0:0:0:
380,290,29936,2,0,P|309:286|274:155,1,200,8|0,0:2|0:0,0:0:0:0:
393,153,30618,85,0,3:0:0:0:
293,302,30788,2,0,P|235:298|202:259,1,100
233,270,31129,1,0,3:0:0:0:
67,348,31300,2,0,P|1:271|44:163,1,200,8|0,0:2|0:0,0:0:0:0:
264,184,31981,86,0,B|278:131|246:141|260:89,1,90.0000034332277,0|0,3:0|0:0,0:0:0:0:
258,96,32322,2,0,B|249:80|249:80|253:60|253:60|252:48,1,40,2|2,0:1|2:1,0:0:0:0:
335,222,32663,6,0,P|372:235|406:244,1,50,12|0,0:2|0:0,0:0:0:0:
187,334,32834,6,0,P|141:339|55:369,1,120.000004577637,2|0,0:0|0:0,0:0:0:0:
273,379,33345,37,0,3:0:0:0:
206,250,33511,2,0,P|238:212|223:154,1,100
188,241,33845,1,0,3:0:0:0:
393,164,34011,2,0,P|394:90|276:27,1,200,8|0,0:2|0:0,0:0:0:0:
464,23,34678,5,0,3:0:0:0:
393,164,34848,2,0,P|332:171|300:141,1,100
379,144,35189,1,0,3:0:0:0:
245,297,35359,2,0,P|191:261|197:126,1,200,8|0,0:2|0:0,0:0:0:0:
337,267,36041,101,0,3:0:0:0:
188,136,36213,2,0,P|142:151|122:205,1,100
161,126,36558,1,0,3:0:0:0:
180,344,36730,2,0,P|274:367|346:294,1,200,8|0,0:2|0:0,0:0:0:0:
203,216,37420,5,0,3:0:0:0:
74,352,37592,2,0,P|36:317|44:260,1,100
95,335,37937,1,0,3:0:0:0:
50,157,38109,69,8,0:2:0:0:
151,99,38282,1,0,0:0:0:0:
216,193,38454,1,0,0:0:0:0:
117,254,38627,1,0,0:0:0:0:
151,99,38799,21,0,3:0:0:0:
308,194,38968,2,0,P|339:149|321:101,1,100
298,174,39307,1,0,3:0:0:0:
465,101,39476,2,0,P|434:38|306:15,1,200,8|0,0:2|0:0,0:0:0:0:
132,177,40154,5,0,3:0:0:0:
267,82,40324,2,0,P|303:106|312:159,1,100
242,89,40663,1,0,3:0:0:0:
367,234,40832,2,0,P|311:303|192:292,1,200,8|0,0:2|0:0,0:0:0:0:
400,377,41510,101,0,3:0:0:0:
507,222,41680,2,0,P|473:182|418:179,1,100
496,242,42019,1,0,3:0:0:0:
353,115,42188,2,0,P|280:161|287:280,1,200,12|0,0:2|0:0,0:0:0:0:
366,274,42697,86,0,P|397:265|426:261,1,50
502,204,42866,69,0,3:0:0:0:
353,115,43036,1,0,0:0:0:0:
251,219,43205,1,0,0:0:0:0:
169,190,43375,1,0,3:0:0:0:
56,255,43544,22,0,B|124:223|124:223|181:277,1,150,12|0,0:2|0:0,0:0:0:0:
252,312,43883,6,0,B|250:349|240:330|241:376,1,50
263,239,44053,6,0,B|265:276|275:257|274:303,1,50
353,364,44222,22,0,P|456:319|430:134,2,320,6|8|2,3:1|0:2|0:1,0:0:0:0:
183,294,45926,2,0,P|161:276|108:270,1,60.0000022888184,2|0,3:1|0:0,0:0:0:0:
200,283,46267,1,8,0:2:0:0:
105,357,46437,2,0,P|52:349|30:273,1,120.000004577637,2|0,3:1|0:0,0:0:0:0:
170,152,46949,6,0,P|233:206|319:175,1,160,2|0,3:1|0:0,0:0:0:0:
94,207,47631,2,0,P|52:167|88:46,1,180.000006866455,8|0,0:2|0:0,0:0:0:0:
95,48,48312,101,0,0:0:0:0:
72,135,48483,2,0,P|47:126|8:120,1,60.0000022888184,0|2,0:0|3:1,0:0:0:0:
113,59,48824,2,0,P|151:45|190:36,2,60.0000022888184,0|8|2,0:0|0:2|3:1,0:0:0:0:
7,132,49335,2,0,P|-12:122|-20:94,1,40
131,71,49676,6,0,B|267:131|182:199|310:243,1,240,2|0,3:1|0:0,0:0:0:0:
480,158,50358,2,0,P|435:152|385:139,1,80,8|0,0:2|0:0,0:0:0:0:
303,224,50699,2,0,P|330:217|353:213,1,40,2|0,0:1|0:0,0:0:0:0:
471,329,51040,101,0,0:1:0:0:
402,378,51210,2,0,P|372:372|350:351,2,60.0000022888184,0|2|0,0:0|3:1|0:0,0:0:0:0:
483,346,51722,1,8,0:2:0:0:
344,327,51892,2,0,B|287:342|322:363|234:387,1,120.000004577637,2|0,3:1|0:0,0:0:0:0:
63,294,52403,6,0,P|75:216|166:177,1,160,2|0,3:1|0:0,0:0:0:0:
140,176,52915,1,0,0:0:0:0:
233,274,53085,5,8,0:2:0:0:
233,274,53256,1,0,0:0:0:0:
233,274,53426,1,2,0:1:0:0:
233,274,53597,1,0,0:0:0:0:
170,343,53767,5,0,0:0:0:0:
170,343,53937,1,0,0:0:0:0:
170,343,54108,2,0,P|134:351|91:365,1,60.0000022888184,2|0,3:1|0:0,0:0:0:0:
252,360,54449,5,8,0:2:0:0:
149,258,54619,2,0,B|137:187|105:220|92:146,1,120.000004577637,2|0,3:1|0:0,0:0:0:0:
250,22,55131,54,0,P|335:35|455:235,2,320,6|8|2,3:1|0:2|0:1,0:0:0:0:
126,109,56835,2,0,B|92:122|109:128|58:148,1,60.0000022888184,2|0,3:1|0:0,0:0:0:0:
141,124,57176,1,8,0:2:0:0:
0,95,57347,2,0,P|10:43|75:28,1,120.000004577637,2|0,3:1|0:0,0:0:0:0:
279,121,57858,6,0,P|273:206|201:231,1,160,2|0,3:1|0:0,0:0:0:0:
5,214,58540,2,0,B|102:249|34:299|129:337,1,180.000006866455,8|0,0:2|0:0,0:0:0:0:
137,345,59222,102,0,P|167:332|182:299,1,60.0000022888184,2|0,0:1|0:0,0:0:0:0:
59,294,59562,2,0,P|18:306|-7:312,2,60.0000022888184,2|0|8,3:1|0:0|0:2,0:0:0:0:
146,331,60074,2,0,P|208:348|279:364,1,120.000004577637,2|0,3:1|0:0,0:0:0:0:
491,374,60585,6,0,P|474:305|319:259,1,240,2|0,3:1|0:0,0:0:0:0:
409,363,61267,2,0,P|457:345|471:317,1,80,8|0,0:2|0:0,0:0:0:0:
327,255,61608,2,0,P|326:280|331:298,1,40,2|0,0:1|0:0,0:0:0:0:
458,306,61949,101,0,0:1:0:0:
403,245,62119,2,0,P|378:245|347:265,2,60.0000022888184,0|2|0,0:0|3:1|0:0,0:0:0:0:
447,328,62631,1,8,0:2:0:0:
326,279,62801,2,0,P|295:235|315:172,1,120.000004577637,2|0,3:1|0:0,0:0:0:0:
468,48,63312,6,0,P|478:115|408:159,1,160,2|0,3:1|0:0,0:0:0:0:
407,158,63824,1,0,0:0:0:0:
284,77,63994,5,8,0:2:0:0:
229,53,64165,1,0,0:0:0:0:
189,96,64335,1,2,0:1:0:0:
244,115,64506,1,0,0:0:0:0:
295,75,64676,5,0,0:0:0:0:
226,45,64847,1,0,0:0:0:0:
175,101,65017,1,2,3:1:0:0:
248,124,65188,1,0,0:0:0:0:
304,72,65358,5,8,0:2:0:0:
230,128,65528,2,0,B|169:152|209:185|142:211,1,120,2|0,3:1|0:0,0:0:0:0:
147,208,65869,2,0,P|176:219|194:226,1,40
351,280,66040,38,0,B|275:253|275:253|214:310,1,160,6|0,3:1|0:0,0:0:0:0:
217,307,66551,1,2,0:1:0:0:
144,370,66722,102,0,P|128:315|115:278,1,80,8|0,0:2|0:0,0:0:0:0:
242,229,67062,1,2,0:1:0:0:
242,229,67403,5,0,0:0:0:0:
309,174,67574,1,0,0:0:0:0:
259,106,67744,2,0,P|265:66|264:24,1,80,2|0,3:1|0:0,0:0:0:0:
384,90,68085,101,8,0:2:0:0:
384,90,68256,1,2,3:1:0:0:
463,115,68426,1,0,0:0:0:0:
491,32,68597,1,0,0:0:0:0:
407,7,68767,5,2,3:1:0:0:
239,127,69108,2,0,B|186:118|212:111|156:101,1,80,0|2,0:0|0:1,0:0:0:0:
301,72,69449,101,8,0:2:0:0:
144,109,69790,2,0,P|130:147|151:184,1,80,2|0,0:1|0:0,0:0:0:0:
257,170,70131,5,0,0:0:0:0:
299,187,70301,1,0,0:0:0:0:
341,206,70472,1,2,3:1:0:0:
376,229,70642,1,0,0:0:0:0:
215,232,70812,101,8,0:2:0:0:
289,214,70983,1,2,3:1:0:0:
362,197,71153,1,0,0:0:0:0:
436,184,71324,1,0,0:0:0:0:
502,303,71494,6,0,P|451:317|387:241,1,160,2|0,3:1|0:0,0:0:0:0:
386,244,72006,1,2,0:1:0:0:
440,356,72176,102,0,P|389:367|354:377,1,80,8|0,0:2|0:0,0:0:0:0:
214,293,72517,1,2,0:1:0:0:
214,293,72858,5,0,0:0:0:0:
267,357,73028,1,0,0:0:0:0:
331,300,73199,1,2,3:1:0:0:
143,343,73540,101,8,0:2:0:0:
84,281,73710,1,2,3:1:0:0:
13,326,73881,1,0,0:0:0:0:
73,384,74051,1,0,0:0:0:0:
143,343,74222,6,0,P|174:294|109:212,1,160,2|0,3:1|0:0,0:0:0:0:
125,215,74733,1,2,0:1:0:0:
247,111,74903,102,0,L|416:148,2,160,8|2|0,0:2|0:1|0:0,0:0:0:0:
373,116,75926,1,2,3:1:0:0:
169,150,76267,5,8,0:2:0:0:
241,195,76437,2,0,B|250:241|261:218|271:270,1,80,2|0,3:1|0:0,0:0:0:0:
475,359,76949,6,0,P|483:241|297:175,2,320,6|8|2,3:1|0:2|0:1,0:0:0:0:
283,339,78653,2,0,P|258:316|255:281,1,60.0000022888184,2|0,3:1|0:0,0:0:0:0:
307,332,78994,1,8,0:2:0:0:
169,285,79165,2,0,P|179:238|245:203,1,120.000004577637,2|0,3:1|0:0,0:0:0:0:
190,366,79676,6,0,P|117:379|50:305,1,160,2|0,3:1|0:0,0:0:0:0:
56,326,80187,1,0,0:0:0:0:
147,232,80358,2,0,P|141:206|104:183,1,60.0000022888184,8|0,0:2|0:0,0:0:0:0:
39,213,80699,1,2,0:1:0:0:
39,213,80869,1,0,0:0:0:0:
164,251,81040,102,0,P|211:234|281:219,2,120.000004577637,0|2|8,0:0|3:1|0:2,0:0:0:0:
116,185,81892,2,0,P|101:151|81:111,2,60.0000022888184,2|0|0,3:1|0:0|0:0,0:0:0:0:
187,255,82403,6,0,P|157:316|104:325,1,120,2|0,3:1|0:0,0:0:0:0:
110,326,82744,2,0,L|278:357,2,160,0|8|2,0:0|0:2|0:1,0:0:0:0:
289,347,83767,101,2,0:1:0:0:
349,290,83937,2,0,P|336:259|296:242,2,60.0000022888184,0|2|0,0:0|3:1|0:0,0:0:0:0:
293,248,84449,1,8,0:2:0:0:
404,352,84619,2,0,P|453:335|474:259,1,120.000004577637,2|0,3:1|0:0,0:0:0:0:
402,190,85131,6,0,B|383:135|372:165|349:103,1,80,2|0,3:1|0:0,0:0:0:0:
505,22,85472,2,0,P|476:77|382:90,2,160,0|8|2,0:0|0:2|0:1,0:0:0:0:
469,37,86324,1,2,0:1:0:0:
419,178,86494,6,0,P|444:184|476:202,1,60.0000022888184,2|0,0:1|0:0,0:0:0:0:
365,101,86835,2,0,P|352:84|347:61,1,40,2|0,3:1|0:0,0:0:0:0:
451,100,87176,21,8,0:2:0:0:
332,175,87347,2,0,B|264:196|308:222|236:243,1,120.000004577637,2|0,3:1|0:0,0:0:0:0:
0,48,87858,54,0,P|147:6|272:123,2,320,6|8|2,3:1|0:2|0:1,0:0:0:0:
209,131,89562,2,0,P|240:132|277:103,1,60.0000022888184,0|0,3:0|0:0,0:0:0:0:
188,114,89903,1,8,0:2:0:0:
355,187,90074,2,0,P|369:145|336:77,1,120.000004577637,2|0,3:1|0:0,0:0:0:0:
100,87,90585,101,2,3:1:0:0:
217,203,90812,69,2,0:1:0:0:
263,47,91040,21,2,0:1:0:0:
188,114,91267,38,0,P|239:170|334:170,1,160,8|2,0:2|0:1,0:0:0:0:
319,176,91778,1,0,0:0:0:0:
203,249,91949,102,0,P|172:258|135:242,2,60.0000022888184,2|0|0,0:1|0:0|3:0,0:0:0:0:
307,193,92460,2,0,L|321:271,1,60.0000022888184,0|8,0:0|0:2,0:0:0:0:
259,317,92801,2,0,P|215:278|136:285,1,120.000004577637,2|0,3:1|0:0,0:0:0:0:
8,356,93312,6,0,P|74:362|134:285,2,160,2|0|8,3:1|0:0|0:2,0:0:0:0:
140,332,94335,2,0,P|174:337|210:341,1,60.0000022888184,2|0,0:1|0:0,0:0:0:0:
346,374,94676,101,0,0:0:0:0:
407,318,94847,2,0,P|395:273|388:238,2,60.0000022888184,0|2|0,0:0|3:1|0:0,0:0:0:0:
431,333,95358,1,8,0:2:0:0:
312,244,95528,2,0,B|323:184|357:206|361:133,1,120.000004577637,2|0,3:1|0:0,0:0:0:0:
512,29,96040,6,0,P|397:-3|278:148,2,320,2|8|0,3:1|0:2|0:0,0:0:0:0:
258,152,97744,6,0,B|253:121|253:121|255:117|255:117|245:74,1,60.0000022888184,6|0,3:1|0:0,0:0:0:0:
326,45,98085,38,0,B|349:57|349:57|351:60|351:60|397:57,1,50,14|0,0:2|0:0,0:0:0:0:
179,188,98256,102,0,B|131:174|131:174|76:212,1,100,6|0,3:1|0:0,0:0:0:0:
490,364,98767,22,0,P|501:331|489:296,1,60.0000022888184,6|0,3:1|0:0,0:0:0:0:
422,365,99108,2,0,P|451:376|491:367,1,60.0000022888184,2|0,3:1|0:0,0:0:0:0:
394,220,99449,6,0,B|285:177|344:144|186:90,1,240,8|0,0:2|0:0,0:0:0:0:
18,178,100131,6,0,P|53:217|75:286,1,120.000004577637,2|2,3:1|3:1,0:0:0:0:
58,192,100642,1,0,0:0:0:0:
175,359,100812,6,0,P|248:376|360:259,1,240,12|0,0:2|0:0,0:0:0:0:
64,115,101494,70,0,P|50:87|17:62,1,60.0000022888184,6|0,3:1|0:0,0:0:0:0:
85,9,101835,2,0,P|67:43|62:83,1,60.0000022888184,2|0,3:1|0:0,0:0:0:0:
180,226,102176,6,0,P|278:196|420:170,1,240,8|0,0:2|0:0,0:0:0:0:
502,40,102858,6,0,P|479:-4|418:7,1,120.000004577637,2|2,3:1|3:1,0:0:0:0:
511,11,103369,1,0,0:0:0:0:
263,75,103540,6,0,B|218:113|244:204|299:148|327:248|261:291,1,240,14|0,0:2|0:0,0:0:0:0:
33,361,104222,70,0,P|2:350|-13:321,1,60.0000022888184,6|0,3:1|0:0,0:0:0:0:
72,332,104562,2,0,P|73:367|51:385,1,60.0000022888184,2|0,3:1|0:0,0:0:0:0:
136,207,104903,6,0,P|229:244|377:290,1,240,8|0,0:2|0:0,0:0:0:0:
484,169,105585,6,0,P|494:116|517:45,1,120.000004577637,2|2,3:1|3:1,0:0:0:0:
512,148,106097,1,0,0:0:0:0:
286,209,106267,6,0,P|195:159|213:32,1,240,12|0,0:2|0:0,0:0:0:0:
467,282,106949,70,0,P|473:325|455:345,1,60.0000022888184,6|0,3:1|0:0,0:0:0:0:
401,346,107290,2,0,P|437:350|462:371,1,60.0000022888184,2|0,3:1|0:0,0:0:0:0:
259,384,107631,6,0,P|250:278|233:127,1,240,8|2,0:2|0:0,0:0:0:0:
266,196,108312,6,0,P|250:256|235:319,1,120.000004577637,0|2,3:2|3:1,0:0:0:0:
272,381,108824,1,0,0:0:0:0:
253,179,108994,6,0,P|242:97|231:37,1,120.000004577637,12|2,0:2|2:3,0:0:0:0:
235,60,109506,1,0,0:0:0:0:
146,139,109676,5,12,0:2:0:0:
371,204,109847,1,0,3:0:0:0:
203,321,110017,5,0,3:0:0:0:
312,289,110187,1,0,3:0:0:0:
262,101,110358,6,0,P|267:56|276:3,1,90.0000034332277,12|0,0:2|2:0,0:0:0:0:
471,257,111040,54,0,P|425:321|288:301,1,200,4|0,3:1|0:0,0:0:0:0:
244,273,111551,1,0,3:0:0:0:
152,85,111721,2,0,P|198:21|335:41,1,200,8|0,0:2|0:0,0:0:0:0:
375,75,112233,1,0,0:0:0:0:
214,177,112403,5,0,3:0:0:0:
289,111,112574,2,0,P|296:154|311:216,1,100
383,157,112915,1,0,3:0:0:0:
321,295,113085,2,0,P|244:311|151:235,1,200,8|0,0:2|0:0,0:0:0:0:
188,164,113596,1,0,0:0:0:0:
328,284,113767,101,0,3:0:0:0:
270,348,113937,2,0,P|211:358|159:373,1,100
107,314,114278,1,0,3:0:0:0:
345,384,114449,2,0,P|403:347|409:219,2,200,8|0|0,0:2|0:0|3:0,0:0:0:0:
229,324,115301,5,0,0:0:0:0:
307,292,115471,1,0,0:0:0:0:
365,352,115642,1,0,3:0:0:0:
171,383,115812,2,0,P|115:323|119:198,1,200,12|0,0:2|0:0,0:0:0:0:
190,180,116324,1,0,0:0:0:0:
92,1,116494,102,0,P|22:31|3:152,1,200,4|0,3:0|0:0,0:0:0:0:
35,218,117005,1,0,3:0:0:0:
261,271,117176,2,0,P|331:241|350:120,1,200,8|0,0:2|0:0,0:0:0:0:
303,59,117687,1,0,0:0:0:0:
83,147,117858,5,0,3:0:0:0:
153,99,118028,2,0,P|194:114|258:126,1,100
215,32,118369,1,0,3:0:0:0:
226,224,118540,2,0,P|136:231|82:145,1,200,8|0,0:2|0:0,0:0:0:0:
199,199,119051,1,0,0:0:0:0:
376,315,119221,101,0,3:0:0:0:
444,271,119392,2,0,P|451:218|466:165,1,100
485,160,119733,1,0,3:0:0:0:
295,259,119903,2,0,B|181:289|257:329|129:361,1,200,8|0,0:2|0:0,0:0:0:0:
60,309,120415,1,2,0:1:0:0:
275,384,120585,69,2,0:2:0:0:
405,334,120755,1,2,0:2:0:0:
297,245,120926,1,2,0:2:0:0:
326,318,121096,1,2,0:2:0:0:
408,232,121267,6,0,P|424:171|441:127,1,100,8|0,0:2|0:0,0:0:0:0:
247,175,121608,1,0,0:0:0:0:
175,130,121778,1,0,0:0:0:0:
267,7,121949,6,0,P|331:50|325:174,1,200,4|0,3:1|0:0,0:0:0:0:
298,238,122460,1,0,3:0:0:0:
65,254,122630,2,0,P|1:211|7:87,1,200,8|0,0:2|0:0,0:0:0:0:
61,41,123142,1,0,0:0:0:0:
218,166,123312,102,0,P|304:183|416:212,1,200,0|0,3:0|0:0,0:0:0:0:
369,113,123824,1,0,3:0:0:0:
245,325,123994,2,0,B|214:225|158:293|125:170,1,200,8|0,0:2|0:0,0:0:0:0:
218,166,124505,1,0,0:0:0:0:
117,371,124676,6,0,P|36:358|11:230,1,200,0|0,3:0|0:0,0:0:0:0:
43,182,125187,1,0,3:0:0:0:
194,305,125358,2,0,P|300:322|402:340,1,200,8|0,0:2|0:0,0:0:0:0:
469,301,125869,1,0,0:0:0:0:
248,365,126040,38,0,P|211:333|213:280,1,100,0|0,3:0|0:0,0:0:0:0:
306,203,126380,2,0,P|343:171|341:118,1,100,0|0,0:0|3:0,0:0:0:0:
114,26,126721,5,8,0:2:0:0:
263,108,126892,1,0,0:0:0:0:
220,37,127062,5,0,0:0:0:0:
158,97,127233,1,0,0:0:0:0:
323,219,127403,54,0,P|372:169|353:30,1,200,4|0,3:2|0:0,0:0:0:0:
293,3,127915,1,0,3:0:0:0:
62,14,128085,2,0,P|13:64|32:203,1,200,8|0,0:2|0:0,0:0:0:0:
87,237,128596,1,0,0:0:0:0:
294,105,128767,6,0,P|232:71|112:114,1,200,0|0,3:0|0:0,0:0:0:0:
108,132,129278,1,0,3:0:0:0:
117,297,129449,2,0,P|179:331|299:288,1,200,8|0,0:2|0:0,0:0:0:0:
301,267,129960,1,0,0:0:0:0:
201,148,130130,70,0,P|183:195|203:245,1,100,0|0,3:0|0:0,0:0:0:0:
383,288,130471,2,0,P|414:218|370:79,2,200,0|8|0,0:0|0:2|0:0,0:0:0:0:
358,292,131324,1,0,3:0:0:0:
177,163,131494,5,0,3:0:0:0:
246,209,131665,2,0,P|294:211|338:181,1,100
340,162,132005,1,0,0:0:0:0:
209,288,132176,85,8,0:2:0:0:
47,219,132346,1,8,0:2:0:0:
174,71,132517,5,8,0:2:0:0:
274,111,132687,1,8,0:2:0:0:
139,197,132858,86,0,B|180:235|180:235|157:301,1,120.000004577637,4|0,3:1|0:0,0:0:0:0:
146,303,133369,1,0,3:0:0:0:
267,247,133540,2,0,B|389:196|368:314|482:316,1,200,8|0,0:2|0:0,0:0:0:0:
456,298,134051,1,0,0:0:0:0:
374,365,134221,22,0,B|316:377|316:377|260:326,1,120.000004577637,0|0,3:0|0:0,0:0:0:0:
281,323,134733,1,0,3:0:0:0:
119,379,134903,2,0,P|35:336|46:235,1,200,8|0,0:2|0:0,0:0:0:0:
139,197,135415,85,0,0:0:0:0:
139,197,135500,1,0,0:0:0:0:
139,197,135585,2,0,P|189:207|251:167,1,120.000004577637,0|0,3:0|0:0,0:0:0:0:
237,164,136096,1,0,3:0:0:0:
442,231,136267,2,0,P|478:176|420:57,1,200,8|0,0:2|0:0,0:0:0:0:
358,111,136778,1,0,0:0:0:0:
216,71,136949,21,0,3:0:0:0:
163,91,137120,1,0,0:0:0:0:
114,54,137290,1,0,0:0:0:0:
172,31,137461,1,0,3:0:0:0:
296,46,137631,101,8,0:2:0:0:
349,97,137802,1,0,0:0:0:0:
417,62,137972,1,0,0:0:0:0:
361,14,138142,2,0,L|329:22,1,30.0000011444092
243,147,138312,5,0,3:0:0:0:
303,214,138483,2,0,P|352:215|392:245,1,100
333,195,138824,1,0,3:0:0:0:
322,355,138994,2,0,P|410:374|505:301,1,200,8|0,0:2|0:0,0:0:0:0:
333,195,139676,85,0,3:0:0:0:
167,259,139846,2,0,P|117:257|78:228,1,100
112,225,140187,1,0,3:0:0:0:
191,384,140358,2,0,P|253:313|222:209,1,200,8|0,0:2|0:0,0:0:0:0:
77,214,141040,21,0,3:0:0:0:
219,140,141210,2,0,P|260:143|307:98,1,100
270,96,141551,1,0,3:0:0:0:
176,22,141721,2,0,B|94:-24|51:98|-15:89,1,200,8|0,0:2|0:0,0:0:0:0:
77,214,142403,85,0,3:0:0:0:
135,269,142574,1,0,0:0:0:0:
218,249,142744,1,2,0:2:0:0:
218,249,142915,1,2,0:2:0:0:
360,374,143085,2,0,P|413:357|432:217,1,200,12|2,0:2|0:1,0:0:0:0:
335,144,143767,38,0,B|273:188|273:188|184:144,1,160,4|0,3:1|0:0,0:0:0:0:
197,150,144278,1,0,3:0:0:0:
89,23,144449,2,0,P|24:43|14:149,1,160,8|0,0:2|0:0,0:0:0:0:
18,289,145130,5,0,3:0:0:0:
141,349,145301,2,0,P|191:341|251:336,1,100
321,356,145642,1,0,3:0:0:0:
97,268,145812,2,0,P|152:180|254:200,1,200,8|0,0:2|0:0,0:0:0:0:
186,265,146324,1,0,0:0:0:0:
186,265,146494,102,0,B|181:175|215:224|214:103,1,160,0|0,3:0|0:0,0:0:0:0:
214,109,147005,1,0,3:0:0:0:
310,11,147176,2,0,P|349:59|459:52,1,160,8|0,0:2|0:0,0:0:0:0:
310,11,147858,5,0,3:0:0:0:
360,161,148028,2,0,P|408:148|457:141,1,100
441,63,148369,1,0,3:0:0:0:
273,132,148540,2,0,P|292:224|395:249,1,200,8|0,0:2|0:0,0:0:0:0:
475,236,149051,1,0,0:0:0:0:
475,236,149221,102,0,B|524:297|524:297|461:380,1,160,4|0,3:2|0:0,0:0:0:0:
474,362,149733,1,0,3:0:0:0:
366,329,149903,2,0,B|302:279|252:385|201:353,1,160,8|0,0:2|0:0,0:0:0:0:
37,356,150585,5,0,3:0:0:0:
131,210,150755,2,0,P|139:161|154:90,1,100
229,125,151096,1,0,3:0:0:0:
46,192,151267,2,0,P|83:284|175:285,1,200,8|0,0:2|0:0,0:0:0:0:
219,212,151778,1,0,0:0:0:0:
219,212,151949,102,0,B|327:219|252:255|381:260,1,160,0|0,3:0|0:0,0:0:0:0:
367,259,152460,1,0,3:0:0:0:
339,148,152630,2,0,P|262:147|218:211,1,160,8|0,0:2|0:0,0:0:0:0:
357,354,153312,5,0,3:0:0:0:
483,303,153483,2,0,L|503:205,1,100
482,302,153824,1,0,3:0:0:0:
391,180,153994,2,0,B|290:160|310:260|210:237,1,200,12|0,0:2|0:0,0:0:0:0:
143,189,154505,1,0,0:0:0:0:
143,189,154676,22,0,L|122:30,2,160,6|8|2,3:1|0:2|0:1,0:0:0:0:
169,222,156380,2,0,P|169:250|148:267,1,40,2|0,3:1|0:0,0:0:0:0:
88,265,156721,1,8,0:2:0:0:
221,307,156892,2,0,L|245:387,1,80,2|0,3:1|0:0,0:0:0:0:
291,263,157403,6,0,P|324:217|419:240,1,160,2|8,3:1|0:2,0:0:0:0:
375,323,158426,2,0,L|387:367,1,40,2|0,2:1|0:0,0:0:0:0:
385,361,158682,1,0,0:0:0:0:
385,361,158767,1,2,0:1:0:0:
478,284,159108,2,0,L|492:232,1,40,2|0,3:1|0:0,0:0:0:0:
424,199,159449,1,8,0:2:0:0:
291,263,159619,2,0,P|251:263|208:247,1,80,2|0,3:1|0:0,0:0:0:0:
205,246,160045,1,0,0:0:0:0:
197,242,160130,102,0,P|109:267|109:336,1,160,2|8,3:1|0:2,0:0:0:0:
127,348,161153,1,2,0:1:0:0:
214,341,161324,1,0,0:0:0:0:
214,341,161409,1,0,0:0:0:0:
214,341,161494,1,2,0:1:0:0:
63,285,161835,2,0,P|33:289|10:304,1,40,2|0,3:1|0:0,0:0:0:0:
0,364,162176,1,8,0:2:0:0:
117,225,162346,2,0,P|109:174|78:146,1,80,2|0,3:1|0:0,0:0:0:0:
81,155,162772,1,0,0:0:0:0:
71,158,162858,6,0,P|87:90|105:-1,2,160,2|8|2,3:1|0:2|0:1,0:0:0:0:
133,98,164562,2,0,L|181:87,1,40,2|0,3:1|0:0,0:0:0:0:
220,23,164903,1,8,0:2:0:0:
220,23,165074,1,2,3:1:0:0:
395,49,165415,1,2,0:0:0:0:
395,49,165585,102,0,P|436:10|512:26,1,120.000004577637,6|0,3:1|0:0,0:0:0:0:
469,42,166096,1,0,0:0:0:0:
395,131,166267,2,0,B|336:137|342:81|284:88,1,120.000004577637,8|0,0:2|0:0,0:0:0:0:
296,116,166778,1,0,0:0:0:0:
272,11,166949,2,0,L|242:194,1,180.000006866455,2|0,0:1|0:0,0:0:0:0:
174,106,167630,2,0,L|168:42,1,60.0000022888184,8|0,0:2|3:0,0:0:0:0:
24,228,168142,1,0,0:0:0:0:
0,154,168312,6,0,B|97:173|57:243|142:258,1,180.000006866455,2|0,3:1|0:0,0:0:0:0:
186,183,168994,2,0,L|148:374,1,180.000006866455,8|0,0:2|0:0,0:0:0:0:
77,381,169676,2,0,L|61:322,1,60.0000022888184,2|0,0:0|0:0,0:0:0:0:
204,304,170017,2,0,L|217:241,1,60.0000022888184,0|0,3:0|0:0,0:0:0:0:
275,355,170358,1,10,1:2:0:0:
275,355,170528,1,0,3:0:0:0:
349,192,170869,1,0,0:0:0:0:
407,241,171040,102,0,P|470:239|514:175,1,120.000004577637,2|0,3:1|0:0,0:0:0:0:
462,195,171551,1,0,0:0:0:0:
350,303,171721,2,0,B|296:307|301:256|226:258,1,120.000004577637,8|0,0:2|0:0,0:0:0:0:
260,238,172233,1,0,0:0:0:0:
366,376,172403,2,0,L|380:187,1,180.000006866455,2|0,0:1|0:0,0:0:0:0:
398,177,173085,2,0,P|400:141|371:111,1,60.0000022888184,8|0,0:2|3:0,0:0:0:0:
499,9,173596,1,0,0:0:0:0:
438,57,173767,6,0,B|363:43|398:29|322:14,1,120.000004577637,2|0,3:1|0:0,0:0:0:0:
354,1,174278,1,0,0:0:0:0:
249,55,174449,2,0,P|242:137|148:171,1,180.000006866455,8|0,0:2|0:0,0:0:0:0:
137,95,175130,1,2,0:1:0:0:
137,95,175216,1,0,0:0:0:0:
137,95,175301,1,0,0:0:0:0:
254,180,175471,2,0,L|314:171,1,60.0000022888184,0|0,3:0|0:0,0:0:0:0:
179,252,175812,21,14,0:2:0:0:
55,202,175983,1,8,0:2:0:0:
7,324,176153,1,8,0:2:0:0:
129,373,176324,1,10,0:2:0:0:
58,331,176494,6,0,P|51:301|36:272,1,60.0000022888184,6|0,3:1|0:0,0:0:0:0:
85,310,176835,2,0,P|92:280|107:251,1,60.0000022888184,2|0,3:1|0:0,0:0:0:0:
264,382,177176,6,0,P|280:290|225:150,1,240,8|2,0:2|0:0,0:0:0:0:
345,21,177858,6,0,P|328:64|327:96,1,60.0000022888184,2|0,3:1|0:0,0:0:0:0:
441,33,178199,1,2,3:1:0:0:
366,13,178369,1,0,0:0:0:0:
460,212,178540,6,0,B|384:212|368:152|217:155,1,240,12|0,0:2|0:0,0:0:0:0:
62,79,179221,70,0,P|47:44|11:29,1,60.0000022888184,6|0,3:1|0:0,0:0:0:0:
2,108,179562,2,0,P|17:73|53:58,1,60.0000022888184,2|0,3:1|0:0,0:0:0:0:
0,218,179903,6,0,B|97:173|142:283|244:238,1,240,8|2,0:2|0:0,0:0:0:0:
415,384,180585,6,0,P|452:369|494:370,1,60.0000022888184,2|0,3:1|0:0,0:0:0:0:
331,338,180926,1,2,3:1:0:0:
402,354,181096,1,0,0:0:0:0:
477,201,181267,6,0,P|490:93|382:21,1,240,12|0,0:2|0:0,0:0:0:0:
241,158,181949,70,0,P|247:196|243:227,1,60.0000022888184,6|0,3:1|0:0,0:0:0:0:
269,159,182290,2,0,P|268:129|273:99,1,60.0000022888184,2|0,3:1|0:0,0:0:0:0:
386,266,182630,6,0,B|271:307|304:267|144:339,1,240,8|2,0:2|0:0,0:0:0:0:
92,209,183312,6,0,L|163:189,1,60.0000022888184,2|0,3:1|0:0,0:0:0:0:
75,232,183653,1,2,3:1:0:0:
0,214,183824,1,0,0:0:0:0:
86,68,183994,6,0,B|213:97|160:92|317:156,1,240,12|0,0:2|0:0,0:0:0:0:
453,75,184676,70,0,P|450:44|433:10,1,60.0000022888184,6|0,3:1|0:0,0:0:0:0:
379,38,185017,2,0,P|408:40|434:55,1,60.0000022888184,2|0,3:1|0:0,0:0:0:0:
254,173,185358,6,0,P|246:99|232:14,1,160,8|0,0:2|0:0,0:0:0:0:
337,90,185869,1,2,0:0:0:0:
228,108,186040,6,0,P|211:182|200:242,1,120.000004577637,2|2,3:1|3:1,0:0:0:0:
88,164,186551,1,0,0:0:0:0:
236,186,186721,6,0,P|250:290|262:389,1,200,12|2,0:2|2:3,0:0:0:0:
382,283,187403,85,4,3:1:0:0:
382,283,187574,1,0,0:0:0:0:
458,270,187744,1,0,3:0:0:0:
493,341,188084,1,8,0:2:0:0:
417,354,188426,1,2,0:3:0:0:
294,208,188767,6,0,L|215:194,1,80,2|0,3:1|3:0,0:0:0:0:
201,117,189278,1,0,0:0:0:0:
201,117,189449,6,0,L|340:100,1,120.000004577637,10|0,0:1|3:0,0:0:0:0:
348,32,189960,1,0,0:0:0:0:
348,32,190130,6,0,L|158:3,1,180.000006866455,6|0,3:1|0:0,0:0:0:0:
256,186,191494,6,0,L|237:321,1,120,6|0,1:2|0:0,0:0:0:0:
240,305,192175,2,0,L|251:387,1,80
127,305,192687,1,0,0:0:0:0:
127,305,192857,1,0,0:0:0:0:
36,357,193028,1,0,0:0:0:0:
109,376,193198,1,0,0:0:0:0:
239,304,193369,1,0,0:1:0:0:
312,285,193539,102,0,B|356:312|349:288|397:316,1,80,0|0,0:1|0:0,0:0:0:0:
366,333,194050,1,2,0:1:0:0:
463,269,194221,6,0,B|472:163|495:243|506:102,2,160,2|0|0,0:1|0:1|0:0,0:0:0:0:
476,367,195755,1,0,0:0:0:0:
476,367,195925,1,0,0:0:0:0:
476,367,196096,1,0,0:0:0:0:
476,367,196266,1,0,0:0:0:0:
373,238,196778,1,2,0:1:0:0:
301,199,196948,102,0,P|262:221|216:215,1,80,2|0,0:1|0:0,0:0:0:0:
221,210,197459,1,0,0:0:0:0:
158,325,197630,2,0,P|115:310|87:267,1,80
89,273,198141,1,0,0:0:0:0:
0,196,198312,6,0,P|55:183|113:157,1,120
154,88,198994,2,0,P|207:89|242:157,1,120,0|2,0:0|0:1,0:0:0:0:
250,147,199589,1,2,0:1:0:0:
250,147,199675,102,0,P|308:169|401:216,1,160,2|0,0:1|0:0,0:0:0:0:
395,212,200698,1,0,0:0:0:0:
508,187,201039,5,0,0:0:0:0:
509,177,201209,1,0,0:0:0:0:
510,167,201379,1,0,0:0:0:0:
511,157,201550,1,0,0:0:0:0:
512,147,201720,1,0,0:0:0:0:
385,27,202232,1,2,0:1:0:0:
327,82,202403,102,0,P|284:47|285:8,1,80,2|0,0:1|0:0,0:0:0:0:
287,14,202914,1,0,0:0:0:0:
179,155,203084,2,0,P|222:120|221:81,1,80
219,90,203596,1,0,0:0:0:0:
294,203,203766,6,0,B|372:219|323:226|413:251,1,120
314,310,204448,2,0,B|236:326|285:333|195:358,1,120,0|2,0:0|0:1,0:0:0:0:
121,327,205130,2,0,B|153:228|128:272|157:158,1,160,2|0,0:1|0:0,0:0:0:0:
21,39,206153,101,0,0:0:0:0:
21,39,206323,1,0,0:0:0:0:
21,39,206494,2,0,L|113:18,2,80
163,83,207516,2,0,L|210:98,1,40,0|2,0:0|0:1,0:0:0:0:
201,95,207772,1,0,0:0:0:0:
201,95,207857,6,0,L|291:73,1,80,2|0,0:1|0:0,0:0:0:0:
287,84,208369,1,0,0:0:0:0:
375,209,208539,2,0,L|285:186,1,80
289,197,209051,1,0,0:0:0:0:
478,157,209221,102,0,L|503:26,1,120
412,126,209903,2,0,L|434:243,1,120,0|2,0:0|0:1,0:0:0:0:
485,319,210584,6,0,B|453:349|453:349|464:400,1,80,2|0,0:1|0:0,0:0:0:0:
485,319,211266,101,2,0:3:0:0:
275,291,211607,5,0,0:0:0:0:
85,272,211948,22,0,L|30:265,1,30.0000011444092,6|0,0:2|0:0,0:0:0:0:
28,265,212119,5,0,0:0:0:0:
155,243,212289,5,8,0:3:0:0:
281,220,212459,5,8,0:3:0:0:
424,198,212630,54,0,L|517:218,1,90.0000034332277,14|0,0:2|0:0,0:0:0:0:
335,17,213312,54,0,B|221:47|297:87|169:119,1,200,4|0,3:1|0:0,0:0:0:0:
113,58,213823,1,0,3:0:0:0:
269,185,213994,2,0,P|326:238|298:358,1,200,8|0,0:2|0:0,0:0:0:0:
105,384,214505,1,0,0:0:0:0:
129,286,214675,5,0,3:0:0:0:
202,351,214846,1,0,0:0:0:0:
19,318,215016,101,0,0:0:0:0:
62,185,215187,1,0,3:0:0:0:
202,241,215357,6,0,B|233:240|233:240|235:231|235:231|402:219,1,200,8|0,0:2|0:0,0:0:0:0:
456,281,215869,1,0,0:0:0:0:
512,85,216039,102,0,P|475:13|348:23,1,200,0|0,3:0|0:0,0:0:0:0:
319,71,216550,1,0,3:0:0:0:
187,210,216721,2,0,B|138:189|138:189|68:198,1,100,8|0,0:2|0:0,0:0:0:0:
294,272,217062,2,0,B|343:251|343:251|389:256,1,100
281,285,217403,5,0,3:0:0:0:
225,348,217573,2,0,P|166:358|114:373,1,100
62,314,217914,1,0,3:0:0:0:
300,384,218084,2,0,P|358:347|364:219,1,200,12|0,0:2|0:0,0:0:0:0:
323,152,218596,1,0,0:0:0:0:
97,13,218766,102,0,P|39:50|33:178,1,200,4|0,3:1|0:0,0:0:0:0:
89,239,219278,1,0,3:0:0:0:
261,192,219448,2,0,B|273:169|273:169|265:161|265:161|286:-6,1,200,8|0,0:2|0:0,0:0:0:0:
193,101,219959,1,0,0:0:0:0:
193,101,220045,1,0,0:0:0:0:
193,101,220130,5,0,3:0:0:0:
326,263,220300,1,0,0:0:0:0:
346,113,220471,1,0,0:0:0:0:
187,246,220641,2,0,P|171:228|172:193,1,50,0|0,3:0|0:0,0:0:0:0:
284,289,220812,102,0,P|354:378|441:373,1,200,8|0,0:2|0:0,0:0:0:0:
465,293,221323,1,0,0:0:0:0:
220,365,221494,2,0,B|190:370|190:370|191:359|191:359|124:412|49:362|38:326,1,200,0|0,3:0|0:0,0:0:0:0:
26,263,222005,1,0,3:0:0:0:
233,143,222175,6,0,L|251:29,1,100,8|0,0:2|0:0,0:0:0:0:
215,166,222516,1,0,0:0:0:0:
254,243,222687,1,0,0:0:0:0:
304,178,222857,53,0,0:0:0:0:
172,235,223028,1,0,0:0:0:0:
264,372,223198,1,0,0:0:0:0:
396,315,223369,1,0,0:0:0:0:
458,370,223539,6,0,B|476:359|476:359|473:351|473:351|516:287|516:287|468:170,1,200,12|0,0:2|0:0,0:0:0:0:
406,175,224050,1,0,0:0:0:0:
234,276,224221,22,0,B|109:346|192:334|42:292,1,200,4|0,3:1|0:0,0:0:0:0:
8,221,224732,1,0,3:0:0:0:
69,14,224903,2,0,P|182:9|239:70,1,200,8|0,0:2|0:0,0:0:0:0:
151,117,225414,1,0,0:0:0:0:
151,117,225499,1,0,0:0:0:0:
151,117,225584,6,0,B|145:146|170:149|170:149|186:202,1,100,0|0,3:0|0:0,0:0:0:0:
225,283,225925,1,0,0:0:0:0:
308,119,226096,2,0,P|323:96|330:61,1,50,0|0,3:0|0:0,0:0:0:0:
364,200,226266,86,0,P|444:207|494:98,1,200,8|0,0:2|0:0,0:0:0:0:
425,44,226778,1,0,0:0:0:0:
270,217,226948,102,0,B|254:257|294:281|294:281|355:291|421:235,1,200,0|0,3:0|0:0,0:0:0:0:
415,232,227459,1,0,3:0:0:0:
278,379,227630,2,0,B|246:344|196:351|196:351|204:373,1,100,8|0,0:2|0:0,0:0:0:0:
85,258,227971,2,0,B|53:293|3:286|3:286|11:264,1,100
101,165,228312,22,0,P|146:195|210:187,1,100,0|0,3:0|0:0,0:0:0:0:
316,109,228653,1,0,0:0:0:0:
316,109,228823,1,0,3:0:0:0:
384,58,228994,6,0,P|343:29|294:27,1,100,8|0,0:2|0:0,0:0:0:0:
411,138,229334,1,0,0:0:0:0:
454,0,229505,1,0,0:0:0:0:
231,110,229675,70,0,B|236:142|236:142|229:147|229:147|238:167|238:167|244:321,1,200,4|0,3:2|0:0,0:0:0:0:
182,366,230187,1,0,3:0:0:0:
371,253,230357,2,0,B|476:286|408:355|533:392,1,200,8|0,0:2|0:0,0:0:0:0:
511,384,230784,1,0,0:0:0:0:
511,384,230869,1,0,0:0:0:0:
362,236,231039,6,0,B|363:210|363:210|352:206|352:206|346:37,1,200,0|0,3:0|0:0,0:0:0:0:
413,0,231550,1,0,3:0:0:0:
221,169,231721,2,0,B|193:194|153:207|153:207|75:192|37:152,1,200,8|0,0:2|0:0,0:0:0:0:
43,158,232147,1,0,0:0:0:0:
43,158,232232,1,0,0:0:0:0:
261,68,232403,6,0,P|343:118|455:88,1,200,0|0,3:0|0:0,0:0:0:0:
416,23,232914,1,0,3:0:0:0:
248,188,233084,2,0,L|240:306,1,100,8|0,0:2|0:0,0:0:0:0:
237,384,233425,1,8,0:2:0:0:
237,384,233596,1,0,3:0:0:0:
291,292,233766,21,0,3:0:0:0:
220,208,233937,5,8,0:0:0:0:
282,90,234107,5,0,3:0:0:0:
245,22,234278,5,0,3:0:0:0:
199,131,234448,21,8,0:0:0:0:
334,178,234619,5,8,0:0:0:0:
417,284,234789,101,8,0:0:0:0:
149,250,234959,21,8,0:0:0:0:
93,366,235130,85,4,3:1:0:0:
249,295,235300,2,0,P|292:303|332:305,1,80
176,336,235641,1,0,3:0:0:0:
174,344,235726,1,0,0:0:0:0:
172,352,235812,2,0,P|76:327|54:185,1,240,8|0,0:2|0:0,0:0:0:0:
52,190,236494,5,0,3:0:0:0:
198,161,236664,2,0,P|157:150|120:146,1,80
130,66,237005,1,0,3:0:0:0:
231,244,237175,2,0,P|281:186|253:95,1,160,8|0,0:2|0:0,0:0:0:0:
356,308,237687,1,0,0:0:0:0:
358,316,237772,1,0,0:0:0:0:
360,324,237857,102,0,P|456:299|480:222,1,160,0|0,3:0|0:0,0:0:0:0:
468,166,238369,1,0,3:0:0:0:
310,9,238539,2,0,P|214:34|192:176,1,240,8|0,0:2|0:0,0:0:0:0:
324,213,239221,5,0,3:0:0:0:
403,230,239391,1,0,0:0:0:0:
458,204,239562,1,0,0:0:0:0:
470,169,239732,1,0,3:0:0:0:
225,285,239903,101,8,0:2:0:0:
146,268,240073,1,0,0:0:0:0:
91,294,240244,1,0,0:0:0:0:
79,329,240414,2,0,P|78:350|83:372,1,40
55,384,240584,6,0,P|7:358|28:238,1,160,0|0,3:0|0:0,0:0:0:0:
16,248,241096,1,0,3:0:0:0:
159,356,241266,2,0,P|184:307|304:326,1,160,8|0,0:2|0:0,0:0:0:0:
294,314,241778,1,0,0:0:0:0:
479,232,241948,6,0,P|406:231|318:204,1,160,0|0,3:0|0:0,0:0:0:0:
317,189,242459,1,0,3:0:0:0:
427,87,242630,2,0,P|433:46|456:-4,1,80,8|0,0:2|0:0,0:0:0:0:
512,76,242971,1,0,0:0:0:0:
512,76,243141,1,0,0:0:0:0:
342,109,243312,102,0,P|301:103|251:80,1,80,0|0,3:0|0:0,0:0:0:0:
320,26,243653,1,0,0:0:0:0:
407,167,243823,1,0,3:0:0:0:
318,260,243994,5,8,0:2:0:0:
305,278,244334,1,0,3:0:0:0:
324,292,244675,2,0,L|315:170,2,100,8|0|0,0:2|3:0|3:0,0:0:0:0:
505,308,245357,2,0,B|396:275|430:391|294:388,1,200,14|2,0:2|0:1,0:0:0:0:
231,295,246039,85,4,3:1:0:0:
143,336,246210,2,0,P|112:310|73:303,1,80
2,343,246551,1,0,3:0:0:0:
151,350,246721,2,0,L|171:165,1,160,8|0,0:2|0:0,0:0:0:0:
168,190,247147,1,0,0:0:0:0:
168,190,247232,1,0,0:0:0:0:
229,110,247403,5,0,3:0:0:0:
92,181,247573,2,0,P|48:163|20:124,1,80
39,129,247914,1,0,3:0:0:0:
191,26,248085,2,0,P|271:28|318:99,1,160,8|0,0:2|0:0,0:0:0:0:
370,164,248596,1,0,0:0:0:0:
370,164,248681,1,0,0:0:0:0:
370,164,248767,101,0,3:0:0:0:
228,240,248937,2,0,P|187:237|140:282,1,80
144,273,249278,1,0,3:0:0:0:
292,378,249448,2,0,P|371:367|418:295,1,160,8|0,0:2|0:0,0:0:0:0:
319,285,249959,1,0,0:0:0:0:
319,285,250130,5,0,3:0:0:0:
130,378,250300,2,0,P|91:370|64:341,1,80
63,328,250641,1,0,3:0:0:0:
232,271,250812,2,0,B|241:174|275:215|270:107,1,160,8|0,0:2|0:0,0:0:0:0:
180,0,251323,1,0,0:0:0:0:
180,0,251408,1,0,0:0:0:0:
180,0,251494,102,0,B|294:-28|261:76|392:64,1,200,4|0,3:2|0:0,0:0:0:0:
469,156,252005,2,0,P|501:142|524:120,1,50,0|0,3:0|0:0,0:0:0:0:
432,121,252175,2,0,P|366:152|345:269,1,200,8|0,0:2|0:0,0:0:0:0:
435,312,252687,1,0,0:0:0:0:
435,312,252772,1,0,0:0:0:0:
435,312,252857,5,0,3:0:0:0:
289,384,253028,2,0,B|236:382|253:335|191:338,1,100
194,326,253369,1,0,3:0:0:0:
36,384,253539,2,0,P|-1:317|62:210,1,200,8|0,0:2|0:0,0:0:0:0:
197,109,254221,5,0,3:0:0:0:
100,27,254392,2,0,P|110:65|114:105,1,80
114,106,254732,1,0,3:0:0:0:
265,167,254903,102,0,B|291:122|291:122|270:51,1,100,8|0,0:2|0:0,0:0:0:0:
278,180,255244,5,8,0:2:0:0:
338,242,255414,1,0,3:0:0:0:
431,210,255584,5,0,0:0:0:0:
335,228,255755,5,8,0:2:0:0:
278,287,255925,5,0,3:0:0:0:
264,343,256096,21,0,3:0:0:0:
29,300,256266,102,0,P|15:276|3:244,1,50,10|0,0:2|0:0,0:0:0:0:
64,190,256437,6,0,P|78:209|97:226,1,50,2|0,0:0|0:0,0:0:0:0:
191,190,256607,6,0,P|167:176|140:152,1,50,2|0,0:0|0:0,0:0:0:0:
152,74,256778,6,0,P|174:83|199:89,1,50,2|0,0:0|0:0,0:0:0:0:
371,52,256948,86,0,B|381:10|381:10|376:13|376:13|302:1|302:1|296:7|296:7|235:-1,1,184.000003509522,14|0,0:2|0:0,0:0:0:0:
244,0,257459,1,0,0:0:0:0:
362,129,257630,102,0,B|407:137|407:137|412:129|412:129|467:187|467:187|472:179|472:179|531:190,1,184.000003509522,6|0,0:2|0:0,0:0:0:0:
493,103,258141,1,8,0:2:0:0:
382,211,258312,1,0,3:0:0:0:
301,201,258482,1,0,0:0:0:0:
301,201,258653,1,0,0:0:0:0:
189,384,258994,5,8,0:2:0:0:
116,334,259164,2,0,B|74:342|74:342|67:336|67:336|20:346,1,92.0000017547608,0|0,3:0|0:0,0:0:0:0:
122,317,259505,1,2,0:1:0:0:
7,223,259675,102,0,B|73:236|73:236|80:232|80:232|198:255|198:255|204:261|204:261|291:277,2,276.000005264282,6|2|2,3:1|0:1|0:1,0:0:0:0:
81,134,261039,1,2,0:1:0:0:
191,126,261209,1,2,0:1:0:0:
307,121,261380,1,2,3:1:0:0:
322,130,261721,6,0,B|274:123|274:123|268:131|268:131|224:83|224:83|219:89|219:89|161:78,1,184.000003509522,6|2,0:1|0:1,0:0:0:0:
167,79,262147,1,2,0:1:0:0:
167,79,262232,1,2,0:1:0:0:
84,35,262403,2,0,B|123:33|123:33|124:39|124:39|216:36|216:36|215:30|215:30|263:20,1,184.000003509522,6|0,3:1|0:0,0:0:0:0:
269,12,262914,1,0,3:0:0:0:
415,97,263084,2,0,B|405:135|405:135|409:144|409:144|399:190,1,92.0000017547608,8|0,0:2|0:0,0:0:0:0:
486,218,263425,102,0,B|446:220|446:220|442:215|442:215|355:218|355:218|353:223|353:223|304:226,1,184.000003509522,2|8,0:1|0:2,0:0:0:0:
305,211,263937,1,0,3:0:0:0:
250,349,264107,2,0,B|246:323|246:323|239:317|239:317|231:252,1,92.0000017547608,2|0,3:1|0:0,0:0:0:0:
14,254,264448,5,10,0:2:0:0:
0,331,264619,1,2,3:1:0:0:
61,381,264789,1,2,0:1:0:0:
142,366,264959,1,0,0:0:0:0:
142,366,265045,1,0,0:0:0:0:
142,366,265130,102,0,B|148:311|148:311|144:303|144:303|151:252|151:252|156:248|156:248|164:186,1,184.000003509522,6|0,3:1|0:0,0:0:0:0:
167,172,265641,1,0,3:0:0:0:
321,290,265812,2,0,B|324:329|324:329|328:337|328:337|332:380,1,92.0000017547608,10|0,0:2|0:0,0:0:0:0:
426,374,266153,1,10,0:2:0:0:
426,374,266238,1,0,0:0:0:0:
426,374,266323,1,2,0:1:0:0:
512,223,266664,5,2,0:1:0:0:
432,212,266834,1,2,0:1:0:0:
315,102,267175,2,0,L|261:115,3,46.0000008773804,10|0|0|0,0:2|3:0|3:0|3:0,0:0:0:0:
233,148,267516,2,0,L|175:132,3,46.0000008773804,2|0|0|0,3:1|3:0|3:0|3:0,0:0:0:0:
155,102,267856,101,6,3:1:0:0:
53,217,268028,2,0,B|64:263|64:263|61:271|61:271|72:317,1,92.0000017547608,2|0,0:1|0:0,0:0:0:0:
83,312,268369,1,2,3:1:0:0:
0,154,268539,6,0,B|9:112|9:112|6:103|6:103|17:58,1,92.0000017547608,14|0,0:2|0:0,0:0:0:0:
147,228,268880,2,0,B|158:276|158:276|155:284|155:284|166:330,1,92.0000017547608,2|0,0:1|3:0,0:0:0:0:
342,384,269221,101,2,0:1:0:0:
473,329,269391,1,2,0:1:0:0:
366,224,269562,1,2,3:1:0:0:
237,289,269732,1,2,0:1:0:0:
468,248,269903,6,0,B|470:231|470:231|478:224|478:224|489:158,1,92.0000017547608,10|0,0:2|3:0,0:0:0:0:
388,24,270244,2,0,B|388:39|388:39|396:46|396:46|405:113,1,92.0000017547608,2|0,0:1|0:0,0:0:0:0:
350,205,270584,101,2,3:1:0:0:
209,141,270755,2,0,B|261:136|261:136|268:126|268:126|298:122,1,92.0000017547608,2|0,0:1|0:0,0:0:0:0:
311,113,271096,1,2,3:1:0:0:
157,52,271266,6,0,B|104:45|104:45|97:35|97:35|68:33,1,92.0000017547608,14|0,0:2|0:0,0:0:0:0:
254,214,271607,2,0,B|309:210|309:210|316:200|316:200|341:197,1,92.0000017547608,2|0,0:1|0:0,0:0:0:0:
112,156,271948,101,2,0:1:0:0:
35,226,272119,2,0,B|21:277|21:277|25:284|25:284|15:327,1,92.0000017547608,2|0,0:1|3:0,0:0:0:0:
14,195,272459,1,2,0:1:0:0:
79,363,272630,5,10,0:2:0:0:
193,345,272800,1,2,3:1:0:0:
309,323,272971,2,0,B|348:334|348:334|357:332|357:332|402:343,1,92.0000017547608,2|0,0:1|0:0,0:0:0:0:
491,367,273312,102,0,B|497:346|497:346|488:340|488:340|526:282|526:282|496:193,1,184.000003509522,6|2,0:1|0:1,0:0:0:0:
389,90,273823,1,2,0:1:0:0:
323,239,273994,1,10,0:2:0:0:
402,178,274164,1,2,0:1:0:0:
345,19,274334,1,2,0:1:0:0:
162,50,274505,1,2,0:1:0:0:
144,209,274675,5,10,0:2:0:0:
287,166,274846,2,0,B|245:162|245:162|238:153|238:153|190:147,1,92.0000017547608,2|0,0:1|3:0,0:0:0:0:
312,143,275187,1,2,0:1:0:0:
485,264,275528,101,2,0:1:0:0:
485,264,275699,1,2,0:1:0:0:
338,384,276039,6,0,B|322:356|322:356|327:350|327:350|292:308|292:308|322:260|322:260|330:259|330:259|354:219,1,180.000006866455,14|0,0:2|0:0,0:0:0:0:
340,241,276380,2,0,B|315:236|315:236|313:229|313:229|259:223,1,80,2|0,3:1|0:0,0:0:0:0:
156,206,276721,102,0,B|158:237|158:237|168:247|168:247|187:350|187:350|181:363|181:363|187:393,1,180.000006866455,10|0,0:2|0:0,0:0:0:0:
153,384,277062,2,0,B|157:351|157:351|168:340|168:340|179:296,1,80,2|0,3:1|0:0,0:0:0:0:
27,384,277403,6,0,B|27:348|27:348|14:315|14:315|9:312|9:312|17:261|17:261|-7:194,1,180.000006866455,10|0,0:2|0:0,0:0:0:0:
43,151,277744,2,0,B|41:187|41:187|30:198|30:198|19:245,1,80,2|0,3:1|0:0,0:0:0:0:
0,73,278084,101,10,0:2:0:0:
85,21,278255,1,2,0:1:0:0:
192,12,278425,1,2,3:1:0:0:
298,30,278596,1,2,0:1:0:0:
452,93,278766,22,0,P|456:157|370:225,1,160,6|0,3:1|0:0,0:0:0:0:
377,218,279278,1,2,0:1:0:0:
283,152,279448,2,0,B|231:143|256:130|195:124,1,80,8|0,0:2|0:0,0:0:0:0:
357,106,279789,1,2,0:1:0:0:
357,106,280130,101,0,0:0:0:0:
298,30,280300,1,0,0:0:0:0:
283,152,280471,2,0,P|270:202|249:230,1,80,2|0,3:1|0:0,0:0:0:0:
71,238,280812,5,8,0:2:0:0:
27,143,280982,1,2,3:1:0:0:
75,227,281153,1,0,0:0:0:0:
32,133,281323,1,0,0:0:0:0:
152,186,281494,102,0,B|169:277|188:237|199:341,1,160,2|0,3:1|0:0,0:0:0:0:
190,350,282005,1,2,0:1:0:0:
292,304,282175,1,8,0:2:0:0:
362,342,282516,21,2,0:1:0:0:
501,250,282857,101,0,0:0:0:0:
459,173,283028,1,0,0:0:0:0:
381,210,283198,1,2,3:1:0:0:
423,284,283369,1,0,0:0:0:0:
459,173,283539,85,8,0:2:0:0:
334,137,283709,1,2,3:1:0:0:
310,252,283880,1,0,0:0:0:0:
423,284,284050,1,0,0:0:0:0:
381,210,284221,6,0,P|315:220|260:303,1,160,2|0,3:1|0:0,0:0:0:0:
346,377,284732,1,2,0:1:0:0:
455,276,284903,2,0,P|463:226|461:190,1,80,8|0,0:2|0:0,0:0:0:0:
413,124,285244,1,2,0:1:0:0:
413,124,285584,5,0,0:0:0:0:
471,59,285755,1,0,0:0:0:0:
332,93,285925,2,0,B|289:82|307:75|249:61,1,80,2|0,3:1|0:0,0:0:0:0:
98,0,286266,101,8,0:2:0:0:
122,74,286437,1,2,0:1:0:0:
140,149,286607,1,0,0:0:0:0:
154,225,286778,1,0,0:0:0:0:
98,361,286948,6,0,P|38:368|-8:280,1,160,2|0,3:1|0:0,0:0:0:0:
75,197,287459,1,2,0:1:0:0:
162,236,287630,1,8,0:2:0:0:
233,202,287971,5,2,0:1:0:0:
423,270,288312,85,0,0:0:0:0:
487,201,288482,1,0,0:0:0:0:
406,255,288653,5,2,3:1:0:0:
474,328,288823,1,0,0:0:0:0:
357,173,288994,5,8,0:2:0:0:
275,262,289164,1,2,3:1:0:0:
356,329,289334,5,0,0:0:0:0:
422,253,289505,1,0,0:0:0:0:
265,179,289675,70,0,B|213:199|213:199|190:238|190:238|111:265,1,160,6|0,3:1|0:0,0:0:0:0:
57,308,290187,1,2,0:1:0:0:
2,236,290357,1,8,0:2:0:0:
78,191,290528,1,0,0:0:0:0:
152,280,290698,2,0,L|259:307,1,80,2|0,0:1|0:0,0:0:0:0:
31,122,291380,6,0,L|4:15,1,80,2|0,0:1|0:0,0:0:0:0:
14,133,291721,1,8,0:2:0:0:
100,27,291891,2,0,L|264:64,1,160,2|0,3:1|0:0,0:0:0:0:
391,0,292403,102,0,B|331:55|331:55|373:143,1,160,2|0,3:1|0:0,0:0:0:0:
423,188,292914,1,2,0:1:0:0:
490,141,293084,1,8,0:2:0:0:
300,175,293255,1,0,0:0:0:0:
356,243,293425,2,0,L|376:325,1,80,2|0,0:1|0:0,0:0:0:0:
229,125,294107,6,0,L|147:145,1,80,2|0,3:1|0:0,0:0:0:0:
86,96,294448,1,8,0:2:0:0:
0,228,294619,2,0,B|59:250|59:250|76:282|76:282|136:305,1,160,2|0,3:1|0:0,0:0:0:0:
237,384,295130,102,0,P|234:338|327:279,1,160,2|0,0:1|0:0,0:0:0:0:
446,334,295641,1,2,0:1:0:0:
504,254,295812,1,8,0:2:0:0:
460,184,296153,22,0,L|449:102,1,80,2|0,0:1|0:0,0:0:0:0:
263,0,296834,102,0,L|252:82,1,80,2|0,3:1|0:0,0:0:0:0:
333,60,297175,1,8,0:2:0:0:
176,115,297346,2,0,B|87:90|122:193|17:164,1,160,2|0,3:1|0:0,0:0:0:0:
145,273,297857,102,0,P|220:289|311:314,1,160,6|0,3:1|0:0,0:0:0:0:
398,211,298369,1,2,0:1:0:0:
324,189,298539,2,0,B|315:166|315:166|344:118,1,80,8|0,0:2|0:0,0:0:0:0:
407,222,298880,54,0,L|416:280,1,40,2|0,0:1|0:0,0:0:0:0:
393,360,299562,5,2,2:1:0:0:
393,360,300073,2,0,L|534:384,1,120.000004577637,2|2,2:1|2:1,0:0:0:0:
