osu file format v14

[General]
AudioFilename: audio.mp3
AudioLeadIn: 0
PreviewTime: 181663
Countdown: 0
SampleSet: Normal
StackLeniency: 0.7
Mode: 1
LetterboxInBreaks: 0
WidescreenStoryboard: 1

[Editor]
Bookmarks: 10631,20043,38861,57690,76514,85925,104749,121072,125925,144749,180043,201220
DistanceSpacing: 2.9
BeatDivisor: 4
GridSize: 32
TimelineZoom: 1.7

[Metadata]
Title:The Noise of Rain
TitleUnicode:雨音ノイズ
Artist:Kino Hiko
ArtistUnicode:木のひこ
Creator:LemonDust
Version:Muzukashii
Source:
Tags:rock english japanese cover utaite amaoto noise 40mp 40meterp ショートストーリー short story tag coop co-op tag-coop tag2
BeatmapID:4187239
BeatmapSetID:2001130

[Difficulty]
HPDrainRate:6
CircleSize:5
OverallDifficulty:5
ApproachRate:5
SliderMultiplier:1.4
SliderTickRate:1

[Events]
//Background and Video events
0,0,"bg.jpg",0,25
//Break Periods
//Storyboard Layer 0 (Background)
//Storyboard Layer 1 (Fail)
//Storyboard Layer 2 (Pass)
//Storyboard Layer 3 (Foreground)
//Storyboard Layer 4 (Overlay)
//Storyboard Sound Samples

[TimingPoints]
37,294.117647058824,4,1,0,50,1,8
919,294.117647058824,4,1,0,50,1,8
1214,294.117647058824,4,1,0,50,1,0
1214,-125,4,1,0,50,0,0
8861,-125,4,1,0,60,0,0
9596,-125,4,1,0,70,0,0
10625,-111.111111111111,4,1,0,80,0,0
20037,-125,4,1,0,80,0,0
56361,-111.111111111111,4,1,0,80,0,0
57684,-100,4,1,0,100,0,1
65772,-100,4,1,0,100,0,0
67096,-100,4,1,0,100,0,1
74008,-100,4,1,0,100,0,1
76214,-111.111111111111,4,1,0,80,0,1
76508,-111.111111111111,4,1,0,80,0,0
83566,-111.111111111111,4,1,0,40,0,0
84743,-166.666666666667,4,1,0,40,0,0
85919,-142.857142857143,4,1,0,80,0,0
93714,-142.85715,4,1,0,80,0,0
93861,-141.12094,4,1,0,80,0,0
94008,-139.40843,4,1,0,80,0,0
94302,-136.05286,4,1,0,80,0,0
94449,-134.40907,4,1,0,80,0,0
94596,-132.78748,4,1,0,80,0,0
94890,-129.60939,4,1,0,80,0,0
95037,-128.05225,4,1,0,80,0,0
95331,-125,4,1,0,80,0,0
103419,-111.111111111111,4,1,0,80,0,0
104743,-100,4,1,0,100,0,1
112831,-100,4,1,0,100,0,0
114155,-100,4,1,0,100,0,1
121066,-100,4,1,0,100,0,0
121214,-125,4,1,0,70,0,0
125919,-111.111111111111,4,1,0,80,0,0
145037,-142.857142857143,4,1,0,70,0,0
158861,-125,4,1,0,80,0,0
162243,-111.111111111111,4,1,0,80,0,0
163566,-142.857142857143,4,1,0,50,0,0
172978,-125,4,1,0,70,0,0
180037,-111.111111111111,4,1,0,80,0,0
182390,-99.9999999999999,4,1,0,100,0,1
190478,-99.9999999999999,4,1,0,100,0,0
191802,-99.9999999999999,4,1,0,100,0,1
198714,-99.9999999999999,4,1,0,100,0,0
198861,-111.111111111111,4,1,0,80,0,0
201214,-100,4,1,0,100,0,1
208125,-100,4,1,0,100,0,0
208272,-111.111111111111,4,1,0,100,0,0
210625,-99.9999999999999,4,1,0,100,0,0

[HitObjects]
256,192,1214,5,0,0:0:0:0:
256,192,1802,1,0,0:0:0:0:
256,192,1949,1,0,0:0:0:0:
256,192,2243,1,8,0:0:0:0:
256,192,2537,1,0,0:0:0:0:
256,192,2831,1,8,0:0:0:0:
256,192,3125,1,0,0:0:0:0:
256,192,3566,5,8,0:0:0:0:
256,192,4155,1,0,0:0:0:0:
256,192,4302,1,8,0:0:0:0:
256,192,4596,1,0,0:0:0:0:
256,192,4890,1,8,0:0:0:0:
256,192,5184,1,8,0:0:0:0:
256,192,5478,1,0,0:0:0:0:
256,192,5919,5,0,0:0:0:0:
256,192,6508,1,0,0:0:0:0:
256,192,6655,1,0,0:0:0:0:
256,192,6949,1,8,0:0:0:0:
256,192,7243,1,0,0:0:0:0:
256,192,7537,1,8,0:0:0:0:
256,192,7831,1,0,0:0:0:0:
256,192,8272,5,8,0:0:0:0:
256,192,8861,1,8,0:0:0:0:
256,192,9008,1,0,0:0:0:0:
256,192,9155,1,0,0:0:0:0:
256,192,9302,1,8,0:0:0:0:
256,192,9596,1,8,0:0:0:0:
256,192,9743,1,0,0:0:0:0:
256,192,9890,1,8,0:0:0:0:
256,192,10184,1,0,0:0:0:0:
256,192,10331,1,8,0:0:0:0:
256,192,10478,1,0,0:0:0:0:
256,192,10625,5,12,0:0:0:0:
256,192,11214,1,8,0:0:0:0:
256,192,11361,1,0,0:0:0:0:
256,192,11508,1,0,0:0:0:0:
256,192,11655,1,8,0:0:0:0:
256,192,11949,1,8,0:0:0:0:
256,192,12096,1,0,0:0:0:0:
256,192,12243,1,8,0:0:0:0:
256,192,12537,1,0,0:0:0:0:
256,192,12684,1,8,0:0:0:0:
256,192,12831,1,8,0:0:0:0:
256,192,12978,5,0,0:0:0:0:
256,192,13566,1,0,0:0:0:0:
256,192,13714,1,0,0:0:0:0:
256,192,13861,1,0,0:0:0:0:
256,192,14008,1,8,0:0:0:0:
256,192,14302,1,0,0:0:0:0:
256,192,14449,1,8,0:0:0:0:
256,192,14596,1,0,0:0:0:0:
256,192,14890,1,0,0:0:0:0:
256,192,15037,1,8,0:0:0:0:
256,192,15184,1,0,0:0:0:0:
256,192,15331,5,8,0:0:0:0:
256,192,15919,1,8,0:0:0:0:
256,192,16066,1,0,0:0:0:0:
256,192,16214,1,0,0:0:0:0:
256,192,16361,1,8,0:0:0:0:
256,192,16655,1,8,0:0:0:0:
256,192,16802,1,0,0:0:0:0:
256,192,16949,1,8,0:0:0:0:
256,192,17243,1,0,0:0:0:0:
256,192,17390,1,8,0:0:0:0:
256,192,17537,1,8,0:0:0:0:
256,192,17684,5,0,0:0:0:0:
256,192,18272,1,0,0:0:0:0:
256,192,18419,1,8,0:0:0:0:
256,192,18566,1,8,0:0:0:0:
256,192,18714,1,4,0:0:0:0:
256,192,19008,1,4,0:0:0:0:
256,192,19302,1,4,0:0:0:0:
256,192,20037,5,12,0:0:0:0:
256,192,20331,1,0,0:0:0:0:
256,192,20625,1,8,0:0:0:0:
256,192,20772,1,0,0:0:0:0:
256,192,21066,1,8,0:0:0:0:
256,192,21361,1,0,0:0:0:0:
256,192,21655,1,8,0:0:0:0:
256,192,21949,1,0,0:0:0:0:
256,192,22096,1,8,0:0:0:0:
256,192,22390,1,0,0:0:0:0:
256,192,22684,1,8,0:0:0:0:
256,192,22831,1,0,0:0:0:0:
256,192,23125,1,0,0:0:0:0:
256,192,23272,1,8,0:0:0:0:
256,192,23419,1,0,0:0:0:0:
256,192,23714,1,0,0:0:0:0:
256,192,23861,1,8,0:0:0:0:
256,192,24008,1,8,0:0:0:0:
256,192,24302,1,0,0:0:0:0:
256,192,24449,1,8,0:0:0:0:
256,192,24596,1,8,0:0:0:0:
256,192,24743,1,0,0:0:0:0:
256,192,25331,5,8,0:0:0:0:
256,192,25478,1,0,0:0:0:0:
256,192,25772,1,8,0:0:0:0:
256,192,26066,1,0,0:0:0:0:
256,192,26361,1,8,0:0:0:0:
256,192,26655,1,0,0:0:0:0:
256,192,26802,1,0,0:0:0:0:
256,192,27096,1,8,0:0:0:0:
256,192,27390,1,0,0:0:0:0:
256,192,27537,1,8,0:0:0:0:
256,192,27831,1,0,0:0:0:0:
256,192,27978,1,0,0:0:0:0:
256,192,28125,1,8,0:0:0:0:
256,192,28419,1,8,0:0:0:0:
256,192,28566,1,0,0:0:0:0:
256,192,28714,1,8,0:0:0:0:
256,192,29008,1,0,0:0:0:0:
256,192,29155,1,8,0:0:0:0:
256,192,29302,1,0,0:0:0:0:
256,192,29449,1,12,0:0:0:0:
256,192,30037,5,8,0:0:0:0:
256,192,30184,1,0,0:0:0:0:
256,192,30478,1,8,0:0:0:0:
256,192,30772,1,0,0:0:0:0:
256,192,31066,1,8,0:0:0:0:
256,192,31361,1,0,0:0:0:0:
256,192,31508,1,8,0:0:0:0:
256,192,31802,1,0,0:0:0:0:
256,192,32096,1,8,0:0:0:0:
256,192,32243,1,0,0:0:0:0:
256,192,32537,1,8,0:0:0:0:
256,192,32684,1,0,0:0:0:0:
256,192,32831,1,8,0:0:0:0:
256,192,33272,1,0,0:0:0:0:
256,192,33566,5,8,0:0:0:0:
256,192,33714,1,8,0:0:0:0:
256,192,34008,1,0,0:0:0:0:
256,192,34302,1,0,0:0:0:0:
256,192,34449,1,8,0:0:0:0:
256,192,34743,1,8,0:0:0:0:
256,192,34890,1,0,0:0:0:0:
256,192,35184,1,8,0:0:0:0:
256,192,35625,1,8,0:0:0:0:
256,192,35772,1,0,0:0:0:0:
256,192,35919,1,0,0:0:0:0:
256,192,36066,1,8,0:0:0:0:
256,192,36361,1,8,0:0:0:0:
256,192,36655,5,0,0:0:0:0:
256,192,36802,1,8,0:0:0:0:
256,192,37096,1,0,0:0:0:0:
256,192,37243,1,8,0:0:0:0:
256,192,37390,1,0,0:0:0:0:
256,192,37537,1,8,0:0:0:0:
256,192,37831,1,8,0:0:0:0:
256,192,38125,1,8,0:0:0:0:
256,192,38272,1,0,0:0:0:0:
256,192,38419,1,8,0:0:0:0:
256,192,38566,1,0,0:0:0:0:
256,192,38861,1,12,0:0:0:0:
256,192,39449,5,8,0:0:0:0:
256,192,39596,1,0,0:0:0:0:
256,192,39890,1,8,0:0:0:0:
256,192,40184,1,0,0:0:0:0:
256,192,40478,1,8,0:0:0:0:
256,192,40772,1,0,0:0:0:0:
256,192,40919,1,8,0:0:0:0:
256,192,41214,1,0,0:0:0:0:
256,192,41508,1,8,0:0:0:0:
256,192,41655,1,0,0:0:0:0:
256,192,41949,1,0,0:0:0:0:
256,192,42096,1,8,0:0:0:0:
256,192,42243,1,0,0:0:0:0:
256,192,42537,1,0,0:0:0:0:
256,192,42684,1,8,0:0:0:0:
256,192,42831,1,8,0:0:0:0:
256,192,43125,1,0,0:0:0:0:
256,192,43272,1,8,0:0:0:0:
256,192,43419,1,8,0:0:0:0:
256,192,43566,1,0,0:0:0:0:
256,192,44155,5,8,0:0:0:0:
256,192,44302,1,0,0:0:0:0:
256,192,44596,1,8,0:0:0:0:
256,192,44890,1,8,0:0:0:0:
256,192,45184,1,0,0:0:0:0:
256,192,45478,1,0,0:0:0:0:
256,192,45625,1,8,0:0:0:0:
256,192,45919,1,0,0:0:0:0:
256,192,46214,1,8,0:0:0:0:
256,192,46361,1,0,0:0:0:0:
256,192,46655,1,8,0:0:0:0:
256,192,46802,1,8,0:0:0:0:
256,192,46949,1,0,0:0:0:0:
256,192,47243,1,8,0:0:0:0:
256,192,47390,1,0,0:0:0:0:
256,192,47537,1,8,0:0:0:0:
256,192,47831,1,0,0:0:0:0:
256,192,47978,1,8,0:0:0:0:
256,192,48125,1,0,0:0:0:0:
256,192,48272,1,12,0:0:0:0:
256,192,48861,5,8,0:0:0:0:
256,192,49008,1,0,0:0:0:0:
256,192,49302,1,8,0:0:0:0:
256,192,49596,1,0,0:0:0:0:
256,192,49890,1,8,0:0:0:0:
256,192,50184,1,0,0:0:0:0:
256,192,50331,1,8,0:0:0:0:
256,192,50625,1,0,0:0:0:0:
256,192,50919,1,8,0:0:0:0:
256,192,51066,1,0,0:0:0:0:
256,192,51361,1,0,0:0:0:0:
256,192,51508,1,0,0:0:0:0:
256,192,51655,1,8,0:0:0:0:
256,192,52096,1,0,0:0:0:0:
256,192,52390,5,8,0:0:0:0:
256,192,52537,1,0,0:0:0:0:
256,192,52831,1,8,0:0:0:0:
256,192,53125,1,0,0:0:0:0:
256,192,53272,1,0,0:0:0:0:
256,192,53566,1,8,0:0:0:0:
256,192,53714,1,0,0:0:0:0:
256,192,54008,1,8,0:0:0:0:
256,192,54449,1,0,0:0:0:0:
256,192,54596,1,0,0:0:0:0:
256,192,54743,1,8,0:0:0:0:
256,192,54890,1,0,0:0:0:0:
256,192,55184,1,8,0:0:0:0:
256,192,55478,5,0,0:0:0:0:
256,192,55625,1,8,0:0:0:0:
256,192,55772,1,0,0:0:0:0:
256,192,55919,1,8,0:0:0:0:
256,192,56066,1,0,0:0:0:0:
256,192,56214,1,0,0:0:0:0:
256,192,56361,1,12,0:0:0:0:
256,192,56655,1,12,0:0:0:0:
256,192,56949,1,12,0:0:0:0:
256,192,57390,5,0,0:0:0:0:
256,192,57684,1,12,0:0:0:0:
256,192,57978,1,0,0:0:0:0:
256,192,58125,1,8,0:0:0:0:
256,192,58419,1,8,0:0:0:0:
256,192,58566,1,0,0:0:0:0:
256,192,58714,1,8,0:0:0:0:
256,192,58787,1,8,0:0:0:0:
256,192,58861,1,8,0:0:0:0:
256,192,59008,1,0,0:0:0:0:
256,192,59155,1,0,0:0:0:0:
256,192,59302,1,8,0:0:0:0:
256,192,59743,5,8,0:0:0:0:
256,192,59816,1,8,0:0:0:0:
256,192,59890,1,8,0:0:0:0:
256,192,60037,1,0,0:0:0:0:
256,192,60184,1,0,0:0:0:0:
256,192,60331,1,8,0:0:0:0:
256,192,60478,1,8,0:0:0:0:
256,192,60772,1,0,0:0:0:0:
256,192,60919,1,8,0:0:0:0:
256,192,61066,1,0,0:0:0:0:
256,192,61140,1,0,0:0:0:0:
256,192,61214,1,0,0:0:0:0:
256,192,61361,1,8,0:0:0:0:
256,192,61508,1,0,0:0:0:0:
256,192,61655,1,8,0:0:0:0:
256,192,62096,5,0,0:0:0:0:
256,192,62169,1,0,0:0:0:0:
256,192,62243,1,0,0:0:0:0:
256,192,62390,1,8,0:0:0:0:
256,192,62537,1,0,0:0:0:0:
256,192,62684,1,8,0:0:0:0:
256,192,62831,1,8,0:0:0:0:
256,192,63125,1,0,0:0:0:0:
256,192,63199,1,0,0:0:0:0:
256,192,63272,1,0,0:0:0:0:
256,192,63419,1,8,0:0:0:0:
256,192,63714,1,0,0:0:0:0:
256,192,63861,1,0,0:0:0:0:
256,192,64008,1,8,0:0:0:0:
256,192,64302,1,0,0:0:0:0:
256,192,64449,1,8,0:0:0:0:
256,192,64596,1,0,0:0:0:0:
256,192,64743,5,12,0:0:0:0:
256,192,65037,5,0,0:0:0:0:
256,192,65331,5,12,0:0:0:0:
256,192,65772,1,4,0:0:0:0:
256,192,66066,5,0,0:0:0:0:
256,192,66214,1,8,0:0:0:0:
256,192,66361,1,8,0:0:0:0:
256,192,66508,1,0,0:0:0:0:
256,192,66802,1,8,0:0:0:0:
256,192,67096,5,4,0:0:0:0:
256,192,67390,1,8,0:0:0:0:
256,192,67537,1,0,0:0:0:0:
256,192,67831,1,8,0:0:0:0:
256,192,67978,1,0,0:0:0:0:
256,192,68125,1,8,0:0:0:0:
256,192,68199,1,8,0:0:0:0:
256,192,68272,1,8,0:0:0:0:
256,192,68419,1,0,0:0:0:0:
256,192,68566,1,0,0:0:0:0:
256,192,68714,1,8,0:0:0:0:
256,192,69155,5,8,0:0:0:0:
256,192,69228,1,8,0:0:0:0:
256,192,69302,1,8,0:0:0:0:
256,192,69449,1,0,0:0:0:0:
256,192,69596,1,0,0:0:0:0:
256,192,69743,1,8,0:0:0:0:
256,192,69890,1,8,0:0:0:0:
256,192,70184,1,0,0:0:0:0:
256,192,70331,1,0,0:0:0:0:
256,192,70478,1,8,0:0:0:0:
256,192,70552,1,8,0:0:0:0:
256,192,70625,1,8,0:0:0:0:
256,192,70772,1,0,0:0:0:0:
256,192,70919,1,0,0:0:0:0:
256,192,71066,1,8,0:0:0:0:
256,192,71508,5,0,0:0:0:0:
256,192,71581,1,0,0:0:0:0:
256,192,71655,1,0,0:0:0:0:
256,192,71802,1,8,0:0:0:0:
256,192,71949,1,0,0:0:0:0:
256,192,72096,1,0,0:0:0:0:
256,192,72243,1,8,0:0:0:0:
256,192,72537,1,8,0:0:0:0:
256,192,72684,1,0,0:0:0:0:
256,192,72831,1,8,0:0:0:0:
256,192,72905,1,8,0:0:0:0:
256,192,72978,1,8,0:0:0:0:
256,192,73125,1,0,0:0:0:0:
256,192,73272,1,0,0:0:0:0:
256,192,73419,1,8,0:0:0:0:
256,192,73714,1,0,0:0:0:0:
256,192,74008,1,12,0:0:0:0:
256,192,74302,5,0,0:0:0:0:
256,192,74449,1,8,0:0:0:0:
256,192,74596,1,0,0:0:0:0:
256,192,74743,1,8,0:0:0:0:
256,192,74890,1,0,0:0:0:0:
256,192,75037,1,0,0:0:0:0:
256,192,75184,1,12,0:0:0:0:
256,192,75478,1,12,0:0:0:0:
256,192,75772,1,12,0:0:0:0:
256,192,75919,1,12,0:0:0:0:
256,192,76214,1,0,0:0:0:0:
256,192,76508,5,12,0:0:0:0:
256,192,77096,1,8,0:0:0:0:
256,192,77243,1,0,0:0:0:0:
256,192,77390,1,0,0:0:0:0:
256,192,77537,1,8,0:0:0:0:
256,192,77831,1,8,0:0:0:0:
256,192,77978,1,0,0:0:0:0:
256,192,78125,1,8,0:0:0:0:
256,192,78419,1,0,0:0:0:0:
256,192,78566,1,8,0:0:0:0:
256,192,78714,1,8,0:0:0:0:
256,192,78861,5,0,0:0:0:0:
256,192,79449,1,0,0:0:0:0:
256,192,79596,1,0,0:0:0:0:
256,192,79743,1,0,0:0:0:0:
256,192,79890,1,8,0:0:0:0:
256,192,80184,1,0,0:0:0:0:
256,192,80331,1,8,0:0:0:0:
256,192,80478,1,0,0:0:0:0:
256,192,80772,1,0,0:0:0:0:
256,192,80919,1,8,0:0:0:0:
256,192,81066,1,0,0:0:0:0:
256,192,81214,5,8,0:0:0:0:
256,192,81802,1,8,0:0:0:0:
256,192,81949,1,0,0:0:0:0:
256,192,82096,1,0,0:0:0:0:
256,192,82243,1,8,0:0:0:0:
256,192,82537,1,8,0:0:0:0:
256,192,82684,1,0,0:0:0:0:
256,192,82831,1,8,0:0:0:0:
256,192,83125,1,0,0:0:0:0:
256,192,83272,1,8,0:0:0:0:
256,192,83419,1,0,0:0:0:0:
256,192,85184,5,0,0:0:0:0:
256,192,85331,1,8,0:0:0:0:
256,192,85478,1,8,0:0:0:0:
256,192,85625,1,0,0:0:0:0:
256,192,85919,5,12,0:0:0:0:
256,192,86508,1,8,0:0:0:0:
256,192,86655,1,0,0:0:0:0:
256,192,86949,1,8,0:0:0:0:
256,192,87243,1,0,0:0:0:0:
256,192,87537,1,8,0:0:0:0:
256,192,87831,1,0,0:0:0:0:
256,192,87978,1,0,0:0:0:0:
256,192,88272,1,8,0:0:0:0:
256,192,88566,1,0,0:0:0:0:
256,192,88861,1,8,0:0:0:0:
256,192,89008,1,0,0:0:0:0:
256,192,89302,1,8,0:0:0:0:
256,192,89596,1,0,0:0:0:0:
256,192,89743,1,8,0:0:0:0:
256,192,89890,1,8,0:0:0:0:
256,192,90184,1,0,0:0:0:0:
256,192,90331,1,8,0:0:0:0:
256,192,90478,1,8,0:0:0:0:
256,192,90625,1,0,0:0:0:0:
256,192,91214,5,0,0:0:0:0:
256,192,91361,1,0,0:0:0:0:
256,192,91655,1,8,0:0:0:0:
256,192,91949,1,0,0:0:0:0:
256,192,92243,1,8,0:0:0:0:
256,192,92537,1,0,0:0:0:0:
256,192,92684,1,8,0:0:0:0:
256,192,92978,1,0,0:0:0:0:
256,192,93272,1,8,0:0:0:0:
256,192,93419,1,8,0:0:0:0:
256,192,93714,1,0,0:0:0:0:
256,192,93861,1,0,0:0:0:0:
256,192,94008,5,12,0:0:0:0:
256,192,94302,5,8,0:0:0:0:
256,192,94449,1,8,0:0:0:0:
256,192,94596,5,4,0:0:0:0:
256,192,94890,5,0,0:0:0:0:
256,192,95037,1,0,0:0:0:0:
256,192,95331,5,12,0:0:0:0:
256,192,95919,1,8,0:0:0:0:
256,192,96066,1,0,0:0:0:0:
256,192,96361,1,8,0:0:0:0:
256,192,96655,1,0,0:0:0:0:
256,192,96802,1,8,0:0:0:0:
256,192,96949,1,0,0:0:0:0:
256,192,97243,1,0,0:0:0:0:
256,192,97390,1,8,0:0:0:0:
256,192,97684,1,0,0:0:0:0:
256,192,97978,1,8,0:0:0:0:
256,192,98125,1,0,0:0:0:0:
256,192,98272,1,0,0:0:0:0:
256,192,98419,1,8,0:0:0:0:
256,192,98714,1,8,0:0:0:0:
256,192,99155,1,0,0:0:0:0:
256,192,99449,5,8,0:0:0:0:
256,192,99596,1,0,0:0:0:0:
256,192,99890,1,8,0:0:0:0:
256,192,100184,1,0,0:0:0:0:
256,192,100331,1,0,0:0:0:0:
256,192,100625,1,8,0:0:0:0:
256,192,100772,1,0,0:0:0:0:
256,192,100919,1,0,0:0:0:0:
256,192,101066,1,8,0:0:0:0:
256,192,101508,1,0,0:0:0:0:
256,192,101655,1,0,0:0:0:0:
256,192,101802,1,8,0:0:0:0:
256,192,101949,1,0,0:0:0:0:
256,192,102243,1,12,0:0:0:0:
256,192,102537,5,0,0:0:0:0:
256,192,102684,1,8,0:0:0:0:
256,192,102831,1,0,0:0:0:0:
256,192,102978,1,0,0:0:0:0:
256,192,103125,1,8,0:0:0:0:
256,192,103272,1,0,0:0:0:0:
256,192,103419,1,12,0:0:0:0:
256,192,103714,1,12,0:0:0:0:
256,192,104008,1,12,0:0:0:0:
256,192,104449,5,0,0:0:0:0:
256,192,104743,1,12,0:0:0:0:
256,192,105037,1,0,0:0:0:0:
256,192,105184,1,8,0:0:0:0:
256,192,105478,1,8,0:0:0:0:
256,192,105625,1,0,0:0:0:0:
256,192,105772,1,8,0:0:0:0:
256,192,105846,1,8,0:0:0:0:
256,192,105919,1,8,0:0:0:0:
256,192,106066,1,0,0:0:0:0:
256,192,106214,1,0,0:0:0:0:
256,192,106361,1,8,0:0:0:0:
256,192,106802,5,8,0:0:0:0:
256,192,106875,1,8,0:0:0:0:
256,192,106949,1,8,0:0:0:0:
256,192,107096,1,0,0:0:0:0:
256,192,107243,1,0,0:0:0:0:
256,192,107390,1,8,0:0:0:0:
256,192,107537,1,8,0:0:0:0:
256,192,107831,1,0,0:0:0:0:
256,192,107978,1,8,0:0:0:0:
256,192,108125,1,0,0:0:0:0:
256,192,108199,1,0,0:0:0:0:
256,192,108272,1,0,0:0:0:0:
256,192,108419,1,8,0:0:0:0:
256,192,108566,1,0,0:0:0:0:
256,192,108714,1,8,0:0:0:0:
256,192,109155,5,0,0:0:0:0:
256,192,109228,1,0,0:0:0:0:
256,192,109302,1,0,0:0:0:0:
256,192,109449,1,8,0:0:0:0:
256,192,109596,1,0,0:0:0:0:
256,192,109743,1,8,0:0:0:0:
256,192,109890,1,8,0:0:0:0:
256,192,110184,1,0,0:0:0:0:
256,192,110258,1,0,0:0:0:0:
256,192,110331,1,0,0:0:0:0:
256,192,110478,1,8,0:0:0:0:
256,192,110772,1,0,0:0:0:0:
256,192,110919,1,0,0:0:0:0:
256,192,111066,1,8,0:0:0:0:
256,192,111361,1,0,0:0:0:0:
256,192,111508,1,8,0:0:0:0:
256,192,111655,1,0,0:0:0:0:
256,192,111802,5,12,0:0:0:0:
256,192,112096,5,0,0:0:0:0:
256,192,112390,5,12,0:0:0:0:
256,192,112831,1,4,0:0:0:0:
256,192,113125,5,0,0:0:0:0:
256,192,113272,1,8,0:0:0:0:
256,192,113419,1,8,0:0:0:0:
256,192,113566,1,0,0:0:0:0:
256,192,113861,1,8,0:0:0:0:
256,192,114155,5,4,0:0:0:0:
256,192,114449,1,8,0:0:0:0:
256,192,114596,1,0,0:0:0:0:
256,192,114890,1,8,0:0:0:0:
256,192,115037,1,0,0:0:0:0:
256,192,115184,1,8,0:0:0:0:
256,192,115258,1,8,0:0:0:0:
256,192,115331,1,8,0:0:0:0:
256,192,115478,1,0,0:0:0:0:
256,192,115625,1,0,0:0:0:0:
256,192,115772,1,8,0:0:0:0:
256,192,116214,5,8,0:0:0:0:
256,192,116287,1,8,0:0:0:0:
256,192,116361,1,8,0:0:0:0:
256,192,116508,1,0,0:0:0:0:
256,192,116655,1,0,0:0:0:0:
256,192,116802,1,8,0:0:0:0:
256,192,116949,1,8,0:0:0:0:
256,192,117243,1,0,0:0:0:0:
256,192,117390,1,0,0:0:0:0:
256,192,117537,1,8,0:0:0:0:
256,192,117611,1,8,0:0:0:0:
256,192,117684,1,8,0:0:0:0:
256,192,117831,1,0,0:0:0:0:
256,192,117978,1,0,0:0:0:0:
256,192,118125,1,8,0:0:0:0:
256,192,118566,5,0,0:0:0:0:
256,192,118640,1,0,0:0:0:0:
256,192,118714,1,0,0:0:0:0:
256,192,118861,1,8,0:0:0:0:
256,192,119008,1,0,0:0:0:0:
256,192,119155,1,0,0:0:0:0:
256,192,119302,1,8,0:0:0:0:
256,192,119596,1,8,0:0:0:0:
256,192,119743,1,0,0:0:0:0:
256,192,119890,1,8,0:0:0:0:
256,192,119964,1,8,0:0:0:0:
256,192,120037,1,8,0:0:0:0:
256,192,120184,1,0,0:0:0:0:
256,192,120331,1,0,0:0:0:0:
256,192,120478,1,8,0:0:0:0:
256,192,120772,1,0,0:0:0:0:
256,192,121066,1,12,0:0:0:0:
256,192,121361,5,0,0:0:0:0:
256,192,121508,1,8,0:0:0:0:
256,192,121655,1,0,0:0:0:0:
256,192,121802,1,8,0:0:0:0:
256,192,121949,1,0,0:0:0:0:
256,192,122096,1,0,0:0:0:0:
256,192,122243,1,8,0:0:0:0:
256,192,122537,1,8,0:0:0:0:
256,192,122831,1,8,0:0:0:0:
256,192,123125,5,0,0:0:0:0:
256,192,123272,1,8,0:0:0:0:
256,192,123346,1,8,0:0:0:0:
256,192,123419,1,8,0:0:0:0:
256,192,123566,1,0,0:0:0:0:
256,192,123861,1,8,0:0:0:0:
256,192,124008,1,0,0:0:0:0:
256,192,124081,1,0,0:0:0:0:
256,192,124155,1,0,0:0:0:0:
256,192,124302,1,8,0:0:0:0:
256,192,124449,1,0,0:0:0:0:
256,192,124596,1,8,0:0:0:0:
256,192,124890,1,8,0:0:0:0:
256,192,125184,1,0,0:0:0:0:
256,192,125478,5,8,0:0:0:0:
256,192,125625,1,0,0:0:0:0:
256,192,125772,1,0,0:0:0:0:
256,192,125919,1,12,0:0:0:0:
256,192,126214,1,8,0:0:0:0:
256,192,126508,1,8,0:0:0:0:
256,192,126655,1,0,0:0:0:0:
256,192,126802,1,0,0:0:0:0:
256,192,126949,1,8,0:0:0:0:
256,192,127243,1,0,0:0:0:0:
256,192,127390,1,8,0:0:0:0:
256,192,127537,1,0,0:0:0:0:
256,192,127684,1,0,0:0:0:0:
256,192,127831,1,8,0:0:0:0:
256,192,128125,1,0,0:0:0:0:
256,192,128419,5,8,0:0:0:0:
256,192,128714,1,0,0:0:0:0:
256,192,128861,1,8,0:0:0:0:
256,192,129008,1,8,0:0:0:0:
256,192,129155,1,0,0:0:0:0:
256,192,129302,1,8,0:0:0:0:
256,192,129596,1,8,0:0:0:0:
256,192,129890,1,8,0:0:0:0:
256,192,130184,1,0,0:0:0:0:
256,192,130331,1,8,0:0:0:0:
256,192,130478,1,0,0:0:0:0:
256,192,130625,1,8,0:0:0:0:
256,192,130919,5,8,0:0:0:0:
256,192,131214,1,8,0:0:0:0:
256,192,131361,1,0,0:0:0:0:
256,192,131508,1,0,0:0:0:0:
256,192,131655,1,8,0:0:0:0:
256,192,131949,1,8,0:0:0:0:
256,192,132096,1,8,0:0:0:0:
256,192,132243,1,0,0:0:0:0:
256,192,132390,1,0,0:0:0:0:
256,192,132537,1,8,0:0:0:0:
256,192,132684,1,8,0:0:0:0:
256,192,132831,1,8,0:0:0:0:
256,192,133125,5,8,0:0:0:0:
256,192,133419,1,0,0:0:0:0:
256,192,133566,1,8,0:0:0:0:
256,192,133714,1,0,0:0:0:0:
256,192,133861,1,0,0:0:0:0:
256,192,134008,1,12,0:0:0:0:
256,192,134302,1,0,0:0:0:0:
256,192,134596,1,12,0:0:0:0:
256,192,134890,1,8,0:0:0:0:
256,192,135037,1,0,0:0:0:0:
256,192,135184,5,8,0:0:0:0:
256,192,135258,1,8,0:0:0:0:
256,192,135331,1,8,0:0:0:0:
256,192,135478,1,0,0:0:0:0:
256,192,135625,1,12,0:0:0:0:
256,192,135919,1,8,0:0:0:0:
256,192,136066,1,0,0:0:0:0:
256,192,136214,1,8,0:0:0:0:
256,192,136361,1,0,0:0:0:0:
256,192,136434,1,0,0:0:0:0:
256,192,136508,1,0,0:0:0:0:
256,192,136655,1,0,0:0:0:0:
256,192,136802,1,8,0:0:0:0:
256,192,136949,1,0,0:0:0:0:
256,192,137243,5,8,0:0:0:0:
256,192,137390,1,0,0:0:0:0:
256,192,137537,1,0,0:0:0:0:
256,192,137611,1,0,0:0:0:0:
256,192,137684,1,0,0:0:0:0:
256,192,137831,1,8,0:0:0:0:
256,192,137978,1,0,0:0:0:0:
256,192,138125,1,8,0:0:0:0:
256,192,138199,1,8,0:0:0:0:
256,192,138272,1,8,0:0:0:0:
256,192,138419,1,0,0:0:0:0:
256,192,138566,1,8,0:0:0:0:
256,192,138714,1,0,0:0:0:0:
256,192,139008,1,0,0:0:0:0:
256,192,139155,1,8,0:0:0:0:
256,192,139302,1,8,0:0:0:0:
256,192,139743,5,0,0:0:0:0:
256,192,139890,1,8,0:0:0:0:
256,192,140037,1,0,0:0:0:0:
256,192,140184,1,8,0:0:0:0:
256,192,140258,1,8,0:0:0:0:
256,192,140331,1,8,0:0:0:0:
256,192,140478,1,0,0:0:0:0:
256,192,140625,1,8,0:0:0:0:
256,192,140772,1,0,0:0:0:0:
256,192,140846,1,0,0:0:0:0:
256,192,140919,1,0,0:0:0:0:
256,192,141066,1,0,0:0:0:0:
256,192,141214,1,8,0:0:0:0:
256,192,141361,1,0,0:0:0:0:
256,192,141508,1,8,0:0:0:0:
256,192,141655,1,0,0:0:0:0:
256,192,141949,5,8,0:0:0:0:
256,192,142243,1,8,0:0:0:0:
256,192,142316,1,8,0:0:0:0:
256,192,142390,1,8,0:0:0:0:
256,192,142537,1,0,0:0:0:0:
256,192,142611,1,0,0:0:0:0:
256,192,142684,1,0,0:0:0:0:
256,192,142831,1,8,0:0:0:0:
256,192,142978,1,0,0:0:0:0:
256,192,143125,1,8,0:0:0:0:
256,192,143272,1,0,0:0:0:0:
256,192,143419,1,8,0:0:0:0:
256,192,143714,5,0,0:0:0:0:
256,192,143861,1,8,0:0:0:0:
256,192,144008,1,0,0:0:0:0:
256,192,144155,1,8,0:0:0:0:
256,192,144302,1,0,0:0:0:0:
256,192,144449,1,8,0:0:0:0:
256,192,144596,1,0,0:0:0:0:
256,192,144743,1,12,0:0:0:0:
256,192,145331,5,8,0:0:0:0:
256,192,145478,1,0,0:0:0:0:
256,192,145772,1,8,0:0:0:0:
256,192,146066,1,0,0:0:0:0:
256,192,146214,1,0,0:0:0:0:
256,192,146508,1,8,0:0:0:0:
256,192,146802,1,0,0:0:0:0:
256,192,146949,1,8,0:0:0:0:
256,192,147096,1,0,0:0:0:0:
256,192,147390,1,0,0:0:0:0:
256,192,147684,1,8,0:0:0:0:
256,192,148272,1,8,0:0:0:0:
256,192,148419,1,8,0:0:0:0:
256,192,148566,1,0,0:0:0:0:
256,192,148861,1,8,0:0:0:0:
256,192,149155,1,0,0:0:0:0:
256,192,149302,1,0,0:0:0:0:
256,192,149449,1,8,0:0:0:0:
256,192,150037,5,8,0:0:0:0:
256,192,150184,1,0,0:0:0:0:
256,192,150478,1,8,0:0:0:0:
256,192,150772,1,0,0:0:0:0:
256,192,150919,1,0,0:0:0:0:
256,192,151214,1,8,0:0:0:0:
256,192,151508,1,0,0:0:0:0:
256,192,151655,1,8,0:0:0:0:
256,192,151802,1,0,0:0:0:0:
256,192,152096,1,0,0:0:0:0:
256,192,152390,1,8,0:0:0:0:
256,192,152684,1,0,0:0:0:0:
256,192,152831,1,0,0:0:0:0:
256,192,152978,1,8,0:0:0:0:
256,192,153272,1,0,0:0:0:0:
256,192,153566,1,8,0:0:0:0:
256,192,153861,1,8,0:0:0:0:
256,192,154008,1,8,0:0:0:0:
256,192,154155,1,4,0:0:0:0:
256,192,154743,5,8,0:0:0:0:
256,192,154890,1,0,0:0:0:0:
256,192,155184,1,8,0:0:0:0:
256,192,155478,1,0,0:0:0:0:
256,192,155625,1,0,0:0:0:0:
256,192,155919,1,8,0:0:0:0:
256,192,156214,1,0,0:0:0:0:
256,192,156361,1,8,0:0:0:0:
256,192,156508,1,0,0:0:0:0:
256,192,156802,1,0,0:0:0:0:
256,192,157096,1,8,0:0:0:0:
256,192,157390,1,0,0:0:0:0:
256,192,157537,1,0,0:0:0:0:
256,192,157684,1,8,0:0:0:0:
256,192,157831,1,8,0:0:0:0:
256,192,157978,1,0,0:0:0:0:
256,192,158272,1,8,0:0:0:0:
256,192,158566,1,0,0:0:0:0:
256,192,158714,1,0,0:0:0:0:
256,192,158861,5,12,0:0:0:0:
256,192,159155,1,0,0:0:0:0:
256,192,159449,1,8,0:0:0:0:
256,192,159596,1,0,0:0:0:0:
256,192,159669,1,0,0:0:0:0:
256,192,159743,1,0,0:0:0:0:
256,192,159890,1,8,0:0:0:0:
256,192,160184,1,8,0:0:0:0:
256,192,160331,1,0,0:0:0:0:
256,192,160478,1,8,0:0:0:0:
256,192,160772,5,0,0:0:0:0:
256,192,160919,1,8,0:0:0:0:
256,192,161066,1,8,0:0:0:0:
256,192,161140,1,8,0:0:0:0:
256,192,161214,1,8,0:0:0:0:
256,192,161361,1,0,0:0:0:0:
256,192,161508,1,0,0:0:0:0:
256,192,161655,1,8,0:0:0:0:
256,192,161949,1,8,0:0:0:0:
256,192,162096,1,0,0:0:0:0:
256,192,162243,1,12,0:0:0:0:
256,192,162537,1,12,0:0:0:0:
256,192,162831,1,12,0:0:0:0:
256,192,163566,5,0,0:0:0:0:
256,192,164743,5,8,0:0:0:0:
256,192,165919,5,0,0:0:0:0:
256,192,167096,5,8,0:0:0:0:
256,192,168272,5,0,0:0:0:0:
256,192,169449,5,8,0:0:0:0:
256,192,170625,5,0,0:0:0:0:
256,192,171214,5,8,0:0:0:0:
256,192,171655,5,0,0:0:0:0:
256,192,171949,5,0,0:0:0:0:
256,192,172096,1,8,0:0:0:0:
256,192,172243,1,8,0:0:0:0:
256,192,172390,1,0,0:0:0:0:
256,192,172684,1,8,0:0:0:0:
256,192,172978,5,4,0:0:0:0:
256,192,173272,5,8,0:0:0:0:
256,192,173861,1,8,0:0:0:0:
256,192,174449,1,8,0:0:0:0:
256,192,175037,1,8,0:0:0:0:
256,192,175331,5,0,0:0:0:0:
256,192,175625,5,8,0:0:0:0:
256,192,176214,1,8,0:0:0:0:
256,192,176802,1,8,0:0:0:0:
256,192,177390,5,8,0:0:0:0:
256,192,177537,1,0,0:0:0:0:
256,192,177684,1,8,0:0:0:0:
256,192,177978,1,0,0:0:0:0:
256,192,178125,1,8,0:0:0:0:
256,192,178419,1,0,0:0:0:0:
256,192,178714,1,8,0:0:0:0:
256,192,178861,1,0,0:0:0:0:
256,192,179008,1,8,0:0:0:0:
256,192,179302,1,0,0:0:0:0:
256,192,179596,1,8,0:0:0:0:
256,192,180037,5,12,0:0:0:0:
256,192,180233,1,12,0:0:0:0:
256,192,180429,1,4,0:0:0:0:
256,192,180625,1,12,0:0:0:0:
256,192,180821,1,4,0:0:0:0:
256,192,181017,1,4,0:0:0:0:
256,192,181214,1,12,0:0:0:0:
256,192,182390,5,12,0:0:0:0:
256,192,182684,1,0,0:0:0:0:
256,192,182831,1,8,0:0:0:0:
256,192,183125,1,8,0:0:0:0:
256,192,183272,1,0,0:0:0:0:
256,192,183419,1,8,0:0:0:0:
256,192,183493,1,8,0:0:0:0:
256,192,183566,1,8,0:0:0:0:
256,192,183714,1,0,0:0:0:0:
256,192,183861,1,0,0:0:0:0:
256,192,184008,1,8,0:0:0:0:
256,192,184449,5,8,0:0:0:0:
256,192,184522,1,8,0:0:0:0:
256,192,184596,1,8,0:0:0:0:
256,192,184743,1,0,0:0:0:0:
256,192,184890,1,0,0:0:0:0:
256,192,185037,1,8,0:0:0:0:
256,192,185184,1,8,0:0:0:0:
256,192,185478,1,0,0:0:0:0:
256,192,185625,1,8,0:0:0:0:
256,192,185772,1,0,0:0:0:0:
256,192,185846,1,0,0:0:0:0:
256,192,185919,1,0,0:0:0:0:
256,192,186066,1,8,0:0:0:0:
256,192,186214,1,0,0:0:0:0:
256,192,186361,1,8,0:0:0:0:
256,192,186802,5,0,0:0:0:0:
256,192,186875,1,0,0:0:0:0:
256,192,186949,1,0,0:0:0:0:
256,192,187096,1,8,0:0:0:0:
256,192,187243,1,0,0:0:0:0:
256,192,187390,1,8,0:0:0:0:
256,192,187537,1,8,0:0:0:0:
256,192,187831,1,0,0:0:0:0:
256,192,187905,1,0,0:0:0:0:
256,192,187978,1,0,0:0:0:0:
256,192,188125,1,8,0:0:0:0:
256,192,188419,1,0,0:0:0:0:
256,192,188566,1,0,0:0:0:0:
256,192,188714,1,8,0:0:0:0:
256,192,189008,1,0,0:0:0:0:
256,192,189155,1,8,0:0:0:0:
256,192,189302,1,0,0:0:0:0:
256,192,189449,5,12,0:0:0:0:
256,192,189743,5,0,0:0:0:0:
256,192,190037,5,12,0:0:0:0:
256,192,190478,1,4,0:0:0:0:
256,192,190772,5,0,0:0:0:0:
256,192,190919,1,8,0:0:0:0:
256,192,191066,1,8,0:0:0:0:
256,192,191214,1,0,0:0:0:0:
256,192,191508,1,8,0:0:0:0:
256,192,191802,5,4,0:0:0:0:
256,192,192096,1,8,0:0:0:0:
256,192,192243,1,0,0:0:0:0:
256,192,192537,1,8,0:0:0:0:
256,192,192684,1,0,0:0:0:0:
256,192,192831,1,8,0:0:0:0:
256,192,192905,1,8,0:0:0:0:
256,192,192978,1,8,0:0:0:0:
256,192,193125,1,0,0:0:0:0:
256,192,193272,1,0,0:0:0:0:
256,192,193419,1,8,0:0:0:0:
256,192,193861,5,8,0:0:0:0:
256,192,193934,1,8,0:0:0:0:
256,192,194008,1,8,0:0:0:0:
256,192,194155,1,0,0:0:0:0:
256,192,194302,1,0,0:0:0:0:
256,192,194449,1,8,0:0:0:0:
256,192,194596,1,8,0:0:0:0:
256,192,194890,1,0,0:0:0:0:
256,192,195037,1,0,0:0:0:0:
256,192,195184,1,8,0:0:0:0:
256,192,195258,1,8,0:0:0:0:
256,192,195331,1,8,0:0:0:0:
256,192,195478,1,0,0:0:0:0:
256,192,195625,1,0,0:0:0:0:
256,192,195772,1,8,0:0:0:0:
256,192,196214,5,0,0:0:0:0:
256,192,196287,1,0,0:0:0:0:
256,192,196361,1,0,0:0:0:0:
256,192,196508,1,8,0:0:0:0:
256,192,196655,1,0,0:0:0:0:
256,192,196802,1,0,0:0:0:0:
256,192,196949,1,8,0:0:0:0:
256,192,197243,1,8,0:0:0:0:
256,192,197390,1,0,0:0:0:0:
256,192,197537,1,8,0:0:0:0:
256,192,197611,1,8,0:0:0:0:
256,192,197684,1,8,0:0:0:0:
256,192,197831,1,0,0:0:0:0:
256,192,197978,1,0,0:0:0:0:
256,192,198125,1,8,0:0:0:0:
256,192,198419,1,0,0:0:0:0:
256,192,198714,1,12,0:0:0:0:
256,192,199008,5,0,0:0:0:0:
256,192,199155,1,8,0:0:0:0:
256,192,199302,1,0,0:0:0:0:
256,192,199449,1,8,0:0:0:0:
256,192,199596,1,0,0:0:0:0:
256,192,199743,1,0,0:0:0:0:
256,192,199890,1,8,0:0:0:0:
256,192,200184,1,8,0:0:0:0:
256,192,200478,1,8,0:0:0:0:
256,192,200625,1,8,0:0:0:0:
256,192,200919,1,0,0:0:0:0:
256,192,201214,5,12,0:0:0:0:
256,192,201508,1,8,0:0:0:0:
256,192,201655,1,8,0:0:0:0:
256,192,201802,1,0,0:0:0:0:
256,192,201949,1,8,0:0:0:0:
256,192,202022,1,8,0:0:0:0:
256,192,202096,1,8,0:0:0:0:
256,192,202243,1,0,0:0:0:0:
256,192,202316,1,0,0:0:0:0:
256,192,202390,1,0,0:0:0:0:
256,192,202537,1,8,0:0:0:0:
256,192,202684,1,0,0:0:0:0:
256,192,202831,1,8,0:0:0:0:
256,192,203272,5,8,0:0:0:0:
256,192,203346,1,8,0:0:0:0:
256,192,203419,1,8,0:0:0:0:
256,192,203566,1,0,0:0:0:0:
256,192,203714,1,0,0:0:0:0:
256,192,203861,1,8,0:0:0:0:
256,192,204008,1,0,0:0:0:0:
256,192,204302,1,8,0:0:0:0:
256,192,204375,1,8,0:0:0:0:
256,192,204449,1,8,0:0:0:0:
256,192,204596,1,0,0:0:0:0:
256,192,204743,1,0,0:0:0:0:
256,192,204890,1,8,0:0:0:0:
256,192,205037,1,0,0:0:0:0:
256,192,205184,1,8,0:0:0:0:
256,192,205625,5,8,0:0:0:0:
256,192,205772,1,8,0:0:0:0:
256,192,205919,1,0,0:0:0:0:
256,192,206066,1,8,0:0:0:0:
256,192,206140,1,8,0:0:0:0:
256,192,206214,1,8,0:0:0:0:
256,192,206361,1,0,0:0:0:0:
256,192,206655,1,8,0:0:0:0:
256,192,206802,1,0,0:0:0:0:
256,192,206949,1,8,0:0:0:0:
256,192,207022,1,8,0:0:0:0:
256,192,207096,1,8,0:0:0:0:
256,192,207243,1,0,0:0:0:0:
256,192,207316,1,0,0:0:0:0:
256,192,207390,1,0,0:0:0:0:
256,192,207537,1,8,0:0:0:0:
256,192,207831,1,0,0:0:0:0:
256,192,208125,1,12,0:0:0:0:
256,192,208419,5,0,0:0:0:0:
256,192,208566,1,8,0:0:0:0:
256,192,208714,1,0,0:0:0:0:
256,192,208861,1,8,0:0:0:0:
256,192,209008,1,0,0:0:0:0:
256,192,209155,1,0,0:0:0:0:
256,192,209302,1,8,0:0:0:0:
256,192,209596,1,8,0:0:0:0:
256,192,209743,1,0,0:0:0:0:
256,192,209890,1,8,0:0:0:0:
256,192,210184,1,0,0:0:0:0:
256,192,210331,1,8,0:0:0:0:
256,192,210478,1,0,0:0:0:0:
256,192,210625,5,12,0:0:0:0:
256,192,211655,5,4,0:0:0:0:
256,192,212978,5,12,0:0:0:0:
