osu file format v14

[General]
AudioFilename: audio.mp3
AudioLeadIn: 0
PreviewTime: 181663
Countdown: 0
SampleSet: Normal
StackLeniency: 0.7
Mode: 1
LetterboxInBreaks: 0
WidescreenStoryboard: 1

[Editor]
Bookmarks: 1214,3566,5919,8272,10625,12978,15331,17684,20037,25037,29743,33566,36655,39155,43861,48566,52390,55478,57390,59743,62096,64743,64890,65331,65478,65772,66066,67096,69155,71508,74302,76508,78861,81214,85184,85919,90919,94008,94302,94596,95331,99449,102537,104449,106802,109155,111802,111949,112390,112537,112831,113125,114155,116214,118566,121361,123125,125478,128419,130919,132978,135184,139890,145037,149743,154449,158861,161066,163566,164743,165919,167096,168272,169449,170625,171214,171655,171949,172978,173272,175331,177390,180037,181802,182390,184449,186802,189449,189596,190037,190184,190478,190772,191802,193861,196214,199008,201214,203272,205625,208419,210625,210919,211655,211949,212978
DistanceSpacing: 2.9
BeatDivisor: 4
GridSize: 32
TimelineZoom: 4.399998

[Metadata]
Title:The Noise of Rain
TitleUnicode:雨音ノイズ
Artist:Kino Hiko
ArtistUnicode:木のひこ
Creator:LemonDust
Version:Farewell
Source:
Tags:rock english japanese cover utaite amaoto noise 40mp 40meterp ショートストーリー short story tag coop co-op tag-coop tag2
BeatmapID:4161098
BeatmapSetID:2001130

[Difficulty]
HPDrainRate:6
CircleSize:5
OverallDifficulty:6.5
ApproachRate:5
SliderMultiplier:1.4
SliderTickRate:1

[Events]
//Background and Video events
0,0,"bg.jpg",0,25
//Break Periods
//Storyboard Layer 0 (Background)
//Storyboard Layer 1 (Fail)
//Storyboard Layer 2 (Pass)
//Storyboard Layer 3 (Foreground)
//Storyboard Layer 4 (Overlay)
//Storyboard Sound Samples

[TimingPoints]
37,294.117647058824,4,1,0,50,1,8
919,294.117647058824,4,1,0,50,1,8
1214,294.117647058824,4,1,0,50,1,0
1214,-166.666666666667,4,1,0,50,0,0
8861,-166.66667,4,1,0,50,0,0
9008,-166.62486,4,1,0,52,0,0
9155,-166.33281,4,1,0,54,0,0
9302,-165.54521,4,1,0,55,0,0
9596,-161.59846,4,1,0,59,0,0
9743,-158.09851,4,1,0,61,0,0
9890,-153.45993,4,1,0,63,0,0
10184,-140.89566,4,1,0,66,0,0
10331,-133.23706,4,1,0,68,0,0
10405,-129.12549,4,1,0,69,0,0
10478,-124.94202,4,1,0,70,0,0
10624,-99.9999999999999,4,1,0,80,0,0
10918,-111.111111111111,4,1,0,80,0,0
18713,-99.9999999999999,4,1,0,80,0,0
20036,-111.111111111111,4,1,0,80,0,0
20330,-125,4,1,0,80,0,0
27830,-125,4,1,0,80,0,0
27977,-123.53733,4,1,0,80,0,0
28124,-122.091805,4,1,0,80,0,0
28418,-119.25123,4,1,0,80,0,0
28565,-117.85586,4,1,0,80,0,0
28713,-116.46746,4,1,0,80,0,0
29007,-113.75776,4,1,0,80,0,0
29154,-112.42664,4,1,0,80,0,0
29301,-111.111115,4,1,0,80,0,0
29448,-100.00000315,4,1,0,80,0,0
29742,-125.000004921875,4,1,0,80,0,0
36655,-125.00811,4,1,0,80,0,0
36802,-126.20555,4,1,0,80,0,0
36875,-126.80446,4,1,0,80,0,0
36949,-127.41446,4,1,0,80,0,0
37096,-128.63495,4,1,0,80,0,0
37243,-129.86714,4,1,0,80,0,0
37390,-131.11113,4,1,0,80,0,0
37537,-132.36702,4,1,0,80,0,0
37831,-134.91502,4,1,0,80,0,0
37978,-136.20737,4,1,0,80,0,0
38125,-137.51208,4,1,0,80,0,0
38199,-138.1736,4,1,0,80,0,0
38272,-138.8293,4,1,0,80,0,0
38419,-140.15913,4,1,0,80,0,0
38566,-141.50171,4,1,0,80,0,0
38860,-111.111115432099,4,1,0,80,0,0
39154,-125.00000546875,4,1,0,80,0,0
46654,-125,4,1,0,80,0,0
46801,-123.53634,4,1,0,80,0,0
46948,-122.08984,4,1,0,80,0,0
47096,-119.24743,4,1,0,80,0,0
47389,-117.851135,4,1,0,80,0,0
47536,-116.47118,4,1,0,80,0,0
47830,-113.75958,4,1,0,80,0,0
47977,-112.42755,4,1,0,80,0,0
48124,-111.111115,4,1,0,80,0,0
48271,-100.00000315,4,1,0,80,0,0
48565,-125.000004921875,4,1,0,80,0,0
55477,-125,4,1,0,80,0,0
55624,-122.09375,4,1,0,80,0,0
55698,-120.656395,4,1,0,80,0,0
55771,-119.255066,4,1,0,80,0,0
55918,-116.48237,4,1,0,80,0,0
56065,-113.77415,4,1,0,80,0,0
56213,-111.111115,4,1,0,80,0,0
56360,-100.00000315,4,1,0,80,0,0
57390,-111.111115,4,1,0,80,0,0
57684,-83.3333355208333,4,1,0,100,0,1
57977,-100,4,1,0,100,0,1
62389,-100,4,1,0,100,0,1
62536,-100.70456,4,1,0,100,0,1
62610,-101.06111,4,1,0,100,0,1
62683,-101.41407,4,1,0,100,0,1
62830,-102.12859,4,1,0,100,0,1
62977,-102.848145,4,1,0,100,0,1
63124,-103.57277,4,1,0,100,0,1
63198,-103.939476,4,1,0,100,0,1
63271,-104.3025,4,1,0,100,0,1
63418,-105.03736,4,1,0,100,0,1
63492,-105.409256,4,1,0,100,0,1
63565,-105.77741,4,1,0,100,0,1
63639,-106.151924,4,1,0,100,0,1
63713,-106.52776,4,1,0,100,0,1
63860,-107.27831,4,1,0,100,0,1
64007,-108.03414,4,1,0,100,0,1
64154,-108.79531,4,1,0,100,0,1
64301,-109.56184,4,1,0,100,0,1
64374,-109.94448,4,1,0,100,0,1
64448,-110.333755,4,1,0,100,0,1
64521,-110.7191,4,1,0,100,0,1
64595,-111.111115,4,1,0,100,0,1
64742,-90.9090909090909,4,1,0,100,0,1
64889,-100,4,1,0,100,0,1
64963,-98.413414,4,1,0,100,0,1
65036,-96.87293,4,1,0,100,0,1
65183,-93.84364,4,1,0,100,0,1
65330,-90.90909,4,1,0,100,0,1
65477,-100,4,1,0,100,0,1
65551,-97.629585,4,1,0,100,0,1
65624,-95.34626,4,1,0,100,0,1
65772,-90.90909,4,1,0,100,0,0
65919,-100,4,1,0,100,0,0
66066,-100,4,1,0,100,0,0
66213,-101.78164,4,1,0,100,0,0
66286,-102.67207,4,1,0,100,0,0
66360,-103.58265,4,1,0,100,0,0
66507,-105.41554,4,1,0,100,0,0
66580,-106.33777,4,1,0,100,0,0
66654,-107.28086,4,1,0,100,0,0
66801,-109.17919,4,1,0,100,0,0
66948,-111.11111,4,1,0,100,0,0
67096,-83.3333333333333,4,1,0,100,0,1
67389,-100,4,1,0,100,0,1
71801,-100,4,1,0,100,0,1
71948,-100.75504,4,1,0,100,0,1
72021,-101.13211,4,1,0,100,0,1
72095,-101.51579,4,1,0,100,0,1
72242,-102.28229,4,1,0,100,0,1
72389,-103.054565,4,1,0,100,0,1
72536,-103.83268,4,1,0,100,0,1
72610,-104.22659,4,1,0,100,0,1
72683,-104.61665,4,1,0,100,0,1
72830,-105.406555,4,1,0,100,0,1
72904,-105.80645,4,1,0,100,0,1
72977,-106.20243,4,1,0,100,0,1
73051,-106.60534,4,1,0,100,0,1
73124,-107.00431,4,1,0,100,0,1
73271,-107.81224,4,1,0,100,0,1
73418,-108.62627,4,1,0,100,0,1
73492,-109.038376,4,1,0,100,0,1
73565,-109.44645,4,1,0,100,0,1
73713,-110.27847,4,1,0,100,0,1
73860,-111.111115,4,1,0,100,0,1
74008,-90.9090935123967,4,1,0,100,0,1
74155,-100,4,1,0,100,0,1
74448,-98.11185,4,1,0,100,0,1
74521,-97.18749,4,1,0,100,0,1
74595,-96.25935,4,1,0,100,0,1
74742,-94.441826,4,1,0,100,0,1
74889,-92.65863,4,1,0,100,0,1
75036,-90.90909,4,1,0,100,0,1
75183,-83.3333355208334,4,1,0,100,0,1
76214,-111.111115,4,1,0,80,0,1
76508,-100.00000315,4,1,0,80,0,0
76801,-111.111115,4,1,0,80,0,0
83566,-111.111115,4,1,0,40,0,0
84743,-142.857149285714,4,1,0,40,0,0
85919,-111.111115,4,1,0,80,0,0
86214,-125.000004921875,4,1,0,80,0,0
93714,-125,4,1,0,80,0,0
93861,-117.851135,4,1,0,80,0,0
94008,-111.111115,4,1,0,80,0,0
94155,-125,4,1,0,80,0,0
94449,-117.851135,4,1,0,80,0,0
94596,-111.111115,4,1,0,80,0,0
94890,-125,4,1,0,80,0,0
95037,-117.851135,4,1,0,80,0,0
95184,-111.111115,4,1,0,80,0,0
95331,-100.00000315,4,1,0,80,0,0
95625,-125.000004921875,4,1,0,80,0,0
99449,-125,4,1,0,80,0,0
99596,-125.9304,4,1,0,80,0,0
99743,-126.867714,4,1,0,80,0,0
99890,-127.81201,4,1,0,80,0,0
100037,-129.72176,4,1,0,80,0,0
100331,-130.68729,4,1,0,80,0,0
100625,-132.63998,4,1,0,80,0,0
100772,-133.62724,4,1,0,80,0,0
100919,-134.62186,4,1,0,80,0,0
101066,-135.62387,4,1,0,80,0,0
101214,-138.68188,4,1,0,80,0,0
101655,-139.71411,4,1,0,80,0,0
101802,-140.75403,4,1,0,80,0,0
101949,-141.8017,4,1,0,80,0,0
102096,-142.85715,4,1,0,80,0,0
102243,-111.111115,4,1,0,80,0,0
102390,-125,4,1,0,80,0,0
102684,-122.08984,4,1,0,80,0,0
102831,-119.24743,4,1,0,80,0,0
102978,-116.47118,4,1,0,80,0,0
103125,-113.75958,4,1,0,80,0,0
103272,-111.111115,4,1,0,80,0,0
103419,-100.00000315,4,1,0,80,0,0
104449,-111.111115,4,1,0,80,0,0
104743,-83.3333333333333,4,1,0,100,0,1
105037,-100,4,1,0,100,0,1
109446,-100,4,1,0,100,0,1
109593,-100.70456,4,1,0,100,0,1
109667,-101.06111,4,1,0,100,0,1
109740,-101.41407,4,1,0,100,0,1
109887,-102.12859,4,1,0,100,0,1
110034,-102.848145,4,1,0,100,0,1
110181,-103.57277,4,1,0,100,0,1
110255,-103.939476,4,1,0,100,0,1
110328,-104.3025,4,1,0,100,0,1
110475,-105.03736,4,1,0,100,0,1
110549,-105.409256,4,1,0,100,0,1
110622,-105.77741,4,1,0,100,0,1
110696,-106.151924,4,1,0,100,0,1
110770,-106.52776,4,1,0,100,0,1
110917,-107.27831,4,1,0,100,0,1
111064,-108.03414,4,1,0,100,0,1
111211,-108.79531,4,1,0,100,0,1
111358,-109.56184,4,1,0,100,0,1
111431,-109.94448,4,1,0,100,0,1
111505,-110.333755,4,1,0,100,0,1
111578,-110.7191,4,1,0,100,0,1
111652,-111.111115,4,1,0,100,0,1
111799,-90.9090909090909,4,1,0,100,0,1
111946,-100,4,1,0,100,0,1
112020,-98.413414,4,1,0,100,0,1
112093,-96.87293,4,1,0,100,0,1
112240,-93.84364,4,1,0,100,0,1
112387,-90.90909,4,1,0,100,0,1
112534,-100,4,1,0,100,0,1
112608,-97.629585,4,1,0,100,0,1
112681,-95.34626,4,1,0,100,0,1
112831,-90.90909,4,1,0,100,0,0
112976,-100,4,1,0,100,0,0
113125,-100,4,1,0,100,0,0
113269,-101.78164,4,1,0,100,0,0
113342,-102.67207,4,1,0,100,0,0
113416,-103.58265,4,1,0,100,0,0
113563,-105.41554,4,1,0,100,0,0
113636,-106.33777,4,1,0,100,0,0
113710,-107.28086,4,1,0,100,0,0
113857,-109.17919,4,1,0,100,0,0
114004,-111.11111,4,1,0,100,0,0
114155,-83.3333333333333,4,1,0,100,0,1
114449,-100,4,1,0,100,0,1
118858,-100,4,1,0,100,0,1
119005,-100.75504,4,1,0,100,0,1
119078,-101.13211,4,1,0,100,0,1
119152,-101.51579,4,1,0,100,0,1
119299,-102.28229,4,1,0,100,0,1
119446,-103.054565,4,1,0,100,0,1
119593,-103.83268,4,1,0,100,0,1
119667,-104.22659,4,1,0,100,0,1
119740,-104.61665,4,1,0,100,0,1
119887,-105.406555,4,1,0,100,0,1
119961,-105.80645,4,1,0,100,0,1
120034,-106.20243,4,1,0,100,0,1
120108,-106.60534,4,1,0,100,0,1
120181,-107.00431,4,1,0,100,0,1
120328,-107.81224,4,1,0,100,0,1
120475,-108.62627,4,1,0,100,0,1
120549,-109.038376,4,1,0,100,0,1
120622,-109.44645,4,1,0,100,0,1
120770,-110.27847,4,1,0,100,0,1
120917,-111.111115,4,1,0,100,0,1
121066,-90.9090935123967,4,1,0,80,0,0
121214,-125.000004921875,4,1,0,80,0,0
121361,-126.047585,4,1,0,80,0,0
121508,-127.10394,4,1,0,80,0,0
121581,-127.63181,4,1,0,80,0,0
121655,-128.16914,4,1,0,80,0,0
121802,-129.2433,4,1,0,70,0,0
121949,-130.32643,4,1,0,70,0,0
122096,-131.41864,4,1,0,70,0,0
122243,-132.52002,4,1,0,70,0,0
122390,-134.75052,4,1,0,70,0,0
122684,-135.87984,4,1,0,70,0,0
122831,-137.01857,4,1,0,70,0,0
123125,-139.32481,4,1,0,70,0,0
123272,-140.49245,4,1,0,70,0,0
123346,-141.08392,4,1,0,70,0,0
123419,-141.66985,4,1,0,70,0,0
123566,-142.85715,4,1,0,70,0,0
123861,-125,4,1,0,70,0,0
124008,-126.86842,4,1,0,70,0,0
124081,-127.80664,4,1,0,70,0,0
124155,-128.76479,4,1,0,70,0,0
124302,-130.68948,4,1,0,70,0,0
124449,-132.64296,4,1,0,70,0,0
124596,-134.62563,4,1,0,70,0,0
124743,-138.68033,4,1,0,70,0,0
125184,-142.85715,4,1,0,70,0,0
125478,-142.85715,4,1,0,70,0,0
125625,-136.60576,4,1,0,70,0,0
125772,-130.65923,4,1,0,70,0,0
125919,-111.111115,4,1,0,80,0,0
126214,-111.111115,4,1,0,80,0,0
134008,-100.00000315,4,1,0,80,0,0
134155,-111.111115,4,1,0,80,0,0
134596,-100.00000315,4,1,0,80,0,0
134743,-111.111115,4,1,0,80,0,0
135184,-90.90909,4,1,0,80,0,0
135258,-91.20161,4,1,0,80,0,0
135331,-91.491,4,1,0,80,0,0
135478,-92.07624,4,1,0,80,0,0
135552,-92.37214,4,1,0,80,0,0
135625,-84.806296415536,4,1,0,80,0,0
135772,-93.25686,4,1,0,80,0,0
135919,-93.85223,4,1,0,80,0,0
136066,-94.45102,4,1,0,80,0,0
136140,-94.753746,4,1,0,80,0,0
136214,-95.057335,4,1,0,80,0,0
136361,-95.663,4,1,0,80,0,0
136434,-95.96505,4,1,0,80,0,0
136508,-96.27211,4,1,0,80,0,0
136581,-96.57588,4,1,0,80,0,0
136655,-96.88469,4,1,0,80,0,0
136802,-97.50073,4,1,0,80,0,0
136949,-98.120285,4,1,0,80,0,0
137022,-98.429245,4,1,0,80,0,0
137096,-98.74334,4,1,0,80,0,0
137243,-99.369896,4,1,0,80,0,0
137390,-100,4,1,0,80,0,0
137537,-99.98631,4,1,0,80,0,0
137611,-99.95352,4,1,0,80,0,0
137684,-99.89064,4,1,0,80,0,0
137758,-99.78574,4,1,0,80,0,0
137831,-99.631836,4,1,0,80,0,0
137905,-99.41493,4,1,0,80,0,0
137978,-99.13168,4,1,0,80,0,0
138052,-98.76544,4,1,0,80,0,0
138125,-98.31799,4,1,0,80,0,0
138199,-97.7696,4,1,0,80,0,0
138272,-97.12864,4,1,0,80,0,0
138346,-96.372055,4,1,0,80,0,0
138419,-95.51607,4,1,0,80,0,0
138493,-94.534225,4,1,0,80,0,0
138566,-93.45146,4,1,0,80,0,0
138714,-90.90909,4,1,0,80,0,0
138861,-91.99864,4,1,0,80,0,0
139008,-93.10124,4,1,0,80,0,0
139155,-94.217064,4,1,0,80,0,0
139228,-94.776146,4,1,0,80,0,0
139302,-95.34626,4,1,0,80,0,0
139375,-95.912025,4,1,0,80,0,0
139449,-96.48899,4,1,0,80,0,0
139596,-97.64541,4,1,0,80,0,0
139743,-98.81569,4,1,0,80,0,0
139890,-100,4,1,0,80,0,0
139964,-99.603134,4,1,0,80,0,0
140037,-99.21301,4,1,0,80,0,0
140184,-98.43153,4,1,0,80,0,0
140258,-98.04022,4,1,0,80,0,0
140331,-97.65556,4,1,0,80,0,0
140478,-96.885025,4,1,0,80,0,0
140552,-96.499214,4,1,0,80,0,0
140625,-96.119934,4,1,0,80,0,0
140772,-95.360245,4,1,0,80,0,0
140919,-94.60595,4,1,0,80,0,0
140993,-94.22824,4,1,0,80,0,0
141066,-93.85698,4,1,0,80,0,0
141140,-93.48196,4,1,0,80,0,0
141214,-93.10828,4,1,0,80,0,0
141361,-92.369965,4,1,0,80,0,0
141434,-92.00528,4,1,0,80,0,0
141508,-91.63692,4,1,0,80,0,0
141655,-90.90909,4,1,0,80,0,0
142243,-83.333336,4,1,0,80,0,0
142316,-84.05875,4,1,0,80,0,0
142390,-84.800545,4,1,0,80,0,0
142464,-85.54888,4,1,0,80,0,0
142537,-86.29358,4,1,0,80,0,0
142611,-87.05509,4,1,0,80,0,0
142684,-87.812904,4,1,0,80,0,0
142831,-89.35898,4,1,0,80,0,0
142978,-90.932274,4,1,0,80,0,0
143052,-91.734726,4,1,0,80,0,0
143125,-92.533264,4,1,0,80,0,0
143199,-93.34985,4,1,0,80,0,0
143272,-94.16246,4,1,0,80,0,0
143419,-95.82032,4,1,0,80,0,0
143566,-97.507385,4,1,0,80,0,0
143714,-99.23592,4,1,0,80,0,0
143861,-100.983116,4,1,0,80,0,0
143934,-101.86217,4,1,0,80,0,0
144008,-102.76108,4,1,0,80,0,0
144081,-103.6556,4,1,0,80,0,0
144155,-104.570335,4,1,0,80,0,0
144228,-105.48061,4,1,0,80,0,0
144302,-106.411446,4,1,0,80,0,0
144375,-107.33775,4,1,0,80,0,0
144449,-108.28497,4,1,0,80,0,0
144522,-109.2276,4,1,0,80,0,0
144596,-110.19149,4,1,0,80,0,0
144666,-111.111111111111,4,1,0,80,0,0
144743,-99.9999989,4,1,0,80,0,0
145037,-125,4,1,0,70,0,0
145331,-127.4062,4,1,0,70,0,0
145625,-129.85872,4,1,0,70,0,0
145772,-131.10262,4,1,0,70,0,0
145919,-132.35843,4,1,0,70,0,0
146066,-133.62628,4,1,0,70,0,0
146214,-134.91502,4,1,0,70,0,0
146508,-137.51208,4,1,0,70,0,0
146802,-140.15913,4,1,0,70,0,0
146949,-141.50171,4,1,0,70,0,0
147096,-142.85715,4,1,0,70,0,0
152684,-142.85715,4,1,0,70,0,0
152831,-142.60602,4,1,0,70,0,0
152978,-141.8579,4,1,0,70,0,0
153125,-140.62831,4,1,0,70,0,0
153272,-138.94229,4,1,0,70,0,0
153419,-136.83304,4,1,0,70,0,0
153566,-134.34045,4,1,0,70,0,0
153714,-131.48898,4,1,0,70,0,0
153861,-128.36522,4,1,0,70,0,0
154008,-125,4,1,0,70,0,0
154155,-111.111111111111,4,1,0,70,0,0
154449,-142.857142857143,4,1,0,70,0,0
158861,-111.111111111111,4,1,0,80,0,0
159155,-125,4,1,0,80,0,0
159449,-124.98439,4,1,0,80,0,0
159596,-124.947334,4,1,0,80,0,0
159669,-124.91664,4,1,0,80,0,0
159743,-124.87525,4,1,0,80,0,0
159890,-124.756584,4,1,0,80,0,0
160184,-124.33432,4,1,0,80,0,0
160331,-124.008934,4,1,0,80,0,0
160478,-123.59363,4,1,0,80,0,0
160772,-122.455894,4,1,0,80,0,0
160919,-121.717,4,1,0,80,0,0
161066,-120.85549,4,1,0,80,0,0
161140,-120.37366,4,1,0,80,0,0
161214,-119.8588,4,1,0,80,0,0
161361,-118.73638,4,1,0,80,0,0
161508,-117.4794,4,1,0,80,0,0
161655,-116.08692,4,1,0,80,0,0
161949,-112.89969,4,1,0,80,0,0
162096,-111.111115,4,1,0,80,0,0
162243,-90.9090935123967,4,1,0,80,0,0
163566,-142.857149285715,4,1,0,50,0,0
172978,-125.000004921876,4,1,0,70,0,0
177390,-125,4,1,0,70,0,0
177537,-124.13729,4,1,0,70,0,0
177684,-123.28053,4,1,0,70,0,0
177978,-121.5847,4,1,0,70,0,0
178125,-120.74557,4,1,0,70,0,0
178419,-119.08462,4,1,0,70,0,0
178566,-118.26273,4,1,0,70,0,0
178714,-117.44099,4,1,0,70,0,0
178861,-116.63043,4,1,0,70,0,0
179008,-115.82548,4,1,0,70,0,0
179302,-114.2322,4,1,0,70,0,0
179449,-113.44381,4,1,0,70,0,0
179596,-112.66085,4,1,0,70,0,0
179743,-111.8833,4,1,0,70,0,0
179890,-111.111115,4,1,0,70,0,0
180037,-90.9090935123967,4,1,0,80,0,0
181802,-100,4,1,0,80,0,0
181875,-98.65549,4,1,0,80,0,0
181949,-97.31102,4,1,0,80,0,0
182022,-96.00266,4,1,0,80,0,0
182096,-94.69434,4,1,0,80,0,0
182169,-93.421165,4,1,0,80,0,0
182243,-92.148026,4,1,0,80,0,0
182316,-90.90909,4,1,0,80,0,0
182390,-83.3333325694445,4,1,0,100,0,1
182681,-100,4,1,0,100,0,1
187093,-100,4,1,0,100,0,1
187240,-100.70456,4,1,0,100,0,1
187314,-101.06111,4,1,0,100,0,1
187387,-101.41407,4,1,0,100,0,1
187534,-102.12859,4,1,0,100,0,1
187681,-102.848145,4,1,0,100,0,1
187828,-103.57277,4,1,0,100,0,1
187902,-103.939476,4,1,0,100,0,1
187975,-104.3025,4,1,0,100,0,1
188122,-105.03736,4,1,0,100,0,1
188196,-105.409256,4,1,0,100,0,1
188269,-105.77741,4,1,0,100,0,1
188343,-106.151924,4,1,0,100,0,1
188417,-106.52776,4,1,0,100,0,1
188564,-107.27831,4,1,0,100,0,1
188711,-108.03414,4,1,0,100,0,1
188858,-108.79531,4,1,0,100,0,1
189005,-109.56184,4,1,0,100,0,1
189078,-109.94448,4,1,0,100,0,1
189152,-110.333755,4,1,0,100,0,1
189225,-110.7191,4,1,0,100,0,1
189299,-111.111115,4,1,0,100,0,1
189446,-90.9090909090909,4,1,0,100,0,1
189593,-100,4,1,0,100,0,1
189667,-98.413414,4,1,0,100,0,1
189740,-96.87293,4,1,0,100,0,1
189887,-93.84364,4,1,0,100,0,1
190034,-90.90909,4,1,0,100,0,1
190181,-100,4,1,0,100,0,1
190255,-97.629585,4,1,0,100,0,1
190328,-95.34626,4,1,0,100,0,1
190478,-90.90909,4,1,0,100,0,0
190625,-100,4,1,0,100,0,0
190772,-100,4,1,0,100,0,0
190916,-101.78164,4,1,0,100,0,0
190989,-102.67207,4,1,0,100,0,0
191063,-103.58265,4,1,0,100,0,0
191210,-105.41554,4,1,0,100,0,0
191283,-106.33777,4,1,0,100,0,0
191357,-107.28086,4,1,0,100,0,0
191504,-109.17919,4,1,0,100,0,0
191651,-111.11111,4,1,0,100,0,0
191802,-83.3333333333333,4,1,0,100,0,1
192093,-100,4,1,0,100,0,1
196505,-100,4,1,0,100,0,1
196652,-100.75504,4,1,0,100,0,1
196725,-101.13211,4,1,0,100,0,1
196799,-101.51579,4,1,0,100,0,1
196946,-102.28229,4,1,0,100,0,1
197093,-103.054565,4,1,0,100,0,1
197240,-103.83268,4,1,0,100,0,1
197314,-104.22659,4,1,0,100,0,1
197387,-104.61665,4,1,0,100,0,1
197534,-105.406555,4,1,0,100,0,1
197608,-105.80645,4,1,0,100,0,1
197681,-106.20243,4,1,0,100,0,1
197755,-106.60534,4,1,0,100,0,1
197828,-107.00431,4,1,0,100,0,1
197975,-107.81224,4,1,0,100,0,1
198122,-108.62627,4,1,0,100,0,1
198196,-109.038376,4,1,0,100,0,1
198269,-109.44645,4,1,0,100,0,1
198417,-110.27847,4,1,0,100,0,1
198564,-111.111115,4,1,0,100,0,1
198714,-90.9090935123967,4,1,0,100,0,0
198861,-111.111111111111,4,1,0,80,0,0
199008,-111.111115,4,1,0,80,0,0
199155,-109.17702,4,1,0,80,0,0
199228,-108.22911,4,1,0,80,0,0
199302,-107.2766,4,1,0,80,0,0
199449,-105.40926,4,1,0,80,0,0
199596,-103.57442,4,1,0,80,0,0
199743,-101.771515,4,1,0,80,0,0
199890,-100,4,1,0,80,0,0
201214,-90.90909,4,1,0,100,0,1
208125,-90.9090909090909,4,1,0,100,0,0
208272,-100,4,1,0,80,0,0
208419,-100,4,1,0,80,0,0
208566,-102.57914,4,1,0,80,0,0
208640,-103.90255,4,1,0,80,0,0
208714,-105.24303,4,1,0,80,0,0
208861,-107.9574,4,1,0,80,0,0
209008,-110.74177,4,1,0,80,0,0
209155,-113.59795,4,1,0,80,0,0
209302,-116.5278,4,1,0,80,0,0
209449,-122.61614,4,1,0,80,0,0
209743,-125.77858,4,1,0,80,0,0
209890,-129.02261,4,1,0,80,0,0
209964,-130.68716,4,1,0,80,0,0
210037,-132.35027,4,1,0,80,0,0
210184,-135.76375,4,1,0,80,0,0
210331,-139.2653,4,1,0,80,0,0
210405,-141.06201,4,1,0,80,0,0
210478,-142.85715,4,1,0,80,0,0
210625,-111.111115432099,4,1,0,80,0,0
210919,-125.00000546875,4,1,0,80,0,0
211655,-111.111115432099,4,1,0,80,0,0
211802,-125.00000546875,4,1,0,80,0,0
212978,-111.111115432099,4,1,0,80,0,0

[HitObjects]
256,192,1214,5,0,0:0:0:0:
256,192,1508,1,8,0:0:0:0:
256,192,1802,1,0,0:0:0:0:
256,192,1949,1,0,0:0:0:0:
256,192,2096,1,8,0:0:0:0:
256,192,2243,1,8,0:0:0:0:
256,192,2537,1,0,0:0:0:0:
256,192,2684,1,8,0:0:0:0:
256,192,2831,1,0,0:0:0:0:
256,192,3125,1,0,0:0:0:0:
256,192,3272,1,8,0:0:0:0:
256,192,3419,1,8,0:0:0:0:
256,192,3566,5,0,0:0:0:0:
256,192,3861,1,8,0:0:0:0:
256,192,4008,1,0,0:0:0:0:
256,192,4155,1,0,0:0:0:0:
256,192,4302,1,0,0:0:0:0:
256,192,4449,1,8,0:0:0:0:
256,192,4596,1,0,0:0:0:0:
256,192,4890,1,0,0:0:0:0:
256,192,5037,1,8,0:0:0:0:
256,192,5184,1,0,0:0:0:0:
256,192,5478,1,0,0:0:0:0:
256,192,5625,1,8,0:0:0:0:
256,192,5772,1,0,0:0:0:0:
256,192,5919,5,0,0:0:0:0:
256,192,6214,1,8,0:0:0:0:
256,192,6508,1,0,0:0:0:0:
256,192,6655,1,0,0:0:0:0:
256,192,6802,1,8,0:0:0:0:
256,192,6949,1,8,0:0:0:0:
256,192,7243,1,0,0:0:0:0:
256,192,7390,1,8,0:0:0:0:
256,192,7537,1,0,0:0:0:0:
256,192,7831,1,0,0:0:0:0:
256,192,7978,1,8,0:0:0:0:
256,192,8125,1,8,0:0:0:0:
256,192,8272,5,0,0:0:0:0:
256,192,8566,1,8,0:0:0:0:
256,192,8861,1,0,0:0:0:0:
256,192,9008,1,0,0:0:0:0:
256,192,9155,1,8,0:0:0:0:
256,192,9302,1,8,0:0:0:0:
256,192,9596,1,8,0:0:0:0:
256,192,9743,1,0,0:0:0:0:
256,192,9890,1,8,0:0:0:0:
256,192,10184,1,0,0:0:0:0:
256,192,10331,1,8,0:0:0:0:
256,192,10405,1,8,0:0:0:0:
256,192,10478,1,0,0:0:0:0:
256,192,10625,5,12,0:0:0:0:
256,192,10919,1,0,0:0:0:0:
256,192,11214,1,8,0:0:0:0:
256,192,11361,1,0,0:0:0:0:
256,192,11434,1,0,0:0:0:0:
256,192,11508,1,0,0:0:0:0:
256,192,11655,1,8,0:0:0:0:
256,192,11949,1,0,0:0:0:0:
256,192,12096,1,8,0:0:0:0:
256,192,12243,1,0,0:0:0:0:
256,192,12316,1,0,0:0:0:0:
256,192,12390,1,8,0:0:0:0:
256,192,12537,1,0,0:0:0:0:
256,192,12684,1,8,0:0:0:0:
256,192,12758,1,8,0:0:0:0:
256,192,12831,1,0,0:0:0:0:
256,192,12978,5,8,0:0:0:0:
256,192,13272,1,0,0:0:0:0:
256,192,13566,1,8,0:0:0:0:
256,192,13640,1,0,0:0:0:0:
256,192,13714,1,8,0:0:0:0:
256,192,13787,1,8,0:0:0:0:
256,192,13861,1,0,0:0:0:0:
256,192,14008,1,8,0:0:0:0:
256,192,14302,1,0,0:0:0:0:
256,192,14449,1,8,0:0:0:0:
256,192,14596,1,0,0:0:0:0:
256,192,14669,1,0,0:0:0:0:
256,192,14743,1,8,0:0:0:0:
256,192,14890,1,0,0:0:0:0:
256,192,15037,1,8,0:0:0:0:
256,192,15111,1,8,0:0:0:0:
256,192,15184,1,0,0:0:0:0:
256,192,15258,1,0,0:0:0:0:
256,192,15331,5,8,0:0:0:0:
256,192,15625,1,0,0:0:0:0:
256,192,15919,1,8,0:0:0:0:
256,192,16066,1,0,0:0:0:0:
256,192,16140,1,0,0:0:0:0:
256,192,16214,1,0,0:0:0:0:
256,192,16361,1,8,0:0:0:0:
256,192,16655,1,0,0:0:0:0:
256,192,16802,1,8,0:0:0:0:
256,192,16949,1,0,0:0:0:0:
256,192,17022,1,0,0:0:0:0:
256,192,17096,1,8,0:0:0:0:
256,192,17243,1,0,0:0:0:0:
256,192,17390,1,8,0:0:0:0:
256,192,17464,1,8,0:0:0:0:
256,192,17537,1,0,0:0:0:0:
256,192,17684,5,8,0:0:0:0:
256,192,17978,1,0,0:0:0:0:
256,192,18272,1,8,0:0:0:0:
256,192,18346,1,0,0:0:0:0:
256,192,18419,1,8,0:0:0:0:
256,192,18493,1,0,0:0:0:0:
256,192,18566,1,8,0:0:0:0:
256,192,18714,1,4,0:0:0:0:
256,192,19008,1,4,0:0:0:0:
256,192,19302,1,4,0:0:0:0:
256,192,20037,5,12,0:0:0:0:
256,192,20331,1,8,0:0:0:0:
256,192,20478,1,0,0:0:0:0:
256,192,20625,1,8,0:0:0:0:
256,192,20772,1,8,0:0:0:0:
256,192,20919,1,0,0:0:0:0:
256,192,21066,1,8,0:0:0:0:
256,192,21361,1,0,0:0:0:0:
256,192,21508,1,0,0:0:0:0:
256,192,21655,1,8,0:0:0:0:
256,192,21949,1,0,0:0:0:0:
256,192,22096,1,8,0:0:0:0:
256,192,22390,1,0,0:0:0:0:
256,192,22684,1,8,0:0:0:0:
256,192,22831,1,0,0:0:0:0:
256,192,22978,1,0,0:0:0:0:
256,192,23125,1,8,0:0:0:0:
256,192,23272,1,0,0:0:0:0:
256,192,23419,1,8,0:0:0:0:
256,192,23714,1,0,0:0:0:0:
256,192,23861,1,8,0:0:0:0:
256,192,24008,1,8,0:0:0:0:
256,192,24302,1,0,0:0:0:0:
256,192,24449,1,8,0:0:0:0:
256,192,24596,1,8,0:0:0:0:
256,192,24743,1,0,0:0:0:0:
256,192,25037,5,8,0:0:0:0:
256,192,25184,1,0,0:0:0:0:
256,192,25331,1,8,0:0:0:0:
256,192,25478,1,0,0:0:0:0:
256,192,25625,1,0,0:0:0:0:
256,192,25772,1,8,0:0:0:0:
256,192,26066,1,0,0:0:0:0:
256,192,26214,1,0,0:0:0:0:
256,192,26361,1,8,0:0:0:0:
256,192,26655,1,0,0:0:0:0:
256,192,26802,1,8,0:0:0:0:
256,192,26949,1,0,0:0:0:0:
256,192,27096,1,8,0:0:0:0:
256,192,27390,1,0,0:0:0:0:
256,192,27537,1,8,0:0:0:0:
256,192,27831,1,0,0:0:0:0:
256,192,27978,1,0,0:0:0:0:
256,192,28125,1,8,0:0:0:0:
256,192,28419,1,8,0:0:0:0:
256,192,28566,1,0,0:0:0:0:
256,192,28714,1,8,0:0:0:0:
256,192,29008,1,0,0:0:0:0:
256,192,29155,1,8,0:0:0:0:
256,192,29302,1,0,0:0:0:0:
256,192,29449,1,12,0:0:0:0:
256,192,29743,5,8,0:0:0:0:
256,192,29890,1,0,0:0:0:0:
256,192,30037,1,0,0:0:0:0:
256,192,30184,1,8,0:0:0:0:
256,192,30331,1,0,0:0:0:0:
256,192,30478,1,8,0:0:0:0:
256,192,30772,1,0,0:0:0:0:
256,192,30919,1,0,0:0:0:0:
256,192,31066,1,8,0:0:0:0:
256,192,31361,1,0,0:0:0:0:
256,192,31508,1,8,0:0:0:0:
256,192,31802,1,8,0:0:0:0:
256,192,32096,1,8,0:0:0:0:
256,192,32243,1,0,0:0:0:0:
256,192,32390,1,0,0:0:0:0:
256,192,32537,1,8,0:0:0:0:
256,192,32684,1,0,0:0:0:0:
256,192,32831,1,8,0:0:0:0:
256,192,33125,1,0,0:0:0:0:
256,192,33272,1,8,0:0:0:0:
256,192,33419,1,0,0:0:0:0:
256,192,33566,5,8,0:0:0:0:
256,192,33714,1,8,0:0:0:0:
256,192,33861,1,0,0:0:0:0:
256,192,34008,1,8,0:0:0:0:
256,192,34302,1,0,0:0:0:0:
256,192,34449,1,8,0:0:0:0:
256,192,34743,1,8,0:0:0:0:
256,192,34890,1,0,0:0:0:0:
256,192,35037,1,0,0:0:0:0:
256,192,35184,1,8,0:0:0:0:
256,192,35478,1,0,0:0:0:0:
256,192,35625,1,8,0:0:0:0:
256,192,35772,1,0,0:0:0:0:
256,192,35919,1,8,0:0:0:0:
256,192,36066,1,8,0:0:0:0:
256,192,36214,1,0,0:0:0:0:
256,192,36361,1,8,0:0:0:0:
256,192,36655,5,0,0:0:0:0:
256,192,36802,1,8,0:0:0:0:
256,192,36875,1,8,0:0:0:0:
256,192,36949,1,0,0:0:0:0:
256,192,37096,1,0,0:0:0:0:
256,192,37243,1,8,0:0:0:0:
256,192,37390,1,0,0:0:0:0:
256,192,37537,1,8,0:0:0:0:
256,192,37831,1,8,0:0:0:0:
256,192,37978,1,0,0:0:0:0:
256,192,38125,1,8,0:0:0:0:
256,192,38199,1,0,0:0:0:0:
256,192,38272,1,8,0:0:0:0:
256,192,38419,1,0,0:0:0:0:
256,192,38566,1,8,0:0:0:0:
256,192,38714,1,0,0:0:0:0:
256,192,38861,1,12,0:0:0:0:
256,192,39155,5,8,0:0:0:0:
256,192,39302,1,0,0:0:0:0:
256,192,39449,1,8,0:0:0:0:
256,192,39596,1,8,0:0:0:0:
256,192,39743,1,0,0:0:0:0:
256,192,39890,1,8,0:0:0:0:
256,192,40184,1,0,0:0:0:0:
256,192,40331,1,0,0:0:0:0:
256,192,40478,1,8,0:0:0:0:
256,192,40772,1,0,0:0:0:0:
256,192,40919,1,8,0:0:0:0:
256,192,41214,1,0,0:0:0:0:
256,192,41508,1,8,0:0:0:0:
256,192,41655,1,0,0:0:0:0:
256,192,41802,1,0,0:0:0:0:
256,192,41949,1,8,0:0:0:0:
256,192,42096,1,0,0:0:0:0:
256,192,42243,1,8,0:0:0:0:
256,192,42537,1,0,0:0:0:0:
256,192,42684,1,8,0:0:0:0:
256,192,42831,1,8,0:0:0:0:
256,192,43125,1,0,0:0:0:0:
256,192,43272,1,8,0:0:0:0:
256,192,43419,1,8,0:0:0:0:
256,192,43566,1,0,0:0:0:0:
256,192,43861,5,8,0:0:0:0:
256,192,44008,1,0,0:0:0:0:
256,192,44155,1,8,0:0:0:0:
256,192,44302,1,0,0:0:0:0:
256,192,44449,1,0,0:0:0:0:
256,192,44596,1,8,0:0:0:0:
256,192,44890,1,8,0:0:0:0:
256,192,45037,1,8,0:0:0:0:
256,192,45184,1,0,0:0:0:0:
256,192,45478,1,0,0:0:0:0:
256,192,45625,1,8,0:0:0:0:
256,192,45772,1,8,0:0:0:0:
256,192,45919,1,0,0:0:0:0:
256,192,46214,1,8,0:0:0:0:
256,192,46361,1,0,0:0:0:0:
256,192,46655,1,8,0:0:0:0:
256,192,46802,1,8,0:0:0:0:
256,192,46949,1,0,0:0:0:0:
256,192,47243,1,8,0:0:0:0:
256,192,47390,1,0,0:0:0:0:
256,192,47537,1,8,0:0:0:0:
256,192,47831,1,0,0:0:0:0:
256,192,47978,1,8,0:0:0:0:
256,192,48125,1,0,0:0:0:0:
256,192,48272,1,12,0:0:0:0:
256,192,48566,5,8,0:0:0:0:
256,192,48714,1,0,0:0:0:0:
256,192,48861,1,8,0:0:0:0:
256,192,49008,1,8,0:0:0:0:
256,192,49155,1,0,0:0:0:0:
256,192,49302,1,8,0:0:0:0:
256,192,49596,1,0,0:0:0:0:
256,192,49743,1,0,0:0:0:0:
256,192,49890,1,8,0:0:0:0:
256,192,50184,1,0,0:0:0:0:
256,192,50331,1,8,0:0:0:0:
256,192,50625,1,0,0:0:0:0:
256,192,50919,1,8,0:0:0:0:
256,192,51066,1,0,0:0:0:0:
256,192,51214,1,0,0:0:0:0:
256,192,51361,1,8,0:0:0:0:
256,192,51508,1,0,0:0:0:0:
256,192,51655,1,8,0:0:0:0:
256,192,51949,1,0,0:0:0:0:
256,192,52096,1,8,0:0:0:0:
256,192,52243,1,0,0:0:0:0:
256,192,52390,5,8,0:0:0:0:
256,192,52537,1,8,0:0:0:0:
256,192,52684,1,0,0:0:0:0:
256,192,52831,1,8,0:0:0:0:
256,192,53125,1,0,0:0:0:0:
256,192,53272,1,8,0:0:0:0:
256,192,53566,1,8,0:0:0:0:
256,192,53714,1,0,0:0:0:0:
256,192,53861,1,0,0:0:0:0:
256,192,54008,1,8,0:0:0:0:
256,192,54302,1,0,0:0:0:0:
256,192,54449,1,8,0:0:0:0:
256,192,54596,1,0,0:0:0:0:
256,192,54743,1,8,0:0:0:0:
256,192,54890,1,8,0:0:0:0:
256,192,55037,1,0,0:0:0:0:
256,192,55184,1,8,0:0:0:0:
256,192,55478,5,0,0:0:0:0:
256,192,55625,1,8,0:0:0:0:
256,192,55699,1,8,0:0:0:0:
256,192,55772,1,0,0:0:0:0:
256,192,55919,1,8,0:0:0:0:
256,192,56066,1,0,0:0:0:0:
256,192,56214,1,0,0:0:0:0:
256,192,56361,1,12,0:0:0:0:
256,192,56655,1,12,0:0:0:0:
256,192,56949,1,12,0:0:0:0:
256,192,57390,5,0,0:0:0:0:
256,192,57684,1,12,0:0:0:0:
256,192,57978,1,8,0:0:0:0:
256,192,58125,1,8,0:0:0:0:
256,192,58199,1,0,0:0:0:0:
256,192,58272,1,0,0:0:0:0:
256,192,58419,1,8,0:0:0:0:
256,192,58566,1,0,0:0:0:0:
256,192,58714,1,8,0:0:0:0:
256,192,58787,1,0,0:0:0:0:
256,192,58861,1,8,0:0:0:0:
256,192,58934,1,8,0:0:0:0:
256,192,59008,1,0,0:0:0:0:
256,192,59155,1,8,0:0:0:0:
256,192,59302,1,0,0:0:0:0:
256,192,59375,1,0,0:0:0:0:
256,192,59449,1,8,0:0:0:0:
256,192,59596,1,0,0:0:0:0:
256,192,59743,5,8,0:0:0:0:
256,192,59816,1,8,0:0:0:0:
256,192,59890,1,0,0:0:0:0:
256,192,59964,1,0,0:0:0:0:
256,192,60037,1,8,0:0:0:0:
256,192,60184,1,0,0:0:0:0:
256,192,60331,1,8,0:0:0:0:
256,192,60405,1,0,0:0:0:0:
256,192,60478,1,8,0:0:0:0:
256,192,60625,1,0,0:0:0:0:
256,192,60772,1,8,0:0:0:0:
256,192,60919,1,0,0:0:0:0:
256,192,61066,1,8,0:0:0:0:
256,192,61140,1,8,0:0:0:0:
256,192,61214,1,0,0:0:0:0:
256,192,61361,1,8,0:0:0:0:
256,192,61434,1,0,0:0:0:0:
256,192,61508,1,0,0:0:0:0:
256,192,61655,1,8,0:0:0:0:
256,192,61728,1,0,0:0:0:0:
256,192,61802,1,8,0:0:0:0:
256,192,61875,1,8,0:0:0:0:
256,192,61949,1,0,0:0:0:0:
256,192,62096,5,8,0:0:0:0:
256,192,62169,1,0,0:0:0:0:
256,192,62243,1,0,0:0:0:0:
256,192,62390,1,8,0:0:0:0:
256,192,62537,1,0,0:0:0:0:
256,192,62611,1,8,0:0:0:0:
256,192,62684,1,0,0:0:0:0:
256,192,62831,1,8,0:0:0:0:
256,192,62978,1,0,0:0:0:0:
256,192,63125,1,8,0:0:0:0:
256,192,63199,1,0,0:0:0:0:
256,192,63272,1,0,0:0:0:0:
256,192,63419,1,8,0:0:0:0:
256,192,63493,1,8,0:0:0:0:
256,192,63566,1,0,0:0:0:0:
256,192,63640,1,0,0:0:0:0:
256,192,63714,1,8,0:0:0:0:
256,192,63861,1,0,0:0:0:0:
256,192,64008,1,8,0:0:0:0:
256,192,64155,1,0,0:0:0:0:
256,192,64302,1,8,0:0:0:0:
256,192,64375,1,0,0:0:0:0:
256,192,64449,1,8,0:0:0:0:
256,192,64522,1,8,0:0:0:0:
256,192,64596,1,0,0:0:0:0:
256,192,64743,5,12,0:0:0:0:
256,192,64890,5,0,0:0:0:0:
256,192,64964,1,0,0:0:0:0:
256,192,65037,1,8,0:0:0:0:
256,192,65184,1,0,0:0:0:0:
256,192,65331,5,12,0:0:0:0:
256,192,65478,5,0,0:0:0:0:
256,192,65552,1,0,0:0:0:0:
256,192,65625,1,0,0:0:0:0:
256,192,65772,5,12,0:0:0:0:
256,192,66066,5,0,0:0:0:0:
256,192,66214,1,8,0:0:0:0:
256,192,66287,1,8,0:0:0:0:
256,192,66361,1,8,0:0:0:0:
256,192,66508,1,0,0:0:0:0:
256,192,66581,1,0,0:0:0:0:
256,192,66655,1,0,0:0:0:0:
256,192,66802,1,8,0:0:0:0:
256,192,66949,1,8,0:0:0:0:
256,192,67096,5,4,0:0:0:0:
256,192,67390,1,8,0:0:0:0:
256,192,67537,1,8,0:0:0:0:
256,192,67611,1,0,0:0:0:0:
256,192,67684,1,0,0:0:0:0:
256,192,67831,1,8,0:0:0:0:
256,192,67978,1,0,0:0:0:0:
256,192,68125,1,8,0:0:0:0:
256,192,68199,1,0,0:0:0:0:
256,192,68272,1,8,0:0:0:0:
256,192,68346,1,8,0:0:0:0:
256,192,68419,1,0,0:0:0:0:
256,192,68566,1,8,0:0:0:0:
256,192,68714,1,0,0:0:0:0:
256,192,68787,1,0,0:0:0:0:
256,192,68861,1,8,0:0:0:0:
256,192,69008,1,0,0:0:0:0:
256,192,69155,5,8,0:0:0:0:
256,192,69228,1,8,0:0:0:0:
256,192,69302,1,0,0:0:0:0:
256,192,69375,1,0,0:0:0:0:
256,192,69449,1,8,0:0:0:0:
256,192,69596,1,0,0:0:0:0:
256,192,69743,1,8,0:0:0:0:
256,192,69816,1,0,0:0:0:0:
256,192,69890,1,8,0:0:0:0:
256,192,70037,1,0,0:0:0:0:
256,192,70184,1,8,0:0:0:0:
256,192,70331,1,0,0:0:0:0:
256,192,70478,1,8,0:0:0:0:
256,192,70552,1,8,0:0:0:0:
256,192,70625,1,0,0:0:0:0:
256,192,70772,1,8,0:0:0:0:
256,192,70846,1,0,0:0:0:0:
256,192,70919,1,0,0:0:0:0:
256,192,71066,1,8,0:0:0:0:
256,192,71140,1,0,0:0:0:0:
256,192,71214,1,8,0:0:0:0:
256,192,71287,1,8,0:0:0:0:
256,192,71361,1,0,0:0:0:0:
256,192,71508,5,8,0:0:0:0:
256,192,71581,1,0,0:0:0:0:
256,192,71655,1,0,0:0:0:0:
256,192,71802,1,8,0:0:0:0:
256,192,71949,1,0,0:0:0:0:
256,192,72022,1,8,0:0:0:0:
256,192,72096,1,0,0:0:0:0:
256,192,72243,1,8,0:0:0:0:
256,192,72390,1,0,0:0:0:0:
256,192,72537,1,8,0:0:0:0:
256,192,72611,1,0,0:0:0:0:
256,192,72684,1,0,0:0:0:0:
256,192,72831,1,8,0:0:0:0:
256,192,72905,1,8,0:0:0:0:
256,192,72978,1,0,0:0:0:0:
256,192,73052,1,0,0:0:0:0:
256,192,73125,1,8,0:0:0:0:
256,192,73272,1,0,0:0:0:0:
256,192,73419,1,8,0:0:0:0:
256,192,73493,1,0,0:0:0:0:
256,192,73566,1,0,0:0:0:0:
256,192,73714,1,8,0:0:0:0:
256,192,73861,1,0,0:0:0:0:
256,192,74008,1,12,0:0:0:0:
256,192,74302,5,0,0:0:0:0:
256,192,74449,1,8,0:0:0:0:
256,192,74522,1,8,0:0:0:0:
256,192,74596,1,0,0:0:0:0:
256,192,74743,1,8,0:0:0:0:
256,192,74890,1,0,0:0:0:0:
256,192,75037,1,0,0:0:0:0:
256,192,75184,1,12,0:0:0:0:
256,192,75478,1,12,0:0:0:0:
256,192,75772,1,12,0:0:0:0:
256,192,75919,1,12,0:0:0:0:
256,192,76214,1,0,0:0:0:0:
256,192,76508,5,12,0:0:0:0:
256,192,76802,1,0,0:0:0:0:
256,192,77096,1,8,0:0:0:0:
256,192,77243,1,0,0:0:0:0:
256,192,77316,1,0,0:0:0:0:
256,192,77390,1,0,0:0:0:0:
256,192,77537,1,8,0:0:0:0:
256,192,77831,1,0,0:0:0:0:
256,192,77978,1,8,0:0:0:0:
256,192,78125,1,0,0:0:0:0:
256,192,78199,1,0,0:0:0:0:
256,192,78272,1,8,0:0:0:0:
256,192,78419,1,0,0:0:0:0:
256,192,78566,1,8,0:0:0:0:
256,192,78640,1,8,0:0:0:0:
256,192,78714,1,0,0:0:0:0:
256,192,78861,5,8,0:0:0:0:
256,192,79155,1,0,0:0:0:0:
256,192,79449,1,8,0:0:0:0:
256,192,79522,1,0,0:0:0:0:
256,192,79596,1,8,0:0:0:0:
256,192,79669,1,8,0:0:0:0:
256,192,79743,1,0,0:0:0:0:
256,192,79890,1,8,0:0:0:0:
256,192,80184,1,0,0:0:0:0:
256,192,80331,1,8,0:0:0:0:
256,192,80478,1,0,0:0:0:0:
256,192,80552,1,0,0:0:0:0:
256,192,80625,1,8,0:0:0:0:
256,192,80772,1,0,0:0:0:0:
256,192,80919,1,8,0:0:0:0:
256,192,80993,1,8,0:0:0:0:
256,192,81066,1,0,0:0:0:0:
256,192,81140,1,0,0:0:0:0:
256,192,81214,5,8,0:0:0:0:
256,192,81508,1,0,0:0:0:0:
256,192,81802,1,8,0:0:0:0:
256,192,81949,1,0,0:0:0:0:
256,192,82022,1,0,0:0:0:0:
256,192,82096,1,0,0:0:0:0:
256,192,82243,1,8,0:0:0:0:
256,192,82537,1,0,0:0:0:0:
256,192,82684,1,8,0:0:0:0:
256,192,82831,1,0,0:0:0:0:
256,192,82905,1,0,0:0:0:0:
256,192,82978,1,8,0:0:0:0:
256,192,83125,1,0,0:0:0:0:
256,192,83272,1,8,0:0:0:0:
256,192,83346,1,8,0:0:0:0:
256,192,83419,1,0,0:0:0:0:
256,192,85184,5,0,0:0:0:0:
256,192,85331,1,8,0:0:0:0:
256,192,85478,1,8,0:0:0:0:
256,192,85625,1,0,0:0:0:0:
256,192,85919,5,12,0:0:0:0:
256,192,86214,1,0,0:0:0:0:
256,192,86361,1,0,0:0:0:0:
256,192,86508,1,8,0:0:0:0:
256,192,86655,1,0,0:0:0:0:
256,192,86802,1,0,0:0:0:0:
256,192,86949,1,8,0:0:0:0:
256,192,87243,1,0,0:0:0:0:
256,192,87390,1,0,0:0:0:0:
256,192,87537,1,8,0:0:0:0:
256,192,87831,1,0,0:0:0:0:
256,192,87978,1,0,0:0:0:0:
256,192,88272,1,8,0:0:0:0:
256,192,88566,1,0,0:0:0:0:
256,192,88714,1,0,0:0:0:0:
256,192,88861,1,8,0:0:0:0:
256,192,89008,1,0,0:0:0:0:
256,192,89155,1,0,0:0:0:0:
256,192,89302,1,8,0:0:0:0:
256,192,89596,1,0,0:0:0:0:
256,192,89743,1,8,0:0:0:0:
256,192,89890,1,8,0:0:0:0:
256,192,90184,1,0,0:0:0:0:
256,192,90331,1,8,0:0:0:0:
256,192,90478,1,8,0:0:0:0:
256,192,90625,1,0,0:0:0:0:
256,192,90919,5,8,0:0:0:0:
256,192,91066,1,0,0:0:0:0:
256,192,91214,1,8,0:0:0:0:
256,192,91361,1,0,0:0:0:0:
256,192,91508,1,0,0:0:0:0:
256,192,91655,1,8,0:0:0:0:
256,192,91949,1,0,0:0:0:0:
256,192,92096,1,0,0:0:0:0:
256,192,92243,1,8,0:0:0:0:
256,192,92537,1,0,0:0:0:0:
256,192,92684,1,8,0:0:0:0:
256,192,92831,1,8,0:0:0:0:
256,192,92978,1,0,0:0:0:0:
256,192,93272,1,8,0:0:0:0:
256,192,93419,1,8,0:0:0:0:
256,192,93714,1,0,0:0:0:0:
256,192,93861,1,0,0:0:0:0:
256,192,94008,5,12,0:0:0:0:
256,192,94302,5,8,0:0:0:0:
256,192,94449,1,8,0:0:0:0:
256,192,94596,5,4,0:0:0:0:
256,192,94890,5,0,0:0:0:0:
256,192,95037,1,8,0:0:0:0:
256,192,95184,1,0,0:0:0:0:
256,192,95331,5,12,0:0:0:0:
256,192,95625,1,0,0:0:0:0:
256,192,95772,1,0,0:0:0:0:
256,192,95919,1,8,0:0:0:0:
256,192,96066,1,8,0:0:0:0:
256,192,96214,1,0,0:0:0:0:
256,192,96361,1,8,0:0:0:0:
256,192,96655,1,0,0:0:0:0:
256,192,96802,1,8,0:0:0:0:
256,192,96949,1,0,0:0:0:0:
256,192,97243,1,0,0:0:0:0:
256,192,97390,1,8,0:0:0:0:
256,192,97684,1,0,0:0:0:0:
256,192,97978,1,8,0:0:0:0:
256,192,98125,1,0,0:0:0:0:
256,192,98272,1,0,0:0:0:0:
256,192,98419,1,8,0:0:0:0:
256,192,98566,1,0,0:0:0:0:
256,192,98714,1,8,0:0:0:0:
256,192,99008,1,0,0:0:0:0:
256,192,99155,1,8,0:0:0:0:
256,192,99302,1,0,0:0:0:0:
256,192,99449,5,8,0:0:0:0:
256,192,99596,1,8,0:0:0:0:
256,192,99743,1,0,0:0:0:0:
256,192,99890,1,8,0:0:0:0:
256,192,100184,1,0,0:0:0:0:
256,192,100331,1,0,0:0:0:0:
256,192,100625,1,8,0:0:0:0:
256,192,100772,1,0,0:0:0:0:
256,192,100919,1,0,0:0:0:0:
256,192,101066,1,8,0:0:0:0:
256,192,101361,1,0,0:0:0:0:
256,192,101508,1,8,0:0:0:0:
256,192,101655,1,0,0:0:0:0:
256,192,101802,1,8,0:0:0:0:
256,192,101949,1,0,0:0:0:0:
256,192,102096,1,0,0:0:0:0:
256,192,102243,1,12,0:0:0:0:
256,192,102537,5,0,0:0:0:0:
256,192,102684,1,8,0:0:0:0:
256,192,102831,1,0,0:0:0:0:
256,192,102978,1,0,0:0:0:0:
256,192,103125,1,8,0:0:0:0:
256,192,103272,1,0,0:0:0:0:
256,192,103419,1,12,0:0:0:0:
256,192,103714,1,12,0:0:0:0:
256,192,104008,1,12,0:0:0:0:
256,192,104449,5,0,0:0:0:0:
256,192,104743,1,12,0:0:0:0:
256,192,105037,1,8,0:0:0:0:
256,192,105184,1,8,0:0:0:0:
256,192,105258,1,0,0:0:0:0:
256,192,105331,1,0,0:0:0:0:
256,192,105478,1,8,0:0:0:0:
256,192,105625,1,0,0:0:0:0:
256,192,105772,1,8,0:0:0:0:
256,192,105846,1,0,0:0:0:0:
256,192,105919,1,8,0:0:0:0:
256,192,105993,1,8,0:0:0:0:
256,192,106066,1,0,0:0:0:0:
256,192,106214,1,8,0:0:0:0:
256,192,106361,1,0,0:0:0:0:
256,192,106434,1,0,0:0:0:0:
256,192,106508,1,8,0:0:0:0:
256,192,106655,1,0,0:0:0:0:
256,192,106802,5,8,0:0:0:0:
256,192,106875,1,8,0:0:0:0:
256,192,106949,1,0,0:0:0:0:
256,192,107022,1,0,0:0:0:0:
256,192,107096,1,8,0:0:0:0:
256,192,107243,1,0,0:0:0:0:
256,192,107390,1,8,0:0:0:0:
256,192,107464,1,0,0:0:0:0:
256,192,107537,1,8,0:0:0:0:
256,192,107684,1,0,0:0:0:0:
256,192,107831,1,8,0:0:0:0:
256,192,107978,1,0,0:0:0:0:
256,192,108125,1,8,0:0:0:0:
256,192,108199,1,8,0:0:0:0:
256,192,108272,1,0,0:0:0:0:
256,192,108419,1,8,0:0:0:0:
256,192,108493,1,0,0:0:0:0:
256,192,108566,1,0,0:0:0:0:
256,192,108714,1,8,0:0:0:0:
256,192,108787,1,0,0:0:0:0:
256,192,108861,1,8,0:0:0:0:
256,192,108934,1,8,0:0:0:0:
256,192,109008,1,0,0:0:0:0:
256,192,109155,5,8,0:0:0:0:
256,192,109228,1,0,0:0:0:0:
256,192,109302,1,0,0:0:0:0:
256,192,109449,1,8,0:0:0:0:
256,192,109596,1,0,0:0:0:0:
256,192,109669,1,8,0:0:0:0:
256,192,109743,1,0,0:0:0:0:
256,192,109890,1,8,0:0:0:0:
256,192,110037,1,0,0:0:0:0:
256,192,110184,1,8,0:0:0:0:
256,192,110258,1,0,0:0:0:0:
256,192,110331,1,0,0:0:0:0:
256,192,110478,1,8,0:0:0:0:
256,192,110552,1,8,0:0:0:0:
256,192,110625,1,0,0:0:0:0:
256,192,110699,1,0,0:0:0:0:
256,192,110772,1,8,0:0:0:0:
256,192,110919,1,0,0:0:0:0:
256,192,111066,1,8,0:0:0:0:
256,192,111214,1,0,0:0:0:0:
256,192,111361,1,8,0:0:0:0:
256,192,111434,1,0,0:0:0:0:
256,192,111508,1,8,0:0:0:0:
256,192,111581,1,8,0:0:0:0:
256,192,111655,1,0,0:0:0:0:
256,192,111802,5,12,0:0:0:0:
256,192,111949,5,0,0:0:0:0:
256,192,112022,1,0,0:0:0:0:
256,192,112096,1,8,0:0:0:0:
256,192,112243,1,0,0:0:0:0:
256,192,112390,5,12,0:0:0:0:
256,192,112537,5,0,0:0:0:0:
256,192,112611,1,0,0:0:0:0:
256,192,112684,1,0,0:0:0:0:
256,192,112831,5,12,0:0:0:0:
256,192,113125,5,0,0:0:0:0:
256,192,113272,1,8,0:0:0:0:
256,192,113346,1,8,0:0:0:0:
256,192,113419,1,8,0:0:0:0:
256,192,113566,1,0,0:0:0:0:
256,192,113640,1,0,0:0:0:0:
256,192,113714,1,0,0:0:0:0:
256,192,113861,1,8,0:0:0:0:
256,192,114008,1,8,0:0:0:0:
256,192,114155,5,4,0:0:0:0:
256,192,114449,1,8,0:0:0:0:
256,192,114596,1,8,0:0:0:0:
256,192,114669,1,0,0:0:0:0:
256,192,114743,1,0,0:0:0:0:
256,192,114890,1,8,0:0:0:0:
256,192,115037,1,0,0:0:0:0:
256,192,115184,1,8,0:0:0:0:
256,192,115258,1,0,0:0:0:0:
256,192,115331,1,8,0:0:0:0:
256,192,115405,1,8,0:0:0:0:
256,192,115478,1,0,0:0:0:0:
256,192,115625,1,8,0:0:0:0:
256,192,115772,1,0,0:0:0:0:
256,192,115846,1,0,0:0:0:0:
256,192,115919,1,8,0:0:0:0:
256,192,116066,1,0,0:0:0:0:
256,192,116214,5,8,0:0:0:0:
256,192,116287,1,8,0:0:0:0:
256,192,116361,1,0,0:0:0:0:
256,192,116434,1,0,0:0:0:0:
256,192,116508,1,8,0:0:0:0:
256,192,116655,1,0,0:0:0:0:
256,192,116802,1,8,0:0:0:0:
256,192,116875,1,0,0:0:0:0:
256,192,116949,1,8,0:0:0:0:
256,192,117096,1,0,0:0:0:0:
256,192,117243,1,8,0:0:0:0:
256,192,117390,1,0,0:0:0:0:
256,192,117537,1,8,0:0:0:0:
256,192,117611,1,8,0:0:0:0:
256,192,117684,1,0,0:0:0:0:
256,192,117831,1,8,0:0:0:0:
256,192,117905,1,0,0:0:0:0:
256,192,117978,1,0,0:0:0:0:
256,192,118125,1,8,0:0:0:0:
256,192,118199,1,0,0:0:0:0:
256,192,118272,1,8,0:0:0:0:
256,192,118346,1,8,0:0:0:0:
256,192,118419,1,0,0:0:0:0:
256,192,118566,5,8,0:0:0:0:
256,192,118640,1,0,0:0:0:0:
256,192,118714,1,0,0:0:0:0:
256,192,118861,1,8,0:0:0:0:
256,192,119008,1,0,0:0:0:0:
256,192,119081,1,8,0:0:0:0:
256,192,119155,1,0,0:0:0:0:
256,192,119302,1,8,0:0:0:0:
256,192,119449,1,0,0:0:0:0:
256,192,119596,1,8,0:0:0:0:
256,192,119669,1,0,0:0:0:0:
256,192,119743,1,0,0:0:0:0:
256,192,119890,1,8,0:0:0:0:
256,192,119964,1,8,0:0:0:0:
256,192,120037,1,0,0:0:0:0:
256,192,120111,1,0,0:0:0:0:
256,192,120184,1,8,0:0:0:0:
256,192,120331,1,0,0:0:0:0:
256,192,120478,1,8,0:0:0:0:
256,192,120552,1,0,0:0:0:0:
256,192,120625,1,0,0:0:0:0:
256,192,120772,1,8,0:0:0:0:
256,192,120846,1,8,0:0:0:0:
256,192,120919,1,0,0:0:0:0:
256,192,121066,1,12,0:0:0:0:
256,192,121361,5,0,0:0:0:0:
256,192,121508,1,8,0:0:0:0:
256,192,121581,1,8,0:0:0:0:
256,192,121655,1,0,0:0:0:0:
256,192,121802,1,8,0:0:0:0:
256,192,121949,1,0,0:0:0:0:
256,192,122096,1,0,0:0:0:0:
256,192,122243,1,8,0:0:0:0:
256,192,122537,1,8,0:0:0:0:
256,192,122684,1,0,0:0:0:0:
256,192,122831,1,8,0:0:0:0:
256,192,123125,5,0,0:0:0:0:
256,192,123272,1,8,0:0:0:0:
256,192,123346,1,8,0:0:0:0:
256,192,123419,1,8,0:0:0:0:
256,192,123566,1,0,0:0:0:0:
256,192,123861,1,8,0:0:0:0:
256,192,124008,1,0,0:0:0:0:
256,192,124081,1,0,0:0:0:0:
256,192,124155,1,8,0:0:0:0:
256,192,124302,1,0,0:0:0:0:
256,192,124449,1,0,0:0:0:0:
256,192,124596,1,8,0:0:0:0:
256,192,124890,1,8,0:0:0:0:
256,192,125184,1,0,0:0:0:0:
256,192,125478,5,8,0:0:0:0:
256,192,125625,1,0,0:0:0:0:
256,192,125772,1,0,0:0:0:0:
256,192,125919,1,12,0:0:0:0:
256,192,126214,1,8,0:0:0:0:
256,192,126361,1,0,0:0:0:0:
256,192,126434,1,0,0:0:0:0:
256,192,126508,1,8,0:0:0:0:
256,192,126581,1,8,0:0:0:0:
256,192,126655,1,0,0:0:0:0:
256,192,126802,1,0,0:0:0:0:
256,192,126949,1,8,0:0:0:0:
256,192,127096,1,0,0:0:0:0:
256,192,127243,1,0,0:0:0:0:
256,192,127390,1,8,0:0:0:0:
256,192,127537,1,0,0:0:0:0:
256,192,127611,1,0,0:0:0:0:
256,192,127684,1,8,0:0:0:0:
256,192,127758,1,0,0:0:0:0:
256,192,127831,1,8,0:0:0:0:
256,192,127978,1,0,0:0:0:0:
256,192,128125,1,8,0:0:0:0:
256,192,128419,5,8,0:0:0:0:
256,192,128566,1,0,0:0:0:0:
256,192,128714,1,8,0:0:0:0:
256,192,128787,1,0,0:0:0:0:
256,192,128861,1,8,0:0:0:0:
256,192,128934,1,8,0:0:0:0:
256,192,129008,1,0,0:0:0:0:
256,192,129155,1,0,0:0:0:0:
256,192,129302,1,8,0:0:0:0:
256,192,129449,1,0,0:0:0:0:
256,192,129596,1,8,0:0:0:0:
256,192,129743,1,0,0:0:0:0:
256,192,129890,1,0,0:0:0:0:
256,192,129964,1,0,0:0:0:0:
256,192,130037,1,8,0:0:0:0:
256,192,130184,1,0,0:0:0:0:
256,192,130258,1,0,0:0:0:0:
256,192,130331,1,8,0:0:0:0:
256,192,130405,1,8,0:0:0:0:
256,192,130478,1,0,0:0:0:0:
256,192,130625,1,8,0:0:0:0:
256,192,130919,5,8,0:0:0:0:
256,192,131214,1,8,0:0:0:0:
256,192,131361,1,0,0:0:0:0:
256,192,131434,1,8,0:0:0:0:
256,192,131508,1,0,0:0:0:0:
256,192,131655,1,8,0:0:0:0:
256,192,131949,1,8,0:0:0:0:
256,192,132022,1,8,0:0:0:0:
256,192,132096,1,0,0:0:0:0:
256,192,132243,1,8,0:0:0:0:
256,192,132390,1,0,0:0:0:0:
256,192,132464,1,0,0:0:0:0:
256,192,132537,1,8,0:0:0:0:
256,192,132611,1,0,0:0:0:0:
256,192,132684,1,8,0:0:0:0:
256,192,132831,1,8,0:0:0:0:
256,192,132978,5,0,0:0:0:0:
256,192,133125,1,8,0:0:0:0:
256,192,133272,1,8,0:0:0:0:
256,192,133419,1,0,0:0:0:0:
256,192,133493,1,0,0:0:0:0:
256,192,133566,1,8,0:0:0:0:
256,192,133640,1,8,0:0:0:0:
256,192,133714,1,0,0:0:0:0:
256,192,133861,1,0,0:0:0:0:
256,192,134008,1,12,0:0:0:0:
256,192,134302,1,8,0:0:0:0:
256,192,134375,1,0,0:0:0:0:
256,192,134449,1,8,0:0:0:0:
256,192,134596,1,4,0:0:0:0:
256,192,134890,1,8,0:0:0:0:
256,192,135037,1,0,0:0:0:0:
256,192,135184,5,8,0:0:0:0:
256,192,135258,1,8,0:0:0:0:
256,192,135331,1,8,0:0:0:0:
256,192,135478,1,0,0:0:0:0:
256,192,135552,1,0,0:0:0:0:
256,192,135625,1,12,0:0:0:0:
256,192,135772,1,0,0:0:0:0:
256,192,135919,1,8,0:0:0:0:
256,192,136066,1,0,0:0:0:0:
256,192,136140,1,0,0:0:0:0:
256,192,136214,1,8,0:0:0:0:
256,192,136361,1,8,0:0:0:0:
256,192,136434,1,0,0:0:0:0:
256,192,136508,1,8,0:0:0:0:
256,192,136581,1,8,0:0:0:0:
256,192,136655,1,0,0:0:0:0:
256,192,136802,1,8,0:0:0:0:
256,192,136949,1,0,0:0:0:0:
256,192,137022,1,8,0:0:0:0:
256,192,137096,1,0,0:0:0:0:
256,192,137243,1,8,0:0:0:0:
256,192,137390,1,0,0:0:0:0:
256,192,137537,1,8,0:0:0:0:
256,192,137611,1,0,0:0:0:0:
256,192,137684,1,8,0:0:0:0:
256,192,137758,1,8,0:0:0:0:
256,192,137831,1,0,0:0:0:0:
256,192,137905,1,0,0:0:0:0:
256,192,137978,1,8,0:0:0:0:
256,192,138052,1,0,0:0:0:0:
256,192,138125,1,8,0:0:0:0:
256,192,138199,1,0,0:0:0:0:
256,192,138272,1,8,0:0:0:0:
256,192,138346,1,8,0:0:0:0:
256,192,138419,1,0,0:0:0:0:
256,192,138493,1,0,0:0:0:0:
256,192,138566,1,8,0:0:0:0:
256,192,138714,1,0,0:0:0:0:
256,192,138861,1,8,0:0:0:0:
256,192,139008,1,0,0:0:0:0:
256,192,139155,1,8,0:0:0:0:
256,192,139228,1,0,0:0:0:0:
256,192,139302,1,8,0:0:0:0:
256,192,139375,1,8,0:0:0:0:
256,192,139449,1,0,0:0:0:0:
256,192,139596,1,8,0:0:0:0:
256,192,139743,1,0,0:0:0:0:
256,192,139890,5,8,0:0:0:0:
256,192,139964,1,8,0:0:0:0:
256,192,140037,1,0,0:0:0:0:
256,192,140184,1,0,0:0:0:0:
256,192,140258,1,0,0:0:0:0:
256,192,140331,1,8,0:0:0:0:
256,192,140478,1,0,0:0:0:0:
256,192,140552,1,0,0:0:0:0:
256,192,140625,1,8,0:0:0:0:
256,192,140772,1,0,0:0:0:0:
256,192,140919,1,8,0:0:0:0:
256,192,140993,1,8,0:0:0:0:
256,192,141066,1,0,0:0:0:0:
256,192,141140,1,0,0:0:0:0:
256,192,141214,1,8,0:0:0:0:
256,192,141361,1,0,0:0:0:0:
256,192,141434,1,0,0:0:0:0:
256,192,141508,1,8,0:0:0:0:
256,192,141655,1,0,0:0:0:0:
256,192,141802,1,0,0:0:0:0:
256,192,141949,1,8,0:0:0:0:
256,192,142096,1,0,0:0:0:0:
256,192,142243,1,8,0:0:0:0:
256,192,142316,1,0,0:0:0:0:
256,192,142390,1,8,0:0:0:0:
256,192,142464,1,8,0:0:0:0:
256,192,142537,1,0,0:0:0:0:
256,192,142611,1,0,0:0:0:0:
256,192,142684,1,8,0:0:0:0:
256,192,142831,1,0,0:0:0:0:
256,192,142978,1,8,0:0:0:0:
256,192,143052,1,0,0:0:0:0:
256,192,143125,1,8,0:0:0:0:
256,192,143199,1,8,0:0:0:0:
256,192,143272,1,0,0:0:0:0:
256,192,143419,1,8,0:0:0:0:
256,192,143566,1,0,0:0:0:0:
256,192,143714,1,0,0:0:0:0:
256,192,143861,1,8,0:0:0:0:
256,192,143934,1,8,0:0:0:0:
256,192,144008,1,0,0:0:0:0:
256,192,144081,1,0,0:0:0:0:
256,192,144155,1,8,0:0:0:0:
256,192,144228,1,0,0:0:0:0:
256,192,144302,1,0,0:0:0:0:
256,192,144375,1,0,0:0:0:0:
256,192,144449,1,8,0:0:0:0:
256,192,144522,1,0,0:0:0:0:
256,192,144596,1,8,0:0:0:0:
256,192,144669,1,8,0:0:0:0:
256,192,144743,1,4,0:0:0:0:
256,192,145037,1,0,0:0:0:0:
256,192,145331,5,8,0:0:0:0:
256,192,145625,1,0,0:0:0:0:
256,192,145772,1,0,0:0:0:0:
256,192,145919,1,8,0:0:0:0:
256,192,146066,1,8,0:0:0:0:
256,192,146214,1,0,0:0:0:0:
256,192,146508,1,8,0:0:0:0:
256,192,146802,1,0,0:0:0:0:
256,192,146949,1,8,0:0:0:0:
256,192,147096,1,0,0:0:0:0:
256,192,147390,1,0,0:0:0:0:
256,192,147684,1,8,0:0:0:0:
256,192,147978,1,0,0:0:0:0:
256,192,148125,1,8,0:0:0:0:
256,192,148272,1,0,0:0:0:0:
256,192,148419,1,0,0:0:0:0:
256,192,148566,1,8,0:0:0:0:
256,192,148861,1,0,0:0:0:0:
256,192,149155,1,8,0:0:0:0:
256,192,149302,1,8,0:0:0:0:
256,192,149449,1,0,0:0:0:0:
256,192,149743,1,0,0:0:0:0:
256,192,150037,5,8,0:0:0:0:
256,192,150331,1,0,0:0:0:0:
256,192,150478,1,0,0:0:0:0:
256,192,150625,1,8,0:0:0:0:
256,192,150772,1,8,0:0:0:0:
256,192,150919,1,0,0:0:0:0:
256,192,151214,1,8,0:0:0:0:
256,192,151508,1,0,0:0:0:0:
256,192,151655,1,8,0:0:0:0:
256,192,151802,1,0,0:0:0:0:
256,192,152096,1,0,0:0:0:0:
256,192,152390,1,8,0:0:0:0:
256,192,152684,1,0,0:0:0:0:
256,192,152831,1,0,0:0:0:0:
256,192,152978,1,8,0:0:0:0:
256,192,153125,1,8,0:0:0:0:
256,192,153272,1,0,0:0:0:0:
256,192,153419,1,0,0:0:0:0:
256,192,153566,1,8,0:0:0:0:
256,192,153714,1,0,0:0:0:0:
256,192,153861,1,8,0:0:0:0:
256,192,154008,1,8,0:0:0:0:
256,192,154155,1,4,0:0:0:0:
256,192,154449,1,0,0:0:0:0:
256,192,154743,5,8,0:0:0:0:
256,192,154890,1,0,0:0:0:0:
256,192,155184,1,0,0:0:0:0:
256,192,155331,1,8,0:0:0:0:
256,192,155478,1,8,0:0:0:0:
256,192,155625,1,0,0:0:0:0:
256,192,155919,1,8,0:0:0:0:
256,192,156214,1,0,0:0:0:0:
256,192,156361,1,8,0:0:0:0:
256,192,156508,1,0,0:0:0:0:
256,192,156802,1,0,0:0:0:0:
256,192,157096,1,8,0:0:0:0:
256,192,157390,1,0,0:0:0:0:
256,192,157537,1,8,0:0:0:0:
256,192,157684,1,0,0:0:0:0:
256,192,157831,1,0,0:0:0:0:
256,192,157978,1,8,0:0:0:0:
256,192,158272,1,8,0:0:0:0:
256,192,158419,1,8,0:0:0:0:
256,192,158566,1,0,0:0:0:0:
256,192,158714,1,0,0:0:0:0:
256,192,158861,5,12,0:0:0:0:
256,192,159155,1,0,0:0:0:0:
256,192,159449,1,8,0:0:0:0:
256,192,159596,1,0,0:0:0:0:
256,192,159669,1,0,0:0:0:0:
256,192,159743,1,0,0:0:0:0:
256,192,159890,1,8,0:0:0:0:
256,192,160184,1,8,0:0:0:0:
256,192,160331,1,0,0:0:0:0:
256,192,160478,1,8,0:0:0:0:
256,192,160772,1,0,0:0:0:0:
256,192,160919,1,8,0:0:0:0:
256,192,161066,5,0,0:0:0:0:
256,192,161140,1,0,0:0:0:0:
256,192,161214,1,8,0:0:0:0:
256,192,161361,1,8,0:0:0:0:
256,192,161508,1,0,0:0:0:0:
256,192,161655,1,8,0:0:0:0:
256,192,161949,1,8,0:0:0:0:
256,192,162096,1,0,0:0:0:0:
256,192,162243,1,12,0:0:0:0:
256,192,162537,1,12,0:0:0:0:
256,192,162831,1,12,0:0:0:0:
256,192,163566,5,0,0:0:0:0:
256,192,164743,5,8,0:0:0:0:
256,192,165919,5,0,0:0:0:0:
256,192,167096,5,8,0:0:0:0:
256,192,168272,5,0,0:0:0:0:
256,192,169449,5,8,0:0:0:0:
256,192,170625,5,0,0:0:0:0:
256,192,171214,5,8,0:0:0:0:
256,192,171655,5,0,0:0:0:0:
256,192,171949,5,0,0:0:0:0:
256,192,172096,1,8,0:0:0:0:
256,192,172243,1,8,0:0:0:0:
256,192,172390,1,0,0:0:0:0:
256,192,172684,1,8,0:0:0:0:
256,192,172978,5,4,0:0:0:0:
256,192,173272,5,8,0:0:0:0:
256,192,173861,1,8,0:0:0:0:
256,192,174449,1,8,0:0:0:0:
256,192,175037,1,8,0:0:0:0:
256,192,175331,5,0,0:0:0:0:
256,192,175625,5,8,0:0:0:0:
256,192,176214,1,8,0:0:0:0:
256,192,176802,1,8,0:0:0:0:
256,192,177390,5,8,0:0:0:0:
256,192,177537,1,0,0:0:0:0:
256,192,177684,1,8,0:0:0:0:
256,192,177978,1,0,0:0:0:0:
256,192,178125,1,8,0:0:0:0:
256,192,178419,1,0,0:0:0:0:
256,192,178566,1,8,0:0:0:0:
256,192,178714,1,8,0:0:0:0:
256,192,178861,1,0,0:0:0:0:
256,192,179008,1,8,0:0:0:0:
256,192,179302,1,0,0:0:0:0:
256,192,179449,1,8,0:0:0:0:
256,192,179596,1,8,0:0:0:0:
256,192,179743,1,0,0:0:0:0:
256,192,179890,1,0,0:0:0:0:
256,192,180037,5,12,0:0:0:0:
256,192,180233,1,12,0:0:0:0:
256,192,180429,1,4,0:0:0:0:
256,192,180625,1,12,0:0:0:0:
256,192,180821,1,4,0:0:0:0:
256,192,181017,1,4,0:0:0:0:
256,192,181214,1,12,0:0:0:0:
256,192,181802,5,8,0:0:0:0:
256,192,181875,1,8,0:0:0:0:
256,192,181949,1,0,0:0:0:0:
256,192,182022,1,0,0:0:0:0:
256,192,182096,1,8,0:0:0:0:
256,192,182169,1,8,0:0:0:0:
256,192,182243,1,0,0:0:0:0:
256,192,182316,1,0,0:0:0:0:
256,192,182390,5,12,0:0:0:0:
256,192,182684,1,8,0:0:0:0:
256,192,182831,1,8,0:0:0:0:
256,192,182905,1,0,0:0:0:0:
256,192,182978,1,0,0:0:0:0:
256,192,183125,1,8,0:0:0:0:
256,192,183272,1,0,0:0:0:0:
256,192,183419,1,8,0:0:0:0:
256,192,183493,1,0,0:0:0:0:
256,192,183566,1,8,0:0:0:0:
256,192,183640,1,8,0:0:0:0:
256,192,183714,1,0,0:0:0:0:
256,192,183861,1,8,0:0:0:0:
256,192,184008,1,0,0:0:0:0:
256,192,184081,1,0,0:0:0:0:
256,192,184155,1,8,0:0:0:0:
256,192,184302,1,0,0:0:0:0:
256,192,184449,5,8,0:0:0:0:
256,192,184522,1,8,0:0:0:0:
256,192,184596,1,0,0:0:0:0:
256,192,184669,1,0,0:0:0:0:
256,192,184743,1,8,0:0:0:0:
256,192,184890,1,0,0:0:0:0:
256,192,185037,1,8,0:0:0:0:
256,192,185111,1,0,0:0:0:0:
256,192,185184,1,8,0:0:0:0:
256,192,185331,1,0,0:0:0:0:
256,192,185478,1,8,0:0:0:0:
256,192,185625,1,0,0:0:0:0:
256,192,185772,1,8,0:0:0:0:
256,192,185846,1,8,0:0:0:0:
256,192,185919,1,0,0:0:0:0:
256,192,186066,1,8,0:0:0:0:
256,192,186140,1,0,0:0:0:0:
256,192,186214,1,0,0:0:0:0:
256,192,186361,1,8,0:0:0:0:
256,192,186434,1,0,0:0:0:0:
256,192,186508,1,8,0:0:0:0:
256,192,186581,1,8,0:0:0:0:
256,192,186655,1,0,0:0:0:0:
256,192,186802,5,8,0:0:0:0:
256,192,186875,1,0,0:0:0:0:
256,192,186949,1,0,0:0:0:0:
256,192,187096,1,8,0:0:0:0:
256,192,187243,1,0,0:0:0:0:
256,192,187316,1,8,0:0:0:0:
256,192,187390,1,0,0:0:0:0:
256,192,187537,1,8,0:0:0:0:
256,192,187684,1,0,0:0:0:0:
256,192,187831,1,8,0:0:0:0:
256,192,187905,1,0,0:0:0:0:
256,192,187978,1,0,0:0:0:0:
256,192,188125,1,8,0:0:0:0:
256,192,188199,1,8,0:0:0:0:
256,192,188272,1,0,0:0:0:0:
256,192,188346,1,0,0:0:0:0:
256,192,188419,1,8,0:0:0:0:
256,192,188566,1,0,0:0:0:0:
256,192,188714,1,8,0:0:0:0:
256,192,188861,1,0,0:0:0:0:
256,192,189008,1,8,0:0:0:0:
256,192,189081,1,0,0:0:0:0:
256,192,189155,1,8,0:0:0:0:
256,192,189228,1,8,0:0:0:0:
256,192,189302,1,0,0:0:0:0:
256,192,189449,5,12,0:0:0:0:
256,192,189596,5,0,0:0:0:0:
256,192,189669,1,0,0:0:0:0:
256,192,189743,1,8,0:0:0:0:
256,192,189890,1,0,0:0:0:0:
256,192,190037,5,12,0:0:0:0:
256,192,190184,5,0,0:0:0:0:
256,192,190258,1,0,0:0:0:0:
256,192,190331,1,0,0:0:0:0:
256,192,190478,5,12,0:0:0:0:
256,192,190772,5,0,0:0:0:0:
256,192,190919,1,8,0:0:0:0:
256,192,190993,1,8,0:0:0:0:
256,192,191066,1,8,0:0:0:0:
256,192,191214,1,0,0:0:0:0:
256,192,191287,1,0,0:0:0:0:
256,192,191361,1,0,0:0:0:0:
256,192,191508,1,8,0:0:0:0:
256,192,191655,1,8,0:0:0:0:
256,192,191802,5,4,0:0:0:0:
256,192,192096,1,8,0:0:0:0:
256,192,192243,1,8,0:0:0:0:
256,192,192316,1,0,0:0:0:0:
256,192,192390,1,0,0:0:0:0:
256,192,192537,1,8,0:0:0:0:
256,192,192684,1,0,0:0:0:0:
256,192,192831,1,8,0:0:0:0:
256,192,192905,1,0,0:0:0:0:
256,192,192978,1,8,0:0:0:0:
256,192,193052,1,8,0:0:0:0:
256,192,193125,1,0,0:0:0:0:
256,192,193272,1,8,0:0:0:0:
256,192,193419,1,0,0:0:0:0:
256,192,193493,1,0,0:0:0:0:
256,192,193566,1,8,0:0:0:0:
256,192,193714,1,0,0:0:0:0:
256,192,193861,5,8,0:0:0:0:
256,192,193934,1,8,0:0:0:0:
256,192,194008,1,0,0:0:0:0:
256,192,194081,1,0,0:0:0:0:
256,192,194155,1,8,0:0:0:0:
256,192,194302,1,0,0:0:0:0:
256,192,194449,1,8,0:0:0:0:
256,192,194522,1,0,0:0:0:0:
256,192,194596,1,8,0:0:0:0:
256,192,194743,1,0,0:0:0:0:
256,192,194890,1,8,0:0:0:0:
256,192,195037,1,0,0:0:0:0:
256,192,195184,1,8,0:0:0:0:
256,192,195258,1,8,0:0:0:0:
256,192,195331,1,0,0:0:0:0:
256,192,195478,1,8,0:0:0:0:
256,192,195552,1,0,0:0:0:0:
256,192,195625,1,0,0:0:0:0:
256,192,195772,1,8,0:0:0:0:
256,192,195846,1,0,0:0:0:0:
256,192,195919,1,8,0:0:0:0:
256,192,195993,1,8,0:0:0:0:
256,192,196066,1,0,0:0:0:0:
256,192,196214,5,8,0:0:0:0:
256,192,196287,1,0,0:0:0:0:
256,192,196361,1,0,0:0:0:0:
256,192,196508,1,8,0:0:0:0:
256,192,196655,1,0,0:0:0:0:
256,192,196728,1,8,0:0:0:0:
256,192,196802,1,0,0:0:0:0:
256,192,196949,1,8,0:0:0:0:
256,192,197096,1,0,0:0:0:0:
256,192,197243,1,8,0:0:0:0:
256,192,197316,1,0,0:0:0:0:
256,192,197390,1,0,0:0:0:0:
256,192,197537,1,8,0:0:0:0:
256,192,197611,1,8,0:0:0:0:
256,192,197684,1,0,0:0:0:0:
256,192,197758,1,0,0:0:0:0:
256,192,197831,1,8,0:0:0:0:
256,192,197978,1,0,0:0:0:0:
256,192,198125,1,8,0:0:0:0:
256,192,198199,1,0,0:0:0:0:
256,192,198272,1,0,0:0:0:0:
256,192,198419,1,8,0:0:0:0:
256,192,198566,1,0,0:0:0:0:
256,192,198714,1,12,0:0:0:0:
256,192,199008,5,0,0:0:0:0:
256,192,199155,1,8,0:0:0:0:
256,192,199228,1,8,0:0:0:0:
256,192,199302,1,0,0:0:0:0:
256,192,199449,1,8,0:0:0:0:
256,192,199596,1,0,0:0:0:0:
256,192,199743,1,0,0:0:0:0:
256,192,199890,1,8,0:0:0:0:
256,192,200184,1,8,0:0:0:0:
256,192,200478,1,0,0:0:0:0:
256,192,200625,1,8,0:0:0:0:
256,192,200699,1,8,0:0:0:0:
256,192,200772,1,0,0:0:0:0:
256,192,200919,1,8,0:0:0:0:
256,192,201214,5,8,0:0:0:0:
256,192,201287,1,0,0:0:0:0:
256,192,201361,1,0,0:0:0:0:
256,192,201434,1,0,0:0:0:0:
256,192,201508,1,8,0:0:0:0:
256,192,201581,1,0,0:0:0:0:
256,192,201655,1,8,0:0:0:0:
256,192,201728,1,8,0:0:0:0:
256,192,201802,1,0,0:0:0:0:
256,192,201875,1,0,0:0:0:0:
256,192,201949,1,8,0:0:0:0:
256,192,202022,1,0,0:0:0:0:
256,192,202096,1,0,0:0:0:0:
256,192,202169,1,0,0:0:0:0:
256,192,202243,1,8,0:0:0:0:
256,192,202316,1,8,0:0:0:0:
256,192,202390,1,0,0:0:0:0:
256,192,202464,1,0,0:0:0:0:
256,192,202537,1,8,0:0:0:0:
256,192,202611,1,0,0:0:0:0:
256,192,202684,1,0,0:0:0:0:
256,192,202758,1,0,0:0:0:0:
256,192,202831,1,8,0:0:0:0:
256,192,202905,1,0,0:0:0:0:
256,192,202978,1,8,0:0:0:0:
256,192,203052,1,8,0:0:0:0:
256,192,203125,1,0,0:0:0:0:
256,192,203199,1,0,0:0:0:0:
256,192,203272,5,8,0:0:0:0:
256,192,203346,1,8,0:0:0:0:
256,192,203419,1,8,0:0:0:0:
256,192,203493,1,0,0:0:0:0:
256,192,203566,1,8,0:0:0:0:
256,192,203640,1,0,0:0:0:0:
256,192,203714,1,0,0:0:0:0:
256,192,203787,1,0,0:0:0:0:
256,192,203861,1,8,0:0:0:0:
256,192,203934,1,0,0:0:0:0:
256,192,204008,1,8,0:0:0:0:
256,192,204081,1,8,0:0:0:0:
256,192,204155,1,0,0:0:0:0:
256,192,204228,1,0,0:0:0:0:
256,192,204302,1,8,0:0:0:0:
256,192,204375,1,0,0:0:0:0:
256,192,204449,1,0,0:0:0:0:
256,192,204522,1,0,0:0:0:0:
256,192,204596,1,8,0:0:0:0:
256,192,204669,1,8,0:0:0:0:
256,192,204743,1,0,0:0:0:0:
256,192,204816,1,0,0:0:0:0:
256,192,204890,1,8,0:0:0:0:
256,192,204964,1,0,0:0:0:0:
256,192,205037,1,0,0:0:0:0:
256,192,205111,1,0,0:0:0:0:
256,192,205184,1,8,0:0:0:0:
256,192,205258,1,0,0:0:0:0:
256,192,205331,1,8,0:0:0:0:
256,192,205405,1,8,0:0:0:0:
256,192,205478,1,0,0:0:0:0:
256,192,205552,1,0,0:0:0:0:
256,192,205625,5,8,0:0:0:0:
256,192,205699,1,0,0:0:0:0:
256,192,205772,1,8,0:0:0:0:
256,192,205846,1,0,0:0:0:0:
256,192,205919,1,8,0:0:0:0:
256,192,205993,1,8,0:0:0:0:
256,192,206066,1,8,0:0:0:0:
256,192,206140,1,0,0:0:0:0:
256,192,206214,1,8,0:0:0:0:
256,192,206287,1,0,0:0:0:0:
256,192,206361,1,8,0:0:0:0:
256,192,206434,1,8,0:0:0:0:
256,192,206508,1,0,0:0:0:0:
256,192,206581,1,0,0:0:0:0:
256,192,206655,1,8,0:0:0:0:
256,192,206728,1,0,0:0:0:0:
256,192,206802,1,0,0:0:0:0:
256,192,206875,1,0,0:0:0:0:
256,192,206949,1,8,0:0:0:0:
256,192,207022,1,8,0:0:0:0:
256,192,207096,1,0,0:0:0:0:
256,192,207169,1,0,0:0:0:0:
256,192,207243,1,8,0:0:0:0:
256,192,207316,1,8,0:0:0:0:
256,192,207390,1,0,0:0:0:0:
256,192,207464,1,0,0:0:0:0:
256,192,207537,1,8,0:0:0:0:
256,192,207611,1,0,0:0:0:0:
256,192,207684,1,8,0:0:0:0:
256,192,207758,1,8,0:0:0:0:
256,192,207831,1,0,0:0:0:0:
256,192,207905,1,0,0:0:0:0:
256,192,207978,1,8,0:0:0:0:
256,192,208052,1,0,0:0:0:0:
256,192,208125,1,8,0:0:0:0:
256,192,208419,5,0,0:0:0:0:
256,192,208566,1,8,0:0:0:0:
256,192,208640,1,8,0:0:0:0:
256,192,208714,1,0,0:0:0:0:
256,192,208861,1,8,0:0:0:0:
256,192,209008,1,0,0:0:0:0:
256,192,209155,1,0,0:0:0:0:
256,192,209302,1,8,0:0:0:0:
256,192,209596,1,0,0:0:0:0:
256,192,209743,1,8,0:0:0:0:
256,192,209890,1,0,0:0:0:0:
256,192,209964,1,0,0:0:0:0:
256,192,210037,1,8,0:0:0:0:
256,192,210184,1,0,0:0:0:0:
256,192,210331,1,8,0:0:0:0:
256,192,210405,1,8,0:0:0:0:
256,192,210478,1,0,0:0:0:0:
256,192,210625,5,12,0:0:0:0:
256,192,210919,5,8,0:0:0:0:
256,192,211066,1,0,0:0:0:0:
256,192,211361,1,8,0:0:0:0:
256,192,211655,5,4,0:0:0:0:
256,192,211949,5,0,0:0:0:0:
256,192,212243,1,8,0:0:0:0:
256,192,212537,1,0,0:0:0:0:
256,192,212978,5,12,0:0:0:0:
