osu file format v14

[General]
AudioFilename: audio.mp3
AudioLeadIn: 0
PreviewTime: 163199
Countdown: 0
SampleSet: Soft
StackLeniency: 0.7
Mode: 0
LetterboxInBreaks: 0
WidescreenStoryboard: 1

[Editor]
DistanceSpacing: 0.8
BeatDivisor: 4
GridSize: 16
TimelineZoom: 1

[Metadata]
Title:The Noise of Rain
TitleUnicode:雨音ノイズ
Artist:Kino Hiko
ArtistUnicode:木のひこ
Creator:Battle
Version:Normal
Source:
Tags:regraz 40mp utaite amaoto noise 40meterP english cover
BeatmapID:1497942
BeatmapSetID:613928

[Difficulty]
HPDrainRate:4
CircleSize:3.3
OverallDifficulty:4
ApproachRate:4
SliderMultiplier:1.1
SliderTickRate:1

[Events]
//Background and Video events
Video,-185,"mv.avi"
0,0,"bg.jpg",0,0
//Break Periods
2,76708,84599
2,121266,124599
2,163566,171658
//Storyboard Layer 0 (Background)
//Storyboard Layer 1 (Fail)
//Storyboard Layer 2 (Pass)
//Storyboard Layer 3 (Foreground)
//Storyboard Sound Samples

[TimingPoints]
1214,294.117647058824,4,2,1,50,1,0
1214,-100,4,2,1,50,0,0
9302,-100,4,2,1,60,0,0
10331,-100,4,2,1,70,0,0
10625,-100,4,2,1,80,0,0
19302,-100,4,2,1,80,0,0
20037,-100,4,2,1,75,0,0
38419,-100,4,2,1,75,0,0
38861,-100,4,2,1,75,0,0
56655,-100,4,2,1,80,0,0
56949,-100,4,2,1,90,0,0
57390,-100,4,2,1,80,0,0
57611,-100,4,2,1,5,0,0
57684,-100,4,2,1,90,0,1
75478,-100,4,2,1,80,0,0
75772,-100,4,2,1,80,0,0
76508,-100,4,2,1,80,0,0
85184,-100,4,2,1,60,0,0
85919,-100,4,2,1,70,0,0
94008,-100,4,2,1,80,0,0
103714,-100,4,2,1,80,0,0
104008,-100,4,2,1,80,0,0
104449,-100,4,2,1,80,0,0
104669,-100,4,2,1,5,0,0
104743,-100,4,2,1,90,0,1
121214,-100,4,2,1,60,0,0
125478,-100,4,2,1,70,0,0
125919,-100,4,2,1,80,0,0
144743,-100,4,2,1,70,0,0
158861,-100,4,2,1,80,0,0
172978,-100,4,2,1,70,0,0
180037,-100,4,2,1,80,0,0
181214,-100,4,2,1,80,0,0
181728,-100,4,2,1,5,0,0
181802,-100,4,2,1,80,0,0
182022,-100,4,2,1,5,0,0
182096,-100,4,2,1,80,0,0
182316,-100,4,2,1,5,0,0
182390,-100,4,2,1,90,0,1
198861,-100,4,2,1,80,0,0
201214,-100,4,2,1,90,0,1
208125,-100,4,2,1,80,0,0
210625,-100,4,2,1,80,0,1
210699,-100,4,2,1,80,0,0
211655,-100,4,2,1,80,0,1
211728,-100,4,2,1,80,0,0
212978,-100,4,2,1,80,0,1
213052,-100,4,2,1,80,0,0

[Colours]
Combo1 : 131,90,114
Combo2 : 77,88,136
Combo3 : 171,113,78
Combo4 : 226,202,150
Combo5 : 97,118,133

[HitObjects]
169,174,1214,6,0,B|120:186|120:186|66:162,2,110,2|0|2,0:0|3:0|0:0,0:0:0:0:
277,97,2243,2,0,L|288:220,1,110,2|2,0:0|0:0,0:0:0:0:
374,214,2831,2,0,L|364:323,1,110,2|2,0:0|0:0,0:0:0:0:
283,368,3566,6,0,P|220:345|177:367,2,110,2|0|2,0:0|3:0|0:0,0:0:0:0:
253,239,4596,2,0,L|129:237,1,110,2|2,0:0|0:0,0:0:0:0:
56,220,5184,2,0,P|35:171|61:110,1,110,2|2,0:0|0:0,0:0:0:0:
84,89,5625,1,0,3:0:0:0:
166,59,5919,6,0,P|234:84|257:133,2,110,2|0|2,0:0|3:0|0:0,0:0:0:0:
160,191,6949,2,0,L|177:311,1,110,2|2,0:0|0:0,0:0:0:0:
263,307,7537,2,0,L|242:182,1,110,2|2,0:0|0:0,0:0:0:0:
220,68,8272,6,0,P|264:22|317:26,2,110,2|0|2,0:0|3:0|0:0,0:0:0:0:
244,198,9302,2,0,P|318:219|355:201,1,110,2|0,0:0|0:0,0:0:0:0:
420,161,9890,2,0,P|472:188|484:253,1,110,4|0,0:3|0:0,0:0:0:0:
472,275,10331,1,4,0:0:0:0:
401,328,10625,6,0,P|328:304|290:319,1,110,4|0,0:1|1:0,0:0:0:0:
216,282,11214,2,0,P|212:209|240:172,1,110,2|0,0:0|1:0,0:0:0:0:
262,149,11655,2,0,P|278:92|258:41,1,110,2|2,0:0|0:0,0:0:0:0:
188,95,12243,2,0,L|78:90,1,110,2|0,0:0|0:0,0:0:0:0:
12,204,12978,6,0,L|122:209,1,110,2|0,0:0|1:0,0:0:0:0:
193,259,13566,1,2,0:0:0:0:
193,259,13714,2,0,P|239:231|304:242,1,110,2|2,0:0|0:0,0:0:0:0:
380,224,14302,1,2,0:0:0:0:
385,140,14596,2,0,B|258:128,1,110,2|2,0:0|0:0,0:0:0:0:
231,127,15037,1,0,1:0:0:0:
143,116,15331,6,0,L|147:-15,1,110,2|0,0:0|1:0,0:0:0:0:
66,42,15919,2,0,L|62:151,1,110,2|0,0:0|1:0,0:0:0:0:
65,196,16361,2,0,P|118:193|162:250,1,110,2|2,0:0|0:0,0:0:0:0:
214,296,16949,2,0,P|243:240|230:181,1,110,2|2,0:0|0:0,0:0:0:0:
247,63,17684,6,0,P|313:22|357:36,1,110,2|0,0:0|1:0,0:0:0:0:
406,85,18272,2,0,P|448:81|468:88,2,55,2|2|0,0:0|0:0|1:0,0:0:0:0:
384,123,18714,2,0,L|377:241,1,110,2|2,0:0|0:0,0:0:0:0:
369,320,19302,1,2,0:0:0:0:
291,114,20037,6,0,B|233:119|233:119|172:88,1,110,4|0,1:1|1:0,0:0:0:0:
110,51,20625,2,0,P|61:93|66:154,1,110,2|0,0:0|1:0,0:0:0:0:
89,166,21066,2,0,L|93:285,1,110,2|2,0:0|0:0,0:0:0:0:
176,303,21655,2,0,L|169:132,1,165,2|0,0:0|1:0,0:0:0:0:
254,117,22390,6,0,L|258:233,1,110,2|0,0:0|1:0,0:0:0:0:
264,270,22831,2,0,P|325:253|375:280,1,110,2|2,0:0|0:0,0:0:0:0:
446,306,23419,2,0,L|441:183,1,110,2|2,0:0|0:0,0:0:0:0:
410,113,24008,2,0,B|354:128|354:128|305:111,1,110,2|0,0:0|1:0,0:0:0:0:
263,96,24449,1,0,1:0:0:0:
182,131,24743,6,0,L|181:0,1,110,0|0,1:0|1:0,0:0:0:0:
96,44,25331,2,0,L|99:169,1,110,2|0,0:0|1:0,0:0:0:0:
105,198,25772,2,0,P|160:198|204:252,1,110,2|2,0:0|0:0,0:0:0:0:
279,210,26361,2,0,L|292:381,1,165,2|0,0:0|1:0,0:0:0:0:
371,335,27096,6,0,B|431:348|431:348|486:333,1,110,2|0,0:0|1:0,0:0:0:0:
506,301,27537,2,0,L|505:189,1,110,0|2,1:0|0:0,0:0:0:0:
463,113,28125,2,0,P|417:172|418:206,1,110,2|2,0:0|0:0,0:0:0:0:
411,247,28566,1,0,1:0:0:0:
411,247,28714,2,0,B|375:241|375:241|299:255,1,110,0|0,1:0|1:0,0:0:0:0:
207,163,29449,6,0,L|331:138,1,110,0|0,1:0|1:0,0:0:0:0:
294,55,30037,2,0,L|172:80,1,110,2|0,0:0|1:0,0:0:0:0:
143,67,30478,2,0,P|91:88|36:69,1,110,2|2,0:0|0:0,0:0:0:0:
16,158,31066,2,0,L|35:334,1,165,2|0,0:0|1:0,0:0:0:0:
119,340,31802,2,0,L|106:225,1,110,2|0,0:0|1:0,0:0:0:0:
107,186,32243,2,0,P|146:152|215:170,1,110,2|2,0:0|0:0,0:0:0:0:
269,213,32831,2,0,P|333:244|382:231,1,110,2|2,0:0|0:0,0:0:0:0:
410,224,33272,1,0,1:0:0:0:
477,168,33566,2,0,P|486:130|454:55,1,110,2|0,0:0|1:0,0:0:0:0:
426,39,34008,6,0,P|334:-1|282:40,1,165,2|0,0:0|1:0,0:0:0:0:
203,56,34743,2,0,P|196:99|224:163,1,110,2|0,0:0|1:0,0:0:0:0:
259,179,35184,2,0,L|265:361,1,165,2|0,0:0|1:0,0:0:0:0:
349,367,35919,2,0,L|346:241,1,110,2|0,0:0|1:0,0:0:0:0:
354,217,36361,1,2,0:0:0:0:
354,217,36508,6,0,P|396:186|467:204,1,110,2|0,0:0|1:0,0:0:0:0:
496,117,37096,2,0,P|485:44|494:-7,1,110,0|0,1:0|1:0,0:0:0:0:
445,11,37537,2,0,P|388:44|333:35,1,110,4|2,0:0|0:0,0:0:0:0:
259,12,38125,2,0,P|204:11|159:41,1,110,4|2,0:0|0:0,0:0:0:0:
148,83,38566,1,2,3:0:0:0:
60,70,38861,6,0,L|73:192,1,110,4|0,0:0|1:0,0:0:0:0:
35,259,39449,2,0,P|0:299|5:362,1,110,2|0,0:0|1:0,0:0:0:0:
44,361,39890,2,0,B|109:374|109:374|171:355,1,110,2|2,0:0|0:0,0:0:0:0:
223,311,40478,2,0,B|302:287|302:287|395:319,1,165,2|0,0:0|1:0,0:0:0:0:
456,269,41214,6,0,P|480:209|451:156,1,110,2|0,0:0|1:0,0:0:0:0:
429,145,41655,2,0,P|405:85|434:32,1,110,2|2,0:0|0:0,0:0:0:0:
332,34,42243,2,0,B|276:48|276:48|199:32,1,110,2|2,0:0|0:0,0:0:0:0:
176,110,42831,2,0,L|296:136,1,110,2|0,0:0|1:0,0:0:0:0:
326,142,43272,1,0,1:0:0:0:
383,208,43566,6,0,P|345:283|359:318,1,110,2|0,0:0|1:0,0:0:0:0:
264,324,44155,2,0,P|236:256|190:236,1,110,2|0,0:0|1:0,0:0:0:0:
163,229,44596,2,0,B|111:245|111:245|45:224,1,110,2|0,0:0|0:0,0:0:0:0:
44,141,45184,2,0,P|40:65|133:48,1,165,2|0,0:0|1:0,0:0:0:0:
196,66,45919,6,0,P|277:86|304:73,1,110,2|0,0:0|1:0,0:0:0:0:
340,63,46361,2,0,L|344:179,1,110,2|2,0:0|0:0,0:0:0:0:
431,167,46949,2,0,L|427:283,1,110,2|2,0:0|0:0,0:0:0:0:
432,320,47390,1,0,1:0:0:0:
432,320,47537,2,0,P|375:282|328:291,1,110,2|0,0:0|1:0,0:0:0:0:
220,224,48272,6,0,P|288:202|308:147,1,110,6|0,0:0|1:0,0:0:0:0:
266,91,48861,2,0,P|198:113|178:168,1,110,2|0,0:0|1:0,0:0:0:0:
141,164,49302,2,0,L|14:167,1,110,2|2,0:0|0:0,0:0:0:0:
33,254,49890,2,0,L|206:253,1,165,2|0,0:0|1:0,0:0:0:0:
252,322,50625,6,0,P|283:249|263:209,1,110,2|0,0:0|1:0,0:0:0:0:
253,185,51066,2,0,L|371:187,1,110,2|2,0:0|0:0,0:0:0:0:
448,210,51655,2,0,P|439:152|445:95,1,110,2|0,0:0|0:0,0:0:0:0:
377,43,52243,1,2,0:0:0:0:
377,43,52390,2,0,P|321:59|269:40,1,110,2|0,0:0|1:0,0:0:0:0:
256,83,52831,6,0,P|197:69|89:89,1,165,2|0,0:0|1:0,0:0:0:0:
28,28,53566,2,0,P|7:79|32:149,1,110,2|0,0:0|1:0,0:0:0:0:
46,165,54008,2,0,P|40:265|47:330,1,165,2|0,0:0|1:0,0:0:0:0:
134,325,54743,2,0,P|126:277|131:203,1,110,2|0,0:0|1:0,0:0:0:0:
166,193,55184,6,0,P|229:192|286:193,1,110,4|0,0:0|0:0,0:0:0:0:
319,193,55625,1,0,1:0:0:0:
406,184,55919,2,0,P|408:113|410:64,1,110,4|0,0:3|1:0,0:0:0:0:
408,29,56361,2,0,P|334:12|302:26,2,110,4|4|4,0:0|0:0|0:0,0:0:0:0:
76,307,57684,6,0,P|59:238|80:186,1,110,4|0,0:1|1:0,0:0:0:0:
103,173,58125,2,0,B|155:191|155:191|223:177,1,110,2|2,0:0|0:0,0:0:0:0:
249,101,58714,2,0,P|269:57|340:53,1,110,2|2,0:0|0:0,0:0:0:0:
397,95,59302,2,0,L|403:266,1,165,2|0,0:0|1:0,0:0:0:0:
361,337,60037,6,0,L|234:340,1,110,2|0,0:0|1:0,0:0:0:0:
227,302,60478,2,0,P|164:281|111:301,1,110,2|2,0:0|0:0,0:0:0:0:
74,215,61066,2,0,L|69:87,1,110,2|2,0:0|0:0,0:0:0:0:
61,17,61655,2,0,P|129:31|160:127,1,165,2|0,0:0|1:0,0:0:0:0:
176,154,62243,1,4,0:3:0:0:
176,154,62390,6,0,P|244:125|291:150,1,110,2|0,0:0|1:0,0:0:0:0:
310,161,62831,2,0,P|361:177|420:161,1,110,2|2,0:0|0:0,0:0:0:0:
361,93,63419,2,0,L|362:-18,2,110,2|0|2,0:0|0:0|0:0,0:0:0:0:
278,61,64302,1,2,0:0:0:0:
294,191,64743,6,0,P|246:176|183:188,1,110,4|0,0:0|1:0,0:0:0:0:
181,273,65331,1,4,0:0:0:0:
53,240,65772,2,0,P|47:161|56:115,1,110,4|2,0:0|0:0,0:0:0:0:
107,60,66361,1,0,1:0:0:0:
107,60,66508,2,0,P|162:52|219:73,1,110,8|0,0:3|1:0,0:0:0:0:
289,112,67096,6,0,P|295:168|300:225,1,110,4|0,0:0|1:0,0:0:0:0:
343,223,67537,2,0,P|338:288|335:339,1,110,2|2,0:0|0:0,0:0:0:0:
251,360,68125,2,0,P|185:343|134:364,1,110,2|2,0:0|0:0,0:0:0:0:
101,279,68714,2,0,P|118:213|64:140,1,165,2|0,0:0|1:0,0:0:0:0:
86,54,69449,6,0,P|143:8|185:15,1,110,2|0,0:0|1:0,0:0:0:0:
214,32,69890,2,0,B|266:62|266:62|325:61,1,110,2|2,0:0|0:0,0:0:0:0:
338,144,70478,2,0,L|202:149,1,110,2|2,0:0|0:0,0:0:0:0:
140,153,71066,2,0,P|41:137|21:202,1,165,2|0,0:0|1:0,0:0:0:0:
27,224,71655,1,4,0:3:0:0:
27,224,71802,6,0,B|49:280|49:280|32:341,1,110,2|0,0:0|1:0,0:0:0:0:
70,355,72243,2,0,L|192:355,1,110,2|2,0:0|0:0,0:0:0:0:
267,355,72831,2,0,P|313:283|301:259,1,110,2|2,0:0|0:0,0:0:0:0:
239,213,73419,2,0,P|237:159|279:127,1,110,2|0,0:0|1:0,0:0:0:0:
315,47,74008,6,0,L|187:46,1,110,6|2,0:0|0:0,0:0:0:0:
163,30,74449,1,4,1:2:0:0:
115,103,74743,2,0,P|110:150|109:219,1,110,4|0,0:3|1:0,0:0:0:0:
121,255,75184,2,0,P|58:258|-5:267,2,110,4|4|4,0:0|0:0|0:0,0:0:0:0:
151,286,75919,1,4,0:0:0:0:
312,214,76508,5,4,0:0:0:0:
98,211,85919,6,0,P|81:149|98:94,1,110,4|0,0:0|1:0,0:0:0:0:
168,148,86508,2,0,B|219:170|219:170|325:141,1,165,2|2,0:0|0:0,0:0:0:0:
365,63,87243,1,2,0:0:0:0:
443,102,87537,2,0,P|474:138|463:213,1,110,2|0,0:0|0:0,0:0:0:0:
452,237,87978,1,0,1:0:0:0:
365,251,88272,6,0,P|342:301|370:373,2,110,2|0|2,0:0|1:0|0:0,0:0:0:0:
365,206,89008,1,2,0:0:0:0:
275,183,89302,2,0,L|147:182,1,110,2|0,0:0|0:0,0:0:0:0:
142,96,89890,2,0,L|308:99,1,165,2|0,0:0|1:0,0:0:0:0:
355,25,90625,6,0,P|398:86|384:137,1,110,2|0,0:0|1:0,0:0:0:0:
359,198,91214,2,0,P|312:256|330:344,1,165,2|2,0:0|0:0,0:0:0:0:
245,373,91949,1,2,0:0:0:0:
180,310,92243,2,0,B|104:293|104:293|10:322,1,165,2|0,0:0|1:0,0:0:0:0:
10,231,92978,6,0,P|-1:171|35:118,1,110,2|0,0:0|1:0,0:0:0:0:
60,110,93419,2,0,B|110:140|110:140|177:131,1,110,2|0,0:0|1:0,0:0:0:0:
228,76,94008,2,0,P|280:49|321:70,1,110,4|0,0:0|1:0,0:0:0:0:
345,107,94449,2,0,L|340:173,1,55,0|2,1:0|0:0,0:0:0:0:
335,249,94890,1,0,1:0:0:0:
451,315,95331,6,0,L|459:190,1,110,4|0,0:0|1:0,0:0:0:0:
470,119,95919,2,0,P|421:120|382:59,1,110,2|0,0:0|1:0,0:0:0:0:
364,36,96361,2,0,P|307:34|244:37,1,110,2|2,0:0|0:0,0:0:0:0:
262,123,96949,2,0,P|205:124|98:121,1,165,2|0,0:0|1:0,0:0:0:0:
90,208,97684,6,0,P|142:209|210:209,1,110,2|0,0:0|1:0,0:0:0:0:
283,235,98272,2,0,P|267:305|276:350,1,110,2|0,0:0|1:0,0:0:0:0:
312,361,98714,2,0,P|370:357|483:362,1,165,2|0,0:0|1:0,0:0:0:0:
502,277,99449,2,0,P|518:220|496:167,1,110,2|0,0:0|1:0,0:0:0:0:
477,136,99890,6,0,P|425:105|328:139,1,165,2|0,0:0|1:0,0:0:0:0:
270,198,100625,2,0,P|250:167|261:93,1,110,2|0,0:0|1:0,0:0:0:0:
256,53,101066,2,0,L|76:52,1,165,2|0,0:0|1:0,0:0:0:0:
42,125,101802,2,0,P|19:178|60:238,1,110,2|0,0:0|1:0,0:0:0:0:
72,251,102243,6,0,B|137:273|137:273|239:244,1,165,6|0,0:0|1:0,0:0:0:0:
275,171,102978,2,0,P|331:153|384:173,1,110,0|0,1:0|1:0,0:0:0:0:
387,211,103419,2,0,B|374:336,1,110,4|4,0:0|0:0,0:0:0:0:
294,354,104008,1,4,0:0:0:0:
77,314,104743,6,0,L|60:205,1,110,4|0,0:0|1:0,0:0:0:0:
43,164,105184,2,0,P|55:93|99:67,1,110,2|4,0:0|0:3,0:0:0:0:
150,127,105772,2,0,B|202:141|202:141|270:122,1,110,2|2,0:0|0:0,0:0:0:0:
310,56,106361,2,0,B|373:35|373:35|468:63,1,165,2|0,0:0|1:0,0:0:0:0:
454,149,107096,6,0,P|438:194|456:260,1,110,2|0,0:0|1:0,0:0:0:0:
466,294,107537,2,0,L|334:297,1,110,2|2,0:0|0:0,0:0:0:0:
284,347,108125,2,0,P|266:287|291:237,1,110,2|2,0:0|0:0,0:0:0:0:
340,177,108714,2,0,P|371:100|320:33,1,165,0|0,0:0|1:0,0:0:0:0:
289,56,109302,1,4,0:3:0:0:
289,56,109449,6,0,P|215:58|175:55,1,110,2|0,0:0|1:0,0:0:0:0:
135,50,109890,2,0,P|76:100|77:140,1,110,2|2,0:0|0:0,0:0:0:0:
99,212,110478,2,0,P|171:197|209:221,1,110,2|2,0:0|0:0,0:0:0:0:
233,294,111066,2,0,P|305:309|343:285,1,110,2|4,0:0|0:3,0:0:0:0:
413,187,111802,6,0,P|409:109|407:66,1,110,4|0,0:0|1:0,0:0:0:0:
320,64,112390,2,0,P|324:142|326:185,1,110,4|0,0:2|1:0,0:0:0:0:
325,218,112831,2,0,P|252:186|214:197,1,110,4|2,0:2|0:0,0:0:0:0:
157,248,113419,1,4,0:3:0:0:
157,248,113566,2,0,P|84:270|38:251,1,110,0|0,1:0|1:0,0:0:0:0:
93,182,114155,6,0,L|84:66,1,110,4|0,0:0|1:0,0:0:0:0:
80,28,114596,2,0,P|136:6|185:30,1,110,2|4,0:0|0:3,0:0:0:0:
236,90,115184,2,0,B|272:109|272:109|355:104,1,110,2|2,0:0|0:0,0:0:0:0:
383,181,115772,2,0,L|216:197,1,165,2|0,0:0|1:0,0:0:0:0:
130,195,116508,6,0,P|71:255|73:302,1,110,2|0,0:0|1:0,0:0:0:0:
86,316,116949,2,0,B|142:300|142:300|213:319,1,110,0|2,0:0|0:0,0:0:0:0:
277,333,117537,2,0,L|404:331,1,110,2|2,0:0|0:0,0:0:0:0:
409,246,118125,2,0,L|238:248,1,165,2|0,0:0|1:0,0:0:0:0:
177,190,118861,6,0,P|166:133|193:81,1,110,2|0,0:0|1:0,0:0:0:0:
216,54,119302,2,0,P|273:43|325:70,1,110,2|2,0:0|0:0,0:0:0:0:
372,133,119890,2,0,L|496:131,1,110,2|2,0:0|0:0,0:0:0:0:
482,219,120478,2,0,L|358:221,1,110,2|0,0:0|1:3,0:0:0:0:
284,223,121066,5,4,0:0:0:0:
68,115,125919,6,0,B|48:172|48:172|58:229,2,110,4|0|2,0:0|1:0|0:0,0:0:0:0:
97,81,126655,1,2,0:0:0:0:
170,128,126949,2,0,B|217:159|217:159|287:153,1,110,2|0,0:0|0:0,0:0:0:0:
304,122,127390,1,0,1:0:0:0:
391,122,127684,2,0,P|429:173|420:238,1,110,2|0,0:0|1:0,0:0:0:0:
386,232,128125,6,0,P|387:307|390:359,1,110,2|2,0:0|0:0,0:0:0:0:
300,345,128714,2,0,P|299:289|296:269,2,55,2|2|2,0:0|0:0|0:0,0:0:0:0:
217,315,129302,2,0,P|156:312|89:311,1,110,2|2,0:0|0:0,0:0:0:0:
105,223,129890,2,0,P|159:224|214:226,1,110,2|2,0:0|0:0,0:0:0:0:
290,182,130478,1,2,0:0:0:0:
192,93,130919,6,0,P|211:28|306:44,1,165,2|2,1:2|1:2,0:0:0:0:
335,110,131655,2,0,B|312:159|312:159|321:227,1,110,4|2,0:0|0:0,0:0:0:0:
342,251,132096,2,0,P|407:286|413:337,1,110,0|2,1:0|0:0,0:0:0:0:
329,336,132684,2,0,L|258:336,1,55,0|2,1:0|0:0,0:0:0:0:
184,321,133125,6,0,P|148:258|165:208,1,110,2|4,0:0|0:3,0:0:0:0:
169,183,133566,2,0,B|222:201|222:201|277:190,1,110,2|0,0:0|1:0,0:0:0:0:
315,171,134008,1,4,0:0:0:0:
369,102,134302,2,0,P|407:108|430:105,2,55,0|0|4,1:0|1:0|0:0,0:0:0:0:
304,42,134890,1,0,1:0:0:0:
189,107,135331,6,0,B|137:115|137:115|78:88,1,110,0|4,1:0|1:0,0:0:0:0:
18,148,135919,2,0,P|-1:207|21:268,1,110,2|0,0:0|1:0,0:0:0:0:
48,275,136361,2,0,L|173:274,1,110,2|2,0:0|0:0,0:0:0:0:
183,190,136949,2,0,L|308:191,1,110,2|2,0:0|0:0,0:0:0:0:
338,188,137390,1,0,1:0:0:0:
364,104,137684,6,0,P|441:80|483:101,1,110,2|0,0:0|1:0,0:0:0:0:
499,169,138272,2,0,B|481:226|481:226|500:284,1,110,2|0,0:0|1:0,0:0:0:0:
495,318,138714,2,0,L|371:318,1,110,2|2,0:0|0:0,0:0:0:0:
331,248,139302,2,0,L|159:249,1,165,2|0,0:0|1:0,0:0:0:0:
100,307,140037,6,0,P|80:237|105:191,2,110,2|0|2,0:0|1:0|0:0,0:0:0:0:
170,359,140919,1,0,1:0:0:0:
251,326,141214,2,0,L|386:329,1,110,2|0,0:0|1:0,0:0:0:0:
404,323,141655,2,0,P|428:270|403:217,1,110,2|6,0:0|0:0,0:0:0:0:
383,140,142243,6,0,B|284:127|329:174|212:159,1,165,0|0,1:0|1:0,0:0:0:0:
135,145,142978,2,0,P|131:172|139:199,2,55,2|0|2,0:0|0:0|0:0,0:0:0:0:
157,107,143419,2,0,P|163:17|97:1,1,165,2|0,0:0|1:0,0:0:0:0:
40,59,144155,2,0,L|44:181,1,110,4|0,0:3|1:0,0:0:0:0:
45,256,144743,5,4,0:0:0:0:
204,331,145331,2,0,P|290:298|364:345,2,165,0|2|0,1:0|0:0|1:0,0:0:0:0:
123,367,146508,2,0,P|120:298|160:254,1,110,0|0,1:0|0:0,0:0:0:0:
213,215,147096,6,0,B|261:128|137:93|197:0,3,220,2|2|2|0,0:0|0:2|0:0|1:0,0:0:0:0:
332,114,149449,6,0,P|361:124|444:97,1,110,4|0,0:0|1:0,0:0:0:0:
477,182,150037,2,0,L|470:316,1,110,0|0,1:0|0:0,0:0:0:0:
470,335,150478,2,0,P|419:302|309:331,1,165,2|0,0:0|1:0,0:0:0:0:
251,374,151214,2,0,P|234:303|246:267,1,110,0|0,1:0|1:0,0:0:0:0:
303,204,151802,6,0,P|340:136|290:55,2,165,2|2|0,0:0|0:0|1:0,0:0:0:0:
215,194,152978,2,0,L|136:192,2,55,2|2|2,0:3|0:3|1:3,0:0:0:0:
184,111,153566,2,0,L|105:109,2,55,4|4|0,0:3|0:3|1:0,0:0:0:0:
192,21,154155,2,0,L|75:20,1,110,4|0,0:0|1:0,0:0:0:0:
26,88,154743,2,0,P|5:167|16:195,1,110,0|0,1:0|0:0,0:0:0:0:
48,217,155184,2,0,B|114:196|114:196|223:225,1,165,2|0,0:0|1:0,0:0:0:0:
289,251,155919,2,0,P|287:191|258:152,1,110,0|0,1:0|1:0,0:0:0:0:
202,83,156508,6,0,B|338:103|266:35|426:53,3,220,2|2|2|0,0:0|0:0|0:0|1:0,0:0:0:0:
471,118,158566,1,0,1:0:0:0:
403,174,158861,6,0,P|369:232|386:273,1,110,4|0,0:0|1:0,0:0:0:0:
326,336,159449,2,0,P|260:309|206:332,1,110,2|0,0:0|1:0,0:0:0:0:
182,328,159890,2,0,P|179:253|181:200,1,110,2|2,0:0|0:0,0:0:0:0:
95,242,160478,2,0,P|98:167|96:114,1,110,2|2,0:0|0:0,0:0:0:0:
84,90,160919,1,0,1:0:0:0:
154,37,161214,6,0,P|242:38|266:69,1,110,4|0,1:2|1:0,0:0:0:0:
271,88,161655,2,0,P|341:143|380:136,1,110,2|2,1:2|1:2,0:0:0:0:
404,68,162243,2,0,P|439:115|437:184,1,110,2|2,1:2|1:2,0:0:0:0:
379,225,162831,1,4,0:0:0:0:
110,36,172978,5,4,0:0:0:0:
65,111,173272,2,0,B|181:147|161:50|285:91,3,220,0|0|0|0,3:0|3:0|3:0|3:0,0:0:0:0:
330,157,175331,5,2,0:0:0:0:
251,197,175625,2,0,P|192:268|234:384,3,220,0|0|0|0,3:0|3:0|3:0|3:0,0:0:0:0:
305,336,177684,5,2,0:0:0:0:
383,375,177978,2,0,P|422:277|360:191,3,220,0|0|0|0,3:0|3:0|3:0|0:0,0:0:0:0:
284,235,180037,6,0,B|240:234|240:234|195:263|195:263|159:233|159:233|124:245|67:224,2,220,0|0|4,1:0|1:0|0:0,0:0:0:0:
17,110,182390,6,0,P|68:51|118:56,1,110,4|0,0:0|1:0,0:0:0:0:
137,62,182831,2,0,B|196:87|196:87|261:83,1,110,2|2,0:0|0:0,0:0:0:0:
260,170,183419,2,0,L|151:182,1,110,2|2,0:0|0:0,0:0:0:0:
82,238,184008,2,0,P|47:300|101:374,1,165,2|0,0:0|1:0,0:0:0:0:
174,336,184743,6,0,B|227:318|227:318|285:332,1,110,4|0,0:0|1:0,0:0:0:0:
323,333,185184,2,0,P|381:279|381:240,1,110,2|2,0:0|0:0,0:0:0:0:
346,172,185772,2,0,P|336:104|338:57,1,110,2|2,0:0|0:0,0:0:0:0:
265,11,186361,2,0,P|171:-2|122:54,1,165,2|0,0:0|1:0,0:0:0:0:
111,84,186949,1,4,0:3:0:0:
111,84,187096,6,0,P|127:165|132:215,1,110,4|0,0:0|1:0,0:0:0:0:
153,229,187537,2,0,P|137:310|132:360,1,110,2|2,0:0|0:0,0:0:0:0:
218,360,188125,2,0,P|298:353|340:360,1,110,2|2,0:0|0:0,0:0:0:0:
378,285,188714,2,0,P|458:292|500:285,1,110,2|2,0:0|0:0,0:0:0:0:
482,157,189449,6,0,P|427:152|372:159,1,110,4|0,0:0|1:0,0:0:0:0:
287,178,190037,2,0,P|275:108|281:61,1,110,4|0,0:0|1:0,0:0:0:0:
280,25,190478,2,0,P|204:10|170:22,1,110,4|2,0:0|0:0,0:0:0:0:
116,85,191066,1,0,0:0:0:0:
116,85,191214,2,0,P|123:176|128:213,1,110,0|0,1:0|1:3,0:0:0:0:
210,216,191802,6,0,P|203:307|198:344,1,110,4|4,0:0|1:2,0:0:0:0:
174,360,192243,2,0,P|96:353|54:356,1,110,2|4,0:0|0:3,0:0:0:0:
33,272,192831,2,0,P|26:211|24:154,1,110,2|2,0:2|0:0,0:0:0:0:
75,90,193419,2,0,P|132:98|239:83,1,165,2|0,0:0|1:0,0:0:0:0:
285,5,194155,6,0,P|351:2|410:5,1,110,4|0,0:0|1:0,0:0:0:0:
435,19,194596,2,0,P|415:95|427:135,1,110,2|2,0:0|0:0,0:0:0:0:
484,185,195184,2,0,P|504:261|492:301,1,110,2|2,0:0|0:0,0:0:0:0:
421,244,195772,2,0,P|343:239|247:245,1,165,2|0,0:0|1:0,0:0:0:0:
176,280,196508,6,0,P|168:200|170:156,1,110,4|0,0:0|1:0,0:0:0:0:
204,145,196949,2,0,P|212:65|210:21,1,110,2|2,0:0|0:0,0:0:0:0:
125,55,197537,2,0,P|68:57|10:58,1,110,2|2,0:0|0:0,0:0:0:0:
3,143,198125,2,0,P|60:141|118:140,1,110,2|0,0:0|1:0,0:0:0:0:
179,197,198714,6,0,P|127:254|155:328,1,165,4|0,0:0|1:0,0:0:0:0:
242,317,199449,2,0,L|242:376,2,55,0|0|0,1:0|1:0|1:0,0:0:0:0:
281,296,199890,2,0,B|345:307|345:307|412:291,1,110,2|2,0:0|0:0,0:0:0:0:
451,234,200478,1,2,0:0:0:0:
451,234,200625,2,0,L|448:114,1,110,2|0,0:0|1:0,0:0:0:0:
405,45,201214,6,0,P|363:75|303:46,1,110,4|4,0:0|0:3,0:0:0:0:
272,77,201655,2,0,P|230:47|170:76,1,110,2|2,1:2|1:2,0:0:0:0:
133,139,202243,2,0,P|71:142|18:140,1,110,0|0,1:0|1:2,0:0:0:0:
16,228,202831,2,0,P|78:225|184:227,1,165,2|4,1:2|0:3,0:0:0:0:
216,307,203566,6,0,P|287:343|326:336,1,110,4|4,0:3|0:3,0:0:0:0:
357,328,204008,2,0,P|393:257|386:218,1,110,0|2,1:0|1:2,0:0:0:0:
322,175,204596,2,0,P|312:108|309:61,1,110,0|0,1:0|1:0,0:0:0:0:
392,36,205184,2,0,P|469:41|510:119,1,165,0|4,1:0|0:3,0:0:0:0:
503,198,205919,6,0,P|497:290|500:330,1,110,4|4,0:3|0:3,0:0:0:0:
479,347,206361,2,0,P|424:341|369:347,1,110,0|0,1:0|1:0,0:0:0:0:
293,304,206949,2,0,P|238:309|183:303,1,110,2|0,1:2|1:2,0:0:0:0:
101,335,207537,1,2,1:2:0:0:
43,268,207831,1,2,1:2:0:0:
88,193,208125,6,0,P|143:143|226:179,1,165,4|4,1:2|1:3,0:0:0:0:
307,188,208861,2,0,P|299:133|293:78,1,110,0|0,1:3|1:0,0:0:0:0:
303,35,209302,2,0,P|358:16|427:35,1,110,0|0,1:0|1:0,0:0:0:0:
472,84,209890,2,0,P|470:152|468:208,1,110,4|4,0:3|0:3,0:0:0:0:
465,237,210331,1,0,1:0:0:0:
457,324,210625,5,4,0:0:0:0:
296,289,211655,5,4,0:0:0:0:
137,254,212978,5,4,0:0:0:0:
