osu file format v14

[General]
AudioFilename: audio.mp3
AudioLeadIn: 0
PreviewTime: 163199
Countdown: 0
SampleSet: Soft
StackLeniency: 0.7
Mode: 0
LetterboxInBreaks: 0
WidescreenStoryboard: 0

[Editor]
DistanceSpacing: 2.5
BeatDivisor: 4
GridSize: 8
TimelineZoom: 1

[Metadata]
Title:The Noise of Rain
TitleUnicode:雨音ノイズ
Artist:Kino Hiko
ArtistUnicode:木のひこ
Creator:Battle
Version:Insane
Source:
Tags:regraz 40mp utaite amaoto noise 40meterP english cover
BeatmapID:1466008
BeatmapSetID:613928

[Difficulty]
HPDrainRate:6
CircleSize:4
OverallDifficulty:8
ApproachRate:9
SliderMultiplier:1.4
SliderTickRate:1

[Events]
//Background and Video events
Video,-185,"mv.avi"
0,0,"bg.jpg",0,0
//Break Periods
2,83619,84584
2,163566,172378
//Storyboard Layer 0 (Background)
//Storyboard Layer 1 (Fail)
//Storyboard Layer 2 (Pass)
//Storyboard Layer 3 (Foreground)
//Storyboard Sound Samples

[TimingPoints]
1214,294.117647058824,4,2,1,50,1,0
1214,-133.333333333333,4,2,1,50,0,0
9302,-133.333333333333,4,2,1,60,0,0
10331,-133.333333333333,4,2,1,70,0,0
10625,-100,4,2,1,80,0,0
19302,-200,4,2,1,80,0,0
20037,-100,4,2,1,75,0,0
38419,-76.9230769230769,4,2,1,75,0,0
38861,-100,4,2,1,75,0,0
56655,-133.333333333333,4,2,1,80,0,0
56949,-333.333333333333,4,2,1,90,0,0
57390,-100,4,2,1,80,0,0
57611,-100,4,2,1,5,0,0
57684,-90.9090909090909,4,2,1,90,0,1
75478,-111.111111111111,4,2,1,80,0,0
75772,-250,4,2,1,80,0,0
76508,-100,4,2,1,80,0,0
85184,-100,4,2,1,60,0,0
85919,-100,4,2,1,70,0,0
94008,-100,4,2,1,80,0,0
103714,-133.333333333333,4,2,1,80,0,0
104008,-333.333333333333,4,2,1,80,0,0
104449,-100,4,2,1,80,0,0
104669,-100,4,2,1,5,0,0
104743,-90.9090909090909,4,2,1,90,0,1
121214,-100,4,2,1,60,0,0
125478,-83.3333333333333,4,2,1,70,0,0
125919,-83.3333333333333,4,2,1,80,0,0
144743,-133.333333333333,4,2,1,70,0,0
158861,-100,4,2,1,80,0,0
172978,-100,4,2,1,70,0,0
180037,-100,4,2,1,80,0,0
181214,-200,4,2,1,80,0,0
181728,-200,4,2,1,5,0,0
181802,-100,4,2,1,80,0,0
182022,-100,4,2,1,5,0,0
182096,-100,4,2,1,80,0,0
182316,-100,4,2,1,5,0,0
182390,-90.9090909090909,4,2,1,90,0,1
198861,-100,4,2,1,80,0,0
201214,-76.9230769230769,4,2,1,90,0,1
208125,-90.9090909090909,4,2,1,80,0,0
210625,-76.9230769230769,4,2,1,80,0,1
210699,-76.9230769230769,4,2,1,80,0,0
211655,-76.9230769230769,4,2,1,80,0,1
211728,-76.9230769230769,4,2,1,80,0,0
212978,-76.9230769230769,4,2,1,80,0,1
213052,-76.9230769230769,4,2,1,80,0,0

[Colours]
Combo1 : 131,90,114
Combo2 : 77,88,136
Combo3 : 171,113,78
Combo4 : 226,202,150
Combo5 : 97,118,133

[HitObjects]
88,208,1214,6,0,P|140:197|171:143,1,105.000004005432,2|0,0:0|3:0,0:0:0:0:
96,133,1655,1,0,0:0:0:0:
184,24,1802,2,0,L|178:90,2,52.5000020027161,2|2|0,0:0|0:0|3:0,0:0:0:0:
256,184,2243,2,0,L|263:63,1,105.000004005432,2|2,0:0|0:0,0:0:0:0:
438,153,2831,2,0,B|373:162|373:162|318:137,1,105.000004005432,2|2,0:0|0:0,0:0:0:0:
394,28,3272,2,0,L|385:85,1,52.5000020027161,0|0,0:0|0:0,0:0:0:0:
360,245,3566,6,0,L|467:228,1,105.000004005432,2|0,0:0|3:0,0:0:0:0:
297,296,4008,1,0,0:0:0:0:
297,296,4155,2,0,P|280:245|281:228,1,52.5000020027161,2|2,0:0|0:0,0:0:0:0:
320,164,4449,1,0,3:0:0:0:
225,75,4596,2,0,L|171:68,1,52.5000020027161,2|0,0:0|0:0,0:0:0:0:
61,169,4890,2,0,L|115:162,1,52.5000020027161,2|0,0:0|3:0,0:0:0:0:
239,282,5184,2,0,L|128:269,1,105.000004005432,2|2,0:0|0:0,0:0:0:0:
178,358,5625,1,0,3:0:0:0:
268,134,5919,6,0,P|226:147|190:206,1,105.000004005432,2|0,0:0|3:0,0:0:0:0:
273,217,6361,1,0,0:0:0:0:
353,77,6508,2,0,L|347:148,1,52.5000020027161,2|2,0:0|0:0,0:0:0:0:
436,116,6802,1,0,3:0:0:0:
283,19,6949,2,0,B|257:66|257:66|272:136,1,105.000004005432,2|2,0:0|0:0,0:0:0:0:
164,249,7537,2,0,B|174:198|174:198|148:151,1,105.000004005432,2|2,0:0|0:0,0:0:0:0:
37,224,7978,2,0,L|94:207,1,52.5000020027161,0|0,0:0|0:0,0:0:0:0:
156,47,8272,6,0,L|148:157,1,105.000004005432,2|0,0:0|3:0,0:0:0:0:
79,79,8714,1,0,0:0:0:0:
245,19,8861,2,0,L|238:90,1,52.5000020027161,2|2,0:0|0:0,0:0:0:0:
230,156,9155,1,0,3:0:0:0:
346,19,9302,2,0,L|332:132,1,105.000004005432,2|0,0:0|0:0,0:0:0:0:
318,207,9743,1,0,1:0:0:0:
478,196,9890,2,0,P|455:146|406:121,1,105.000004005432,4|0,0:3|0:0,0:0:0:0:
406,285,10331,2,0,L|481:274,1,52.5000020027161,4|0,0:0|0:0,0:0:0:0:
330,350,10625,6,0,P|326:276|269:230,1,140,4|0,0:1|1:0,0:0:0:0:
194,274,11066,1,0,0:0:0:0:
219,126,11214,2,0,L|207:202,2,70,2|2|0,0:0|0:0|1:0,0:0:0:0:
196,43,11655,2,0,P|150:75|138:102,1,70,2|0,0:0|0:0,0:0:0:0:
271,169,11949,2,0,P|249:141|218:125,1,70,2|0,0:0|1:0,0:0:0:0:
57,214,12243,2,0,B|107:235|107:235|190:211,1,140,2|0,0:0|0:0,0:0:0:0:
225,359,12684,2,0,L|165:275,1,70,0|0,1:0|0:0,0:0:0:0:
286,145,12978,6,0,L|275:295,1,140,2|0,0:0|1:0,0:0:0:0:
190,211,13419,1,0,0:0:0:0:
250,84,13566,2,0,L|290:153,1,70,2|2,0:0|0:0,0:0:0:0:
351,60,13861,1,0,1:0:0:0:
424,152,14008,2,0,L|273:143,1,140,2|2,0:0|0:0,0:0:0:0:
357,228,14449,1,0,1:0:0:0:
243,252,14596,2,0,P|239:173|289:142,1,140,2|2,0:0|0:0,0:0:0:0:
357,298,15037,2,0,L|357:220,1,70,0|0,1:0|0:0,0:0:0:0:
448,99,15331,6,0,B|422:151|422:151|447:240,1,140,2|0,0:0|1:0,0:0:0:0:
512,162,15772,1,0,0:0:0:0:
397,44,15919,2,0,L|480:82,1,70,2|2,0:0|0:0,0:0:0:0:
383,147,16214,1,0,1:0:0:0:
296,20,16361,2,0,P|286:82|289:101,1,70,2|0,0:0|0:0,0:0:0:0:
194,137,16655,2,0,P|204:199|201:218,1,70,2|0,0:0|1:0,0:0:0:0:
295,341,16949,2,0,P|244:295|166:300,1,140,2|2,0:0|0:0,0:0:0:0:
27,344,17390,2,0,P|76:349|113:332,1,70,0|0,1:0|0:0,0:0:0:0:
65,144,17684,6,0,B|36:208|36:208|64:288,1,140,2|0,0:0|1:0,0:0:0:0:
128,210,18125,1,0,0:0:0:0:
99,44,18272,1,2,0:0:0:0:
181,141,18419,1,2,0:0:0:0:
76,122,18566,1,0,1:0:0:0:
208,0,18714,6,0,L|194:74,1,70,2|0,0:0|0:0,0:0:0:0:
284,53,19008,2,0,L|270:127,1,70,2|0,0:0|0:0,0:0:0:0:
389,21,19302,6,0,L|369:131,1,105,2|0,0:0|0:0,0:0:0:0:
294,198,20037,6,0,P|295:147|387:137,1,140,4|0,1:1|1:0,0:0:0:0:
380,213,20478,1,0,1:0:0:0:
291,281,20625,1,2,0:0:0:0:
447,303,20772,2,0,L|373:293,1,70,0|0,0:0|1:0,0:0:0:0:
228,340,21066,2,0,P|209:260|260:198,1,140,2|2,0:0|0:0,0:0:0:0:
291,281,21508,1,0,1:0:0:0:
346,152,21655,2,0,B|276:174|284:110|195:139,1,140,2|2,0:0|0:0,0:0:0:0:
114,94,22096,2,0,P|145:55|175:41,1,70,0|0,1:0|0:0,0:0:0:0:
168,213,22390,6,0,P|124:191|77:192,2,70,2|0|0,0:0|0:0|1:0,0:0:0:0:
26,250,22831,2,0,L|10:151,1,70,2|0,0:0|0:0,0:0:0:0:
116,289,23125,2,0,L|104:370,1,70,2|0,0:0|1:0,0:0:0:0:
325,349,23419,2,0,B|241:363|241:363|185:339,1,140,2|2,0:0|0:0,0:0:0:0:
116,289,23861,1,0,1:0:0:0:
254,209,24008,2,0,L|244:302,1,70,2|0,0:0|0:0,0:0:0:0:
180,212,24302,1,0,1:0:0:0:
313,162,24449,1,0,1:0:0:0:
180,212,24596,1,4,3:0:0:0:
171,58,24743,6,0,L|225:106,1,70,0|0,1:0|0:0,0:0:0:0:
61,153,25037,2,0,L|138:141,1,70,0|0,1:0|1:0,0:0:0:0:
111,0,25331,2,0,P|90:33|91:83,2,70,2|0|0,0:0|0:0|1:0,0:0:0:0:
165,197,25772,2,0,L|171:57,1,140,2|2,0:0|0:0,0:0:0:0:
84,141,26214,1,0,1:0:0:0:
343,156,26361,2,0,L|191:148,1,140,2|2,0:0|0:0,0:0:0:0:
275,42,26802,2,0,B|262:79|262:79|273:127,1,70,0|0,1:0|0:0,0:0:0:0:
417,172,27096,6,0,P|406:110|384:90,1,70,2|0,0:0|0:0,0:0:0:0:
330,237,27390,1,0,1:0:0:0:
330,237,27537,2,0,P|384:256|410:264,1,70,0|2,1:0|0:0,0:0:0:0:
280,315,27831,1,2,0:0:0:0:
251,204,27978,1,0,1:0:0:0:
122,240,28125,2,0,L|202:120,1,140,2|2,0:0|0:0,0:0:0:0:
93,145,28566,1,0,1:0:0:0:
287,282,28714,2,0,L|250:203,1,70,0|0,1:0|0:0,0:0:0:0:
194,285,29008,1,0,1:0:0:0:
360,147,29155,2,0,L|343:217,1,70,0|4,1:0|3:0,0:0:0:0:
166,136,29449,6,0,P|240:139|291:66,1,140,0|0,1:0|1:0,0:0:0:0:
209,66,29890,1,0,1:0:0:0:
86,200,30037,1,2,0:0:0:0:
86,200,30184,2,0,P|73:145|68:119,1,70,2|0,0:0|1:0,0:0:0:0:
190,222,30478,2,0,P|154:298|171:354,1,140,2|2,0:0|0:0,0:0:0:0:
82,271,30919,1,0,1:0:0:0:
246,297,31066,2,0,B|313:314|313:314|393:288,1,140,2|2,0:0|0:0,0:0:0:0:
311,154,31508,2,0,L|294:229,1,70,0|0,1:0|0:0,0:0:0:0:
201,44,31802,6,0,L|215:134,2,70,2|2|0,0:0|0:0|1:0,0:0:0:0:
377,91,32243,2,0,P|322:73|295:42,1,70,2|0,0:0|0:0,0:0:0:0:
180,220,32537,2,0,P|236:208|267:203,1,70,2|0,0:0|1:0,0:0:0:0:
359,330,32831,2,0,P|339:276|349:234,1,70,2|0,0:0|0:0,0:0:0:0:
454,202,33125,2,0,P|442:235|433:269,1,70,2|0,0:0|1:0,0:0:0:0:
261,215,33419,1,0,1:0:0:0:
350,157,33566,2,0,P|342:107|339:82,2,70,2|2|0,0:0|0:0|1:0,0:0:0:0:
300,303,34008,1,2,0:0:0:0:
300,303,34155,6,0,P|265:247|189:228,1,140,2|0,0:0|1:0,0:0:0:0:
213,311,34596,1,0,0:0:0:0:
132,160,34743,2,0,P|105:203|106:240,1,70,2|2,0:0|0:0,0:0:0:0:
227,160,35037,1,0,1:0:0:0:
227,160,35184,1,2,0:0:0:0:
173,13,35331,2,0,L|175:101,1,70,2|0,0:0|0:0,0:0:0:0:
311,140,35625,2,0,P|285:98|249:80,1,70,0|0,1:0|0:0,0:0:0:0:
137,180,35919,1,2,0:0:0:0:
227,160,36066,2,0,L|225:242,1,70,0|0,0:0|1:0,0:0:0:0:
316,319,36361,1,2,0:0:0:0:
316,319,36434,1,2,0:0:0:0:
316,319,36508,6,0,P|338:282|388:263,1,70,2|0,0:0|0:0,0:0:0:0:
231,384,36802,2,0,L|138:371,1,70,0|0,1:0|1:0,0:0:0:0:
68,311,37096,1,0,1:0:0:0:
170,246,37243,1,0,1:0:0:0:
71,178,37390,1,0,1:0:0:0:
185,83,37537,2,0,L|176:164,1,70,4|0,0:0|0:0,0:0:0:0:
69,8,37831,2,0,L|78:89,1,70,2|0,0:0|1:0,0:0:0:0:
273,67,38125,2,0,P|190:53|171:-14,1,140,4|2,0:0|0:0,0:0:0:0:
185,187,38566,1,2,3:0:0:0:
297,164,38714,1,2,3:0:0:0:
185,187,38861,6,0,L|200:263,1,70,4|0,0:0|0:0,0:0:0:0:
110,235,39155,1,0,1:0:0:0:
110,235,39302,1,0,1:0:0:0:
141,368,39449,1,2,0:0:0:0:
317,338,39596,2,0,L|227:336,1,70,2|0,0:0|1:0,0:0:0:0:
173,207,39890,2,0,B|214:240|214:240|328:241,1,140,2|2,0:0|0:0,0:0:0:0:
258,152,40331,1,0,1:0:0:0:
377,286,40478,2,0,P|384:211|341:164,1,140,2|2,0:0|0:0,0:0:0:0:
195,98,40919,2,0,P|243:68|277:72,1,70,0|0,1:0|0:0,0:0:0:0:
103,140,41214,6,0,P|97:105|93:71,1,70,2|0,0:0|0:0,0:0:0:0:
218,178,41508,1,0,1:0:0:0:
218,178,41655,2,0,P|213:212|207:247,1,70,2|0,0:0|0:0,0:0:0:0:
52,265,41949,1,2,0:0:0:0:
136,203,42096,1,0,1:0:0:0:
152,359,42243,2,0,L|127:291,1,70,2|0,0:0|0:0,0:0:0:0:
254,346,42537,2,0,L|258:262,1,70,2|0,0:0|1:0,0:0:0:0:
383,192,42831,2,0,P|325:206|261:130,1,140,2|0,0:0|1:0,0:0:0:0:
379,49,43272,1,0,1:0:0:0:
337,133,43419,1,4,3:0:0:0:
499,144,43566,6,0,L|406:123,1,70,2|0,0:0|0:0,0:0:0:0:
485,52,43861,1,0,1:0:0:0:
485,52,44008,1,0,1:0:0:0:
362,180,44155,2,0,P|346:132|348:101,2,70,2|2|0,0:0|0:0|1:0,0:0:0:0:
480,302,44596,2,0,P|408:267|341:296,1,140,2|0,0:0|0:0,0:0:0:0:
409,357,45037,1,0,1:0:0:0:
268,224,45184,2,0,L|292:374,1,140,2|0,0:0|0:0,0:0:0:0:
183,230,45625,2,0,B|178:270|178:270|201:317,1,70,0|0,1:0|0:0,0:0:0:0:
344,165,45919,6,0,P|287:177|223:121,1,140,2|0,0:0|1:0,0:0:0:0:
71,30,46361,2,0,P|122:73|127:155,1,140,2|2,0:0|0:0,0:0:0:0:
40,112,46802,1,0,1:0:0:0:
232,173,46949,2,0,P|203:232|220:319,1,140,2|2,0:0|0:0,0:0:0:0:
285,248,47390,1,0,1:0:0:0:
105,275,47537,2,0,P|119:338|128:368,1,70,2|0,0:0|0:0,0:0:0:0:
41,192,47831,2,0,P|6:246|-8:274,2,70,0|0|4,1:0|1:0|0:3,0:0:0:0:
159,117,48272,6,0,P|117:125|39:65,1,140,6|0,0:0|1:0,0:0:0:0:
119,45,48714,1,0,1:0:0:0:
234,174,48861,2,0,P|238:139|255:103,2,70,2|2|0,0:0|0:0|1:0,0:0:0:0:
167,323,49302,2,0,P|140:239|80:213,1,140,2|2,0:0|0:0,0:0:0:0:
87,298,49743,1,0,1:0:0:0:
248,236,49890,2,0,P|277:305|350:327,1,140,2|2,0:0|0:0,0:0:0:0:
374,178,50331,2,0,P|351:204|339:237,1,70,0|0,1:0|0:0,0:0:0:0:
261,66,50625,6,0,P|270:125|274:157,1,70,2|0,0:0|0:0,0:0:0:0:
351,76,50919,1,0,1:0:0:0:
182,53,51066,2,0,P|197:21|223:-1,1,70,2|0,0:0|0:0,0:0:0:0:
193,143,51361,2,0,P|132:133|102:132,1,70,2|0,0:0|1:0,0:0:0:0:
3,262,51655,2,0,P|96:240|145:241,1,140,2|0,0:0|0:0,0:0:0:0:
198,359,52096,1,0,1:0:0:0:
107,318,52243,1,0,0:0:0:0:
249,217,52390,1,2,0:0:0:0:
249,217,52537,2,0,P|227:271|223:292,1,70,2|0,0:0|1:0,0:0:0:0:
363,369,52831,6,0,P|346:286|341:217,1,140,2|0,0:0|0:0,0:0:0:0:
445,174,53272,2,0,P|389:144|370:129,1,70,0|0,1:0|0:0,0:0:0:0:
437,15,53566,2,0,P|442:60|445:87,2,70,2|2|0,0:0|0:0|1:0,0:0:0:0:
247,137,54008,1,2,0:0:0:0:
328,186,54155,2,0,P|334:114|270:59,1,140,2|0,0:0|1:0,0:0:0:0:
208,206,54596,1,0,0:0:0:0:
257,143,54743,1,2,0:0:0:0:
193,93,54890,1,2,0:0:0:0:
144,157,55037,1,0,1:0:0:0:
248,301,55184,6,0,L|331:181,1,140,4|0,0:0|0:0,0:0:0:0:
422,321,55625,2,0,L|350:302,1,70,0|0,1:0|1:0,0:0:0:0:
397,129,55919,1,4,0:3:0:0:
407,226,56066,1,4,0:3:0:0:
327,185,56214,1,0,1:0:0:0:
169,263,56361,6,0,L|267:258,1,70,4|0,0:0|0:0,0:0:0:0:
108,181,56655,2,0,L|183:177,1,52.5000020027161,4|0,0:0|0:0,0:0:0:0:
52,99,56949,2,0,L|95:96,1,41.9999987182618,4|0,0:0|0:0,0:0:0:0:
222,5,57390,6,0,P|183:56|193:107,1,105,2|0,0:0|0:0,0:0:0:0:
203,116,57684,6,0,L|288:108,1,77.0000023498536,4|0,0:1|0:0,0:0:0:0:
254,199,57978,1,0,1:0:0:0:
414,34,58125,2,0,P|368:68|353:115,1,77.0000023498536,2|0,0:0|0:0,0:0:0:0:
454,208,58419,2,0,P|458:169|469:132,1,77.0000023498536,2|0,0:0|1:0,0:0:0:0:
378,315,58714,2,0,P|371:258|305:188,1,154.000004699707,2|2,0:0|0:0,0:0:0:0:
293,292,59155,1,0,1:0:0:0:
217,128,59302,2,0,P|180:203|172:275,1,154.000004699707,2|4,0:0|0:3,0:0:0:0:
17,192,59743,2,0,P|75:191|112:186,1,77.0000023498536,0|0,1:0|0:0,0:0:0:0:
88,43,60037,6,0,P|56:88|45:128,1,77.0000023498536,2|0,0:0|0:0,0:0:0:0:
166,173,60331,1,0,1:0:0:0:
255,80,60478,2,0,P|201:48|181:29,1,77.0000023498536,2|0,0:0|0:0,0:0:0:0:
363,14,60772,2,0,P|358:60|355:94,1,77.0000023498536,2|0,0:0|1:0,0:0:0:0:
385,238,61066,2,0,P|434:178|516:175,1,154.000004699707,2|2,0:0|0:0,0:0:0:0:
476,260,61508,1,0,1:0:0:0:
261,225,61655,2,0,P|320:303|313:376,1,154.000004699707,2|4,0:0|0:3,0:0:0:0:
219,324,62096,1,0,1:0:0:0:
342,273,62243,1,4,0:3:0:0:
143,180,62390,6,0,L|180:267,1,77.0000023498536,2|0,0:0|0:0,0:0:0:0:
82,242,62684,1,0,1:0:0:0:
239,93,62831,2,0,L|235:183,1,77.0000023498536,2|0,0:0|0:0,0:0:0:0:
170,51,63125,2,0,P|216:15|249:10,1,77.0000023498536,2|0,0:0|1:0,0:0:0:0:
387,84,63419,2,0,B|333:77|333:77|291:97|291:97|224:91,1,154.000004699707,2|0,0:0|0:0,0:0:0:0:
348,171,63861,1,0,1:0:0:0:
439,14,64008,2,0,P|471:56|473:98,1,77.0000023498536,2|0,0:0|0:0,0:0:0:0:
387,84,64302,1,2,0:0:0:0:
462,208,64449,2,0,L|336:197,1,115.50000352478,0|0,1:0|0:0,0:0:0:0:
314,197,64743,6,0,P|339:239|336:276,1,77.0000023498536,4|4,0:0|0:3,0:0:0:0:
184,301,65037,1,0,1:0:0:0:
265,251,65184,1,0,1:0:0:0:
116,140,65331,6,0,L|153:222,1,77.0000023498536,4|2,0:0|0:0,0:0:0:0:
203,116,65625,1,0,1:0:0:0:
35,126,65772,6,0,P|62:81|82:67,1,77.0000023498536,4|0,0:0|0:0,0:0:0:0:
223,222,66066,2,0,L|134:207,1,77.0000023498536,2|0,0:0|1:0,0:0:0:0:
211,125,66361,1,0,1:0:0:0:
69,272,66508,2,0,P|49:216|48:190,1,77.0000023498536,8|4,0:3|0:3,0:0:0:0:
179,300,66802,2,0,P|167:338|157:373,1,77.0000023498536,0|4,1:0|0:3,0:0:0:0:
348,335,67096,6,0,P|280:269|265:202,1,154.000004699707,4|0,0:0|1:0,0:0:0:0:
404,147,67537,2,0,P|379:208|381:245,1,77.0000023498536,2|0,0:0|0:0,0:0:0:0:
284,103,67831,1,2,0:0:0:0:
375,59,67978,1,0,1:0:0:0:
284,103,68125,2,0,P|246:67|229:29,1,77.0000023498536,2|0,0:0|0:0,0:0:0:0:
105,165,68419,2,0,P|149:134|197:131,1,77.0000023498536,2|0,0:0|1:0,0:0:0:0:
289,212,68714,2,0,P|215:208|147:265,1,154.000004699707,2|2,0:0|0:0,0:0:0:0:
273,365,69155,2,0,P|245:309|240:281,1,77.0000023498536,0|0,1:0|0:0,0:0:0:0:
378,134,69449,6,0,P|349:215|354:288,1,154.000004699707,2|0,0:0|1:0,0:0:0:0:
505,263,69890,2,0,P|458:242|431:221,1,77.0000023498536,2|0,0:0|0:0,0:0:0:0:
419,53,70184,1,2,0:0:0:0:
466,149,70331,1,0,1:0:0:0:
318,148,70478,2,0,P|283:105|274:72,1,77.0000023498536,2|0,0:0|0:0,0:0:0:0:
166,63,70772,2,0,P|201:3|222:-11,1,77.0000023498536,2|0,0:0|1:0,0:0:0:0:
210,173,71066,2,0,P|130:146|56:168,1,154.000004699707,2|2,0:0|0:0,0:0:0:0:
63,297,71508,1,0,1:0:0:0:
141,236,71655,1,0,1:0:0:0:
251,366,71802,6,0,L|165:343,1,77.0000023498536,2|0,0:0|0:0,0:0:0:0:
281,210,72096,1,0,1:0:0:0:
281,210,72243,2,0,P|238:250|231:289,1,77.0000023498536,2|0,0:0|0:0,0:0:0:0:
344,371,72537,2,0,P|334:333|323:296,1,77.0000023498536,2|0,0:0|1:0,0:0:0:0:
456,159,72831,2,0,P|428:240|427:309,1,154.000004699707,2|2,0:0|0:0,0:0:0:0:
352,199,73272,1,0,1:0:0:0:
241,260,73419,2,0,P|187:238|157:233,1,77.0000023498536,2|0,0:0|0:0,0:0:0:0:
37,161,73714,2,0,P|74:151|109:135,1,77.0000023498536,0|0,1:0|1:0,0:0:0:0:
265,12,74008,6,0,P|210:95|220:156,1,154.000004699707,6|2,0:0|0:0,0:0:0:0:
344,191,74449,1,4,1:2:0:0:
301,101,74596,1,0,0:0:0:0:
440,200,74743,2,0,P|437:161|407:121,1,77.0000023498536,4|4,0:3|0:3,0:0:0:0:
379,272,75037,1,0,1:0:0:0:
280,218,75184,6,0,L|276:302,1,77.0000023498536,4|0,0:0|0:0,0:0:0:0:
201,158,75478,2,0,L|197:236,1,62.9999980773926,4|0,0:0|0:0,0:0:0:0:
286,141,75772,1,4,0:0:0:0:
210,23,75919,2,0,L|207:82,1,56,4|4,0:0|0:3,0:0:0:0:
116,269,76508,6,0,P|94:197|39:172,1,140,4|0,0:0|1:0,0:0:0:0:
37,251,76949,1,0,1:0:0:0:
240,160,77096,1,2,0:0:0:0:
240,160,77243,2,0,P|191:192|179:218,1,70,2|0,0:0|1:0,0:0:0:0:
250,370,77537,2,0,B|233:282|233:282|274:222,1,140,2|2,0:0|0:0,0:0:0:0:
341,300,77978,1,0,1:0:0:0:
467,205,78125,2,0,P|402:181|343:235,1,140,2|2,0:0|0:0,0:0:0:0:
214,177,78566,2,0,P|258:177|303:146,1,70,0|0,1:0|0:0,0:0:0:0:
290,1,78861,6,0,P|225:47|239:110,1,140,2|0,0:0|1:0,0:0:0:0:
337,100,79302,1,2,0:0:0:0:
293,235,79449,1,2,0:0:0:0:
293,235,79596,2,0,P|282:178|278:148,1,70,0|0,0:0|1:0,0:0:0:0:
489,201,79890,2,0,P|448:172|354:205,1,140,2|2,0:0|0:0,0:0:0:0:
424,250,80331,1,0,1:0:0:0:
311,373,80478,2,0,L|291:224,1,140,2|2,0:0|0:0,0:0:0:0:
220,300,80919,1,0,1:0:0:0:
380,314,81066,1,0,0:0:0:0:
250,162,81214,6,0,P|214:192|207:235,1,70,2|0,0:0|0:0,0:0:0:0:
392,182,81508,2,0,P|331:153|316:133,1,70,0|0,1:0|0:0,0:0:0:0:
396,103,81802,1,2,0:0:0:0:
268,9,81949,2,0,L|277:90,1,70,2|0,0:0|1:0,0:0:0:0:
102,149,82243,2,0,P|127:78|197:62,1,140,2|2,0:0|0:0,0:0:0:0:
224,164,82684,1,0,1:0:0:0:
81,231,82831,2,0,P|27:192|25:113,1,140,4|0,1:2|1:0,0:0:0:0:
39,315,83272,1,0,1:0:0:0:
39,315,83346,1,0,0:0:0:0:
39,315,83419,5,4,0:0:0:0:
39,315,85184,5,0,3:0:0:0:
91,244,85331,2,0,P|124:293|125:313,1,70,0|0,3:0|0:0,0:0:0:0:
288,273,85625,2,0,P|232:273|188:225,1,105,2|0,3:0|0:0,0:0:0:0:
181,218,85919,6,0,P|177:172|175:144,1,70,4|0,0:0|0:0,0:0:0:0:
286,64,86214,2,0,P|283:98|280:133,1,70,0|0,1:0|0:0,0:0:0:0:
107,103,86508,2,0,P|139:77|185:63,2,70,2|2|0,0:0|0:0|1:0,0:0:0:0:
27,238,86949,2,0,P|13:198|-1:96,1,140,2|2,0:0|0:0,0:0:0:0:
139,202,87390,1,0,1:0:0:0:
139,202,87537,2,0,P|117:272|114:295,1,70,2|0,0:0|0:0,0:0:0:0:
173,351,87831,1,0,0:0:0:0:
285,287,87978,2,0,P|217:265|200:261,1,70,0|0,1:0|0:0,0:0:0:0:
87,149,88272,6,0,P|162:162|238:134,1,140,2|0,0:0|1:0,0:0:0:0:
164,62,88714,1,0,0:0:0:0:
293,7,88861,2,0,P|276:67|273:84,2,70,2|2|0,0:0|0:0|1:0,0:0:0:0:
418,195,89302,2,0,P|408:131|367:58,1,140,2|0,0:0|0:0,0:0:0:0:
303,160,89743,1,0,1:0:0:0:
425,281,89890,2,0,P|366:262|333:258,1,70,2|0,0:0|0:0,0:0:0:0:
234,372,90184,1,2,0:0:0:0:
234,372,90331,2,0,P|268:364|300:351,1,70,0|0,1:0|0:0,0:0:0:0:
258,147,90625,6,0,P|230:212|236:286,1,140,2|0,0:0|1:0,0:0:0:0:
154,205,91066,1,0,0:0:0:0:
326,117,91214,2,0,P|285:94|257:63,2,70,2|2|0,0:0|0:0|1:0,0:0:0:0:
139,30,91655,2,0,P|166:83|171:115,1,70,2|0,0:0|0:0,0:0:0:0:
26,190,91949,2,0,P|36:156|55:127,1,70,2|0,0:0|1:0,0:0:0:0:
252,180,92243,2,0,B|168:162|202:219|97:193,1,140,2|2,0:0|0:0,0:0:0:0:
54,359,92684,2,0,P|78:313|121:294,1,70,0|0,1:0|0:0,0:0:0:0:
237,384,92978,6,0,P|225:330|218:300,1,70,2|0,0:0|0:0,0:0:0:0:
147,363,93272,1,0,1:0:0:0:
328,251,93419,2,0,P|320:285|312:319,1,70,2|0,0:0|0:0,0:0:0:0:
208,139,93714,1,0,1:0:0:0:
242,247,93861,1,0,1:0:0:0:
438,178,94008,6,0,B|366:187|366:187|297:151,1,140,4|0,0:0|1:0,0:0:0:0:
479,92,94449,1,0,1:0:0:0:
363,30,94596,2,0,L|381:110,1,70,2|0,0:0|0:0,0:0:0:0:
201,131,94890,1,0,1:0:0:0:
276,60,95037,2,0,P|236:39|203:32,1,70,4|4,0:3|0:3,0:0:0:0:
213,214,95331,6,0,P|230:210|304:198,2,70,4|0|0,0:0|0:0|1:0,0:0:0:0:
149,303,95772,1,0,0:0:0:0:
54,135,95919,2,0,P|33:182|32:219,1,70,2|2,0:0|0:0,0:0:0:0:
118,205,96214,1,0,1:0:0:0:
157,15,96361,2,0,P|140:75|136:102,1,70,2|0,0:0|0:0,0:0:0:0:
263,168,96655,2,0,P|255:133|244:100,1,70,2|0,0:0|1:0,0:0:0:0:
78,285,96949,2,0,P|134:241|207:245,1,140,2|2,0:0|0:0,0:0:0:0:
288,367,97390,2,0,P|234:355|206:357,1,70,0|0,1:0|0:0,0:0:0:0:
336,167,97684,6,0,P|309:225|337:301,1,140,2|0,0:0|1:0,0:0:0:0:
400,232,98125,1,0,0:0:0:0:
329,88,98272,2,0,P|381:101|407:126,2,70,2|2|0,0:0|0:0|1:0,0:0:0:0:
215,194,98714,2,0,P|191:107|190:56,1,140,2|2,0:0|0:0,0:0:0:0:
292,170,99155,1,0,1:0:0:0:
150,240,99302,1,0,0:0:0:0:
276,333,99449,2,0,P|283:279|291:240,2,70,2|2|0,0:0|0:0|1:0,0:0:0:0:
153,384,99890,1,2,0:0:0:0:
153,384,100037,6,0,P|126:313|55:278,1,140,2|0,0:0|1:0,0:0:0:0:
63,368,100478,1,0,0:0:0:0:
68,181,100625,2,0,P|20:196|4:214,1,70,2|2,0:0|0:0,0:0:0:0:
140,237,100919,1,0,1:0:0:0:
112,54,101066,1,2,0:0:0:0:
112,54,101214,2,0,P|151:121|239:137,1,140,2|0,0:0|1:0,0:0:0:0:
294,90,101655,1,0,0:0:0:0:
363,173,101802,1,2,0:0:0:0:
202,245,101949,2,0,L|283:240,1,70,2|0,0:0|1:0,0:0:0:0:
377,53,102243,6,0,P|312:5|237:19,1,140,6|0,0:0|0:0,0:0:0:0:
400,158,102684,2,0,P|462:144|500:139,1,70,0|0,1:0|1:0,0:0:0:0:
332,249,102978,1,0,1:0:0:0:
296,135,103125,1,4,0:3:0:0:
400,158,103272,1,0,1:0:0:0:
275,303,103419,6,0,P|251:244|258:213,1,70,4|0,0:0|0:0,0:0:0:0:
167,216,103714,2,0,P|192:177|207:168,1,52.5000020027161,4|0,0:0|0:0,0:0:0:0:
181,88,104008,2,0,P|217:88|231:93,1,41.9999987182618,4|0,0:0|0:0,0:0:0:0:
374,17,104449,6,0,P|349:67|352:124,1,105,2|0,0:0|0:0,0:0:0:0:
367,140,104743,6,0,P|387:196|385:227,1,77.0000023498536,4|0,0:0|0:0,0:0:0:0:
286,198,105037,1,0,1:0:0:0:
365,340,105184,2,0,P|297:303|202:329,1,154.000004699707,2|4,0:0|0:3,0:0:0:0:
139,375,105625,1,0,1:0:0:0:
47,254,105772,2,0,P|109:289|122:323,1,77.0000023498536,2|0,0:0|0:0,0:0:0:0:
91,110,106066,2,0,P|112:159|130:193,1,77.0000023498536,2|0,0:0|1:0,0:0:0:0:
259,187,106361,2,0,P|211:218|204:315,1,154.000004699707,2|0,0:0|0:0,0:0:0:0:
352,309,106802,2,0,P|316:295|285:274,1,77.0000023498536,0|0,1:0|0:0,0:0:0:0:
219,117,107096,6,0,P|284:172|361:172,1,154.000004699707,2|0,0:0|1:0,0:0:0:0:
331,17,107537,2,0,P|312:73|309:101,1,77.0000023498536,2|0,0:0|0:0,0:0:0:0:
452,195,107831,2,0,P|442:149|436:115,1,77.0000023498536,2|0,0:0|1:0,0:0:0:0:
351,261,108125,2,0,P|465:307|488:355,1,154.000004699707,2|2,0:0|0:0,0:0:0:0:
383,357,108566,1,0,1:0:0:0:
228,222,108714,2,0,P|275:292|273:377,1,154.000004699707,2|2,0:0|0:0,0:0:0:0:
110,328,109155,2,0,P|154:313|209:314,1,77.0000023498536,0|0,1:0|1:0,0:0:0:0:
159,138,109449,6,0,P|144:213|146:238,1,77.0000023498536,2|0,0:0|0:0,0:0:0:0:
68,147,109743,1,0,1:0:0:0:
245,98,109890,2,0,P|210:67|185:25,1,77.0000023498536,2|0,0:0|0:0,0:0:0:0:
367,66,110184,2,0,P|349:128|344:156,1,77.0000023498536,2|0,0:0|1:0,0:0:0:0:
199,256,110478,2,0,B|289:282|255:218|354:246,1,154.000004699707,2|2,0:0|0:0,0:0:0:0:
318,329,110919,1,0,1:0:0:0:
443,227,111066,2,0,P|410:169|377:156,1,77.0000023498536,2|0,0:0|0:0,0:0:0:0:
429,337,111361,1,6,0:3:0:0:
429,337,111508,2,0,P|479:322|518:312,1,77.0000023498536,0|0,1:0|1:0,0:0:0:0:
319,384,111802,6,0,P|298:300|293:281,1,77.0000023498536,4|2,0:0|0:0,0:0:0:0:
361,225,112096,1,0,1:0:0:0:
221,289,112243,1,4,0:3:0:0:
196,161,112390,6,0,P|243:125|272:117,1,77.0000023498536,4|2,0:2|0:0,0:0:0:0:
276,212,112684,1,0,1:0:0:0:
136,263,112831,6,0,P|75:246|40:238,1,77.0000023498536,4|0,0:2|0:0,0:0:0:0:
62,121,113125,2,0,P|99:111|136:100,1,77.0000023498536,2|0,0:0|1:0,0:0:0:0:
208,193,113419,1,4,0:3:0:0:
299,13,113566,2,0,P|265:65|258:91,1,77.0000023498536,0|4,1:0|0:3,0:0:0:0:
483,133,113861,2,0,P|398:114|356:70,1,115.50000352478,0|0,1:0|0:0,0:0:0:0:
347,83,114155,6,0,P|349:137|352:170,1,77.0000023498536,4|0,0:0|0:0,0:0:0:0:
352,255,114449,1,0,1:0:0:0:
243,108,114596,2,0,P|245:162|248:195,1,77.0000023498536,2|0,0:0|0:0,0:0:0:0:
159,69,114890,2,0,P|203:24|240:7,1,77.0000023498536,4|0,0:3|1:0,0:0:0:0:
165,214,115184,2,0,P|96:157|20:171,1,154.000004699707,2|2,0:0|0:0,0:0:0:0:
80,243,115625,1,0,1:0:0:0:
293,173,115772,2,0,B|250:237|250:237|265:332,1,154.000004699707,2|2,0:0|0:0,0:0:0:0:
157,199,116214,1,0,1:0:0:0:
172,303,116361,1,0,0:0:0:0:
323,255,116508,6,0,L|237:232,1,77.0000023498536,2|0,0:0|0:3,0:0:0:0:
238,60,116802,1,0,1:0:0:0:
248,148,116949,2,0,L|323:129,1,77.0000023498536,0|2,0:0|0:0,0:0:0:0:
471,253,117243,1,2,0:0:0:0:
376,192,117390,1,0,1:0:0:0:
365,368,117537,2,0,L|382:287,1,77.0000023498536,2|0,0:0|0:0,0:0:0:0:
270,165,117831,2,0,B|260:208|260:208|282:260,1,77.0000023498536,2|0,0:0|1:0,0:0:0:0:
231,357,118125,2,0,B|156:363|156:363|84:320,1,154.000004699707,2|0,0:0|0:0,0:0:0:0:
191,197,118566,1,0,1:0:0:0:
171,285,118714,1,0,1:0:0:0:
112,141,118861,6,0,P|153:114|188:105,1,77.0000023498536,2|0,0:0|0:0,0:0:0:0:
38,211,119155,1,0,1:0:0:0:
38,211,119302,2,0,P|17:151|10:116,1,77.0000023498536,2|0,0:0|0:0,0:0:0:0:
121,291,119596,2,0,P|110:328|96:363,1,77.0000023498536,2|0,0:0|1:0,0:0:0:0:
172,191,119890,2,0,P|240:263|317:259,1,154.000004699707,2|2,0:0|0:0,0:0:0:0:
261,180,120331,1,0,1:0:0:0:
401,157,120478,2,0,P|371:213|370:247,1,77.0000023498536,2|0,0:0|0:0,0:0:0:0:
485,146,120772,1,0,1:3:0:0:
485,146,120846,1,0,1:3:0:0:
485,146,120919,1,0,1:0:0:0:
385,64,121066,6,0,P|308:72|244:9,1,154.000004699707,4|4,0:0|0:3,0:0:0:0:
240,216,121508,2,0,P|264:162|280:141,1,70,4|0,1:2|0:0,0:0:0:0:
120,52,121802,1,4,0:3:0:0:
188,145,121949,1,4,0:3:0:0:
120,52,122096,1,4,0:3:0:0:
30,156,122243,6,0,L|50:232,1,70,4|0,3:0|0:0,0:0:0:0:
136,239,122537,2,0,L|156:315,1,70,4|0,3:0|1:0,0:0:0:0:
208,147,122831,2,0,L|228:223,1,70,8|0,3:0|0:0,0:0:0:0:
300,314,123125,1,4,0:3:0:0:
300,314,123199,1,0,0:0:0:0:
300,314,123272,2,0,L|401:302,1,70,4|4,0:3|0:3,0:0:0:0:
382,314,123493,1,4,0:3:0:0:
396,322,123566,6,0,P|434:290|433:187,1,140,4|0,0:0|1:0,0:0:0:0:
354,142,124008,1,0,1:0:0:0:
354,142,124081,1,0,1:0:0:0:
354,142,124155,1,0,1:0:0:0:
439,84,124302,1,4,0:3:0:0:
266,191,124449,1,4,0:3:0:0:
303,8,124596,6,0,B|297:47|297:47|320:95,1,70,4|0,3:0|0:0,0:0:0:0:
211,21,124890,2,0,B|205:60|205:60|228:108,1,70,4|0,3:0|0:0,0:0:0:0:
125,31,125184,2,0,B|119:70|119:70|153:138,1,105,4|0,3:0|0:0,0:0:0:0:
161,148,125478,5,2,0:0:0:0:
77,225,125625,1,2,0:0:0:0:
159,296,125772,1,2,0:0:0:0:
244,226,125919,6,0,L|337:229,1,83.9999974365235,4|0,0:0|0:0,0:0:0:0:
259,69,126214,2,0,P|212:79|180:108,1,83.9999974365235,0|0,1:0|0:0,0:0:0:0:
393,165,126508,1,2,0:0:0:0:
327,228,126655,2,0,L|331:318,1,83.9999974365235,2|0,0:0|1:0,0:0:0:0:
254,148,126949,2,0,B|223:213|223:213|245:325,1,167.999994873047,2|0,0:0|0:0,0:0:0:0:
132,148,127390,1,0,1:0:0:0:
213,217,127537,1,0,0:0:0:0:
58,214,127684,1,2,0:0:0:0:
58,214,127831,2,0,P|42:157|40:130,1,83.9999974365235,2|0,0:0|1:0,0:0:0:0:
141,35,128125,6,0,P|102:24|56:5,1,83.9999974365235,2|0,0:0|0:0,0:0:0:0:
229,115,128419,2,0,P|267:99|308:87,1,83.9999974365235,2|0,0:0|1:0,0:0:0:0:
132,213,128714,1,2,0:0:0:0:
132,213,128861,2,0,P|118:154|114:124,2,83.9999974365235,2|2|0,0:0|0:0|1:0,0:0:0:0:
286,191,129302,2,0,P|254:260|264:362,1,167.999994873047,2|2,0:0|0:0,0:0:0:0:
172,285,129743,1,0,1:0:0:0:
368,208,129890,2,0,P|305:185|251:100,1,167.999994873047,2|2,0:0|0:0,0:0:0:0:
356,108,130331,1,0,1:0:0:0:
167,67,130478,1,2,0:0:0:0:
167,67,130625,6,0,P|204:23|238:12,1,83.9999974365235,2|0,0:0|0:0,0:0:0:0:
189,174,130919,2,0,P|128:157|93:154,2,83.9999974365235,2|0|2,1:2|0:0|0:0,0:0:0:0:
41,297,131361,2,0,P|102:280|137:277,1,83.9999974365235,2|0,1:2|1:0,0:0:0:0:
226,384,131655,2,0,P|226:309|290:243,1,167.999994873047,4|2,0:0|0:0,0:0:0:0:
315,339,132096,1,0,1:0:0:0:
200,267,132243,1,0,1:0:0:0:
400,195,132390,2,0,L|360:280,1,83.9999974365235,2|2,0:0|0:0,0:0:0:0:
286,161,132684,1,0,1:0:0:0:
454,88,132831,6,0,P|394:93|344:68,1,83.9999974365235,2|0,0:0|1:0,0:0:0:0:
203,31,133125,2,0,P|267:78|282:178,1,167.999994873047,2|4,0:0|0:3,0:0:0:0:
105,180,133566,1,2,0:0:0:0:
196,125,133714,1,2,0:0:0:0:
197,237,133861,1,0,1:0:0:0:
89,97,134008,6,0,L|110:209,1,83.9999974365235,4|0,0:0|0:0,0:0:0:0:
130,380,134302,2,0,L|119:339,1,41.9999987182618,0|0,1:0|0:0,0:0:0:0:
18,307,134449,2,0,L|37:269,1,41.9999987182618,0|0,1:0|0:0,0:0:0:0:
212,189,134596,2,0,B|188:258|188:258|220:355,1,167.999994873047,4|0,0:0|1:0,0:0:0:0:
355,369,135037,2,0,L|319:282,1,83.9999974365235,0|2,1:0|0:0,0:0:0:0:
333,284,135258,1,2,0:0:0:0:
344,276,135331,6,0,P|396:250|395:168,1,111.999996582031,0|2,1:0|0:0,0:0:0:0:
413,115,135625,1,4,1:0:0:0:
321,85,135772,1,0,0:0:0:0:
233,133,135919,2,0,P|227:63|235:41,1,83.9999974365235,2|2,0:0|0:0,0:0:0:0:
313,205,136214,1,0,1:0:0:0:
313,205,136361,2,0,P|205:191|157:243,1,167.999994873047,2|2,0:0|0:0,0:0:0:0:
249,280,136802,1,0,1:0:0:0:
125,147,136949,2,0,P|80:210|110:296,1,167.999994873047,2|2,0:0|0:0,0:0:0:0:
249,280,137390,1,0,1:0:0:0:
166,225,137537,1,0,0:0:0:0:
236,363,137684,6,0,L|249:276,1,83.9999974365235,2|0,0:0|0:0,0:0:0:0:
413,350,137978,1,0,1:0:0:0:
324,331,138125,1,0,0:0:0:0:
362,189,138272,2,0,P|389:229|392:267,1,83.9999974365235,2|0,0:0|0:0,0:0:0:0:
262,173,138566,1,0,1:0:0:0:
262,173,138714,2,0,P|312:99|396:95,1,167.999994873047,2|2,0:0|0:0,0:0:0:0:
319,254,139155,1,0,1:0:0:0:
319,254,139302,2,0,P|276:212|170:262,1,167.999994873047,2|2,0:0|0:0,0:0:0:0:
104,373,139743,2,0,P|89:318|84:285,1,83.9999974365235,0|0,1:0|0:0,0:0:0:0:
44,193,140037,6,0,P|26:151|34:94,1,83.9999974365235,2|0,0:0|0:0,0:0:0:0:
36,94,140258,1,2,0:0:0:0:
44,75,140331,2,0,P|86:57|143:65,1,83.9999974365235,0|0,1:0|0:0,0:0:0:0:
146,69,140552,1,2,0:0:0:0:
160,83,140625,2,0,P|202:101|259:93,1,83.9999974365235,2|0,0:0|0:0,0:0:0:0:
259,92,140846,1,2,0:0:0:0:
273,78,140919,2,0,P|315:60|372:68,1,83.9999974365235,0|0,1:0|0:0,0:0:0:0:
426,160,141214,2,0,P|409:237|407:266,1,83.9999974365235,2|4,0:0|0:3,0:0:0:0:
508,229,141508,1,0,1:0:0:0:
269,221,141655,2,0,P|286:298|288:327,1,83.9999974365235,2|0,0:0|0:0,0:0:0:0:
192,162,141949,2,0,P|246:128|277:122,1,83.9999974365235,6|0,0:0|1:0,0:0:0:0:
190,288,142243,1,0,1:0:0:0:
190,288,142316,1,0,1:0:0:0:
190,288,142390,6,0,P|142:237|46:270,1,167.999994873047,4|0,0:0|1:0,0:0:0:0:
114,312,142831,1,4,0:3:0:0:
23,168,142978,1,2,0:0:0:0:
159,205,143125,1,0,0:0:0:0:
96,107,143272,1,2,0:0:0:0:
247,225,143419,2,0,P|236:163|216:135,1,83.9999974365235,2|0,0:0|0:0,0:0:0:0:
183,347,143714,1,4,0:3:0:0:
183,347,143787,1,4,0:3:0:0:
183,347,143861,2,0,P|249:339|296:337,1,83.9999974365235,0|2,1:0|0:0,0:0:0:0:
422,262,144155,2,0,P|380:258|338:252,1,83.9999974365235,4|2,0:3|0:0,0:0:0:0:
156,178,144449,1,0,1:0:0:0:
271,149,144596,1,2,0:0:0:0:
410,35,144743,6,0,P|391:135|390:157,1,105.000004005432,4|0,0:0|1:0,0:0:0:0:
390,137,145331,2,0,P|404:186|405:204,1,52.5000020027161,0|0,1:0|0:0,0:0:0:0:
344,280,145625,1,0,0:0:0:0:
273,206,145772,2,0,P|216:196|157:194,1,105.000004005432,2|0,0:0|0:0,0:0:0:0:
76,106,146214,2,0,P|111:103|148:94,1,52.5000020027161,0|0,1:0|0:0,0:0:0:0:
256,11,146508,2,0,P|230:62|242:131,1,105.000004005432,0|0,1:0|0:0,0:0:0:0:
331,85,146949,1,0,1:0:0:0:
331,85,147096,6,0,L|345:201,1,105.000004005432,2|0,0:0|1:0,0:0:0:0:
466,308,147684,2,0,L|452:192,1,105.000004005432,2|0,0:2|1:0,0:0:0:0:
365,302,148125,1,0,1:0:0:0:
365,302,148272,2,0,L|375:366,1,52.5000020027161,2|0,0:0|0:0,0:0:0:0:
269,250,148566,2,0,L|279:314,1,52.5000020027161,0|0,1:0|0:0,0:0:0:0:
245,170,148861,2,0,P|191:215|187:258,1,105.000004005432,0|0,1:0|1:0,0:0:0:0:
185,246,149449,6,0,P|85:229|72:240,1,105.000004005432,4|0,0:0|1:0,0:0:0:0:
25,151,149890,1,0,0:0:0:0:
25,151,150037,2,0,L|14:93,2,52.5000020027161,0|0|0,1:0|0:0|0:0,0:0:0:0:
114,8,150478,2,0,B|92:64|92:64|106:114,1,105.000004005432,2|0,0:0|0:0,0:0:0:0:
243,79,150919,2,0,L|180:67,1,52.5000020027161,0|0,1:0|0:0,0:0:0:0:
92,191,151214,2,0,L|203:164,1,105.000004005432,0|0,1:0|1:0,0:0:0:0:
160,260,151655,1,0,1:0:0:0:
291,167,151802,6,0,P|262:216|267:281,1,105.000004005432,2|0,0:0|1:0,0:0:0:0:
375,335,152243,2,0,P|373:283|346:240,1,105.000004005432,2|0,0:0|0:0,0:0:0:0:
450,200,152684,2,0,L|449:269,1,52.5000020027161,0|2,1:0|0:0,0:0:0:0:
364,147,152978,1,0,0:0:0:0:
452,106,153125,1,0,0:0:0:0:
276,181,153272,1,0,1:0:0:0:
342,78,153419,1,0,1:0:0:0:
211,50,153566,2,0,L|235:115,2,52.5000020027161,4|4|0,0:3|0:3|1:0,0:0:0:0:
25,126,154155,6,0,P|75:134|119:107,1,105.000004005432,4|0,0:0|1:0,0:0:0:0:
118,107,154743,2,0,P|115:153|118:177,1,52.5000020027161,0|0,1:0|0:0,0:0:0:0:
215,244,155037,1,0,0:0:0:0:
215,244,155184,2,0,P|202:176|195:128,1,105.000004005432,2|0,0:0|0:0,0:0:0:0:
308,74,155625,2,0,P|298:113|294:139,1,52.5000020027161,0|0,1:0|0:0,0:0:0:0:
337,220,155919,2,0,P|414:209|461:208,1,105.000004005432,0|0,1:0|1:0,0:0:0:0:
329,330,156361,1,0,1:0:0:0:
329,330,156508,6,0,P|276:326|224:317,1,105.000004005432,2|0,0:0|1:0,0:0:0:0:
69,226,157096,2,0,P|120:217|173:213,1,105.000004005432,2|0,0:0|1:0,0:0:0:0:
267,207,157537,1,0,1:0:0:0:
267,207,157684,2,0,P|261:163|255:80,1,105.000004005432,2|0,0:0|1:0,0:0:0:0:
360,33,158125,1,0,1:0:0:0:
360,33,158272,2,0,P|354:77|351:102,1,52.5000020027161,0|4,1:0|0:3,0:0:0:0:
441,138,158566,2,0,P|447:182|450:207,1,52.5000020027161,0|4,1:0|0:3,0:0:0:0:
359,317,158861,6,0,P|290:263|212:274,1,140,4|0,0:0|1:0,0:0:0:0:
158,316,159302,1,0,0:0:0:0:
173,162,159449,2,0,L|166:248,1,70,2|2,0:0|0:0,0:0:0:0:
95,189,159743,1,0,1:0:0:0:
271,60,159890,2,0,B|239:103|239:103|261:199,1,140,2|2,0:0|0:0,0:0:0:0:
346,142,160331,1,0,1:0:0:0:
226,0,160478,2,0,P|279:-14|346:43,1,140,2|2,0:0|0:0,0:0:0:0:
227,123,160919,1,0,1:0:0:0:
154,58,161066,1,2,0:0:0:0:
154,58,161140,1,0,1:0:0:0:
154,58,161214,6,0,P|94:49|72:45,1,70,4|0,1:2|1:0,0:0:0:0:
18,137,161508,1,0,1:0:0:0:
127,241,161655,2,0,P|116:182|112:157,1,70,2|2,1:2|0:0,0:0:0:0:
261,67,161949,2,0,P|255:101|248:135,1,70,2|2,1:2|1:2,0:0:0:0:
208,326,162243,2,0,P|245:265|329:261,1,140,2|2,1:2|1:2,0:0:0:0:
293,335,162831,5,4,0:0:0:0:
181,209,172978,5,4,0:0:0:0:
98,113,173272,1,0,3:0:0:0:
98,113,173861,1,0,3:0:0:0:
98,113,174449,1,0,3:0:0:0:
98,113,175037,1,0,3:0:0:0:
220,143,175331,5,2,0:0:0:0:
284,37,175625,1,0,3:0:0:0:
284,37,176214,1,0,3:0:0:0:
284,37,176802,1,0,3:0:0:0:
284,37,177390,1,0,3:0:0:0:
361,126,177684,5,2,0:0:0:0:
275,218,177978,1,0,3:0:0:0:
275,218,178566,1,0,3:0:0:0:
275,218,179155,1,0,3:0:0:0:
275,218,179743,1,0,0:0:0:0:
391,238,180037,6,0,P|363:274|371:334,2,93.3333333333333,0|0|0,1:0|1:0|1:0,0:0:0:0:
312,168,180625,2,0,P|312:122|284:86,2,93.3333333333333,0|0|0,1:0|1:0|1:0,0:0:0:0:
248,280,181214,2,0,P|190:243|134:257,1,122.5,4|0,0:0|0:0,0:0:0:0:
118,256,181802,6,0,P|92:184|137:129,1,140,4|4,0:0|0:0,0:0:0:0:
211,27,182390,6,0,L|198:114,1,77.0000023498536,4|0,0:0|0:0,0:0:0:0:
303,83,182684,1,0,1:0:0:0:
262,225,182831,2,0,P|199:207|181:177,1,77.0000023498536,2|0,0:0|0:0,0:0:0:0:
371,136,183125,2,0,P|355:200|352:225,1,77.0000023498536,2|0,0:0|1:0,0:0:0:0:
484,355,183419,2,0,P|457:267|454:197,1,154.000004699707,2|2,0:0|0:0,0:0:0:0:
383,321,183861,1,0,1:0:0:0:
275,244,184008,2,0,P|223:232|186:224,1,77.0000023498536,2|0,0:0|0:0,0:0:0:0:
221,329,184302,1,0,0:0:0:0:
150,153,184449,2,0,P|119:202|116:238,1,77.0000023498536,0|0,1:0|0:0,0:0:0:0:
35,366,184743,6,0,P|23:269|17:210,1,154.000004699707,4|0,0:0|1:0,0:0:0:0:
37,62,185184,2,0,P|5:121|6:142,1,77.0000023498536,2|0,0:0|0:0,0:0:0:0:
179,160,185478,2,0,P|143:147|107:136,1,77.0000023498536,2|0,0:0|1:0,0:0:0:0:
146,268,185772,2,0,P|240:255|302:205,1,154.000004699707,2|2,0:0|0:0,0:0:0:0:
258,126,186214,1,0,1:0:0:0:
395,246,186361,2,0,P|369:184|378:94,1,154.000004699707,2|2,0:0|0:0,0:0:0:0:
512,236,186802,1,0,1:0:0:0:
450,152,186949,1,0,0:0:0:0:
319,259,187096,6,0,P|394:246|430:245,1,77.0000023498536,4|0,0:0|0:0,0:0:0:0:
473,367,187390,1,0,1:0:0:0:
473,367,187537,2,0,P|434:362|397:353,1,77.0000023498536,2|0,0:0|0:0,0:0:0:0:
242,247,187831,2,0,P|263:319|267:343,1,77.0000023498536,2|0,0:0|1:0,0:0:0:0:
146,198,188125,2,0,P|207:153|289:146,1,154.000004699707,2|2,0:0|0:0,0:0:0:0:
171,282,188566,1,0,1:0:0:0:
58,232,188714,2,0,P|27:190|14:157,1,77.0000023498536,2|0,0:0|0:0,0:0:0:0:
192,95,189008,1,2,0:0:0:0:
116,44,189155,2,0,P|109:81|108:120,1,77.0000023498536,0|0,1:0|0:0,0:0:0:0:
158,271,189449,6,0,P|209:198|225:193,1,77.0000023498536,4|4,0:0|0:3,0:0:0:0:
250,277,189743,1,0,1:0:0:0:
175,122,189890,1,0,1:0:0:0:
345,139,190037,6,0,P|309:119|291:77,1,77.0000023498536,4|2,0:0|0:0,0:0:0:0:
430,46,190331,1,0,1:0:0:0:
450,170,190478,6,0,P|433:232|433:253,1,77.0000023498536,4|0,0:0|0:0,0:0:0:0:
308,276,190772,2,0,P|321:312|325:350,1,77.0000023498536,2|0,0:0|1:0,0:0:0:0:
228,152,191066,1,0,0:0:0:0:
139,257,191214,2,0,P|215:248|247:246,1,77.0000023498536,0|4,1:0|0:3,0:0:0:0:
309,134,191508,2,0,P|270:130|232:124,1,77.0000023498536,0|4,1:3|0:3,0:0:0:0:
62,14,191802,6,0,P|110:83|119:152,1,154.000004699707,4|4,0:0|1:2,0:0:0:0:
134,263,192243,2,0,P|64:243|46:240,1,77.0000023498536,2|0,0:0|0:0,0:0:0:0:
86,337,192537,1,4,0:3:0:0:
185,203,192684,1,0,1:0:0:0:
223,357,192831,2,0,P|272:337|316:330,1,77.0000023498536,2|0,0:2|0:0,0:0:0:0:
441,269,193125,2,0,P|403:259|368:244,1,77.0000023498536,2|0,0:0|1:0,0:0:0:0:
182,120,193419,2,0,P|244:162|263:258,1,154.000004699707,2|0,0:0|0:0,0:0:0:0:
340,43,193861,2,0,P|316:73|306:117,1,77.0000023498536,0|0,1:0|0:0,0:0:0:0:
471,129,194155,6,0,P|433:121|396:114,1,77.0000023498536,4|0,0:0|0:0,0:0:0:0:
338,259,194449,1,0,1:0:0:0:
338,259,194596,2,0,P|375:251|413:243,1,77.0000023498536,2|0,0:0|0:0,0:0:0:0:
213,127,194890,2,0,P|257:210|256:225,1,77.0000023498536,2|0,0:0|1:0,0:0:0:0:
163,363,195184,2,0,P|171:312|181:274,1,77.0000023498536,2|0,0:0|0:0,0:0:0:0:
53,176,195478,2,0,P|61:213|67:251,1,77.0000023498536,2|0,0:0|1:0,0:0:0:0:
254,189,195772,2,0,P|179:175|131:114,1,154.000004699707,2|0,0:0|1:0,0:0:0:0:
264,16,196214,2,0,P|243:48|234:86,1,77.0000023498536,0|0,1:0|1:0,0:0:0:0:
411,114,196508,6,0,P|374:105|338:92,1,77.0000023498536,4|0,0:0|0:0,0:0:0:0:
252,240,196802,1,0,1:0:0:0:
339,213,196949,2,0,P|404:204|432:205,1,77.0000023498536,2|0,0:0|0:0,0:0:0:0:
397,374,197243,2,0,P|388:319|388:287,1,77.0000023498536,2|0,0:0|1:0,0:0:0:0:
233,160,197537,2,0,P|253:239|258:254,1,77.0000023498536,2|0,0:0|0:0,0:0:0:0:
151,200,197831,1,2,0:0:0:0:
293,111,197978,1,0,1:0:0:0:
177,52,198125,2,0,P|129:36|98:32,1,77.0000023498536,2|0,0:0|1:0,0:0:0:0:
20,193,198419,1,0,1:0:0:0:
118,124,198566,1,0,1:0:0:0:
122,318,198714,6,0,L|104:216,1,77.0000023498536,4|0,0:0|0:0,0:0:0:0:
28,289,199008,1,0,0:0:0:0:
197,193,199155,2,0,P|158:177|130:143,1,70,0|0,1:0|1:0,0:0:0:0:
130,148,199375,1,0,1:0:0:0:
123,136,199449,1,0,1:0:0:0:
277,153,199596,1,0,1:0:0:0:
170,280,199743,1,0,1:0:0:0:
287,360,199890,6,0,P|347:353|371:351,1,70,2|0,0:0|0:0,0:0:0:0:
467,240,200184,2,0,P|407:233|383:231,1,70,2|0,0:0|1:0,0:0:0:0:
270,187,200478,1,2,0:0:0:0:
378,87,200625,2,0,P|369:155|369:182,1,70,2|0,0:0|1:0,0:0:0:0:
268,8,200919,2,0,P|274:42|277:77,1,70,0|0,1:0|1:0,0:0:0:0:
82,78,201214,6,0,P|148:63|182:56,1,90.9999958343508,4|0,0:0|1:0,0:0:0:0:
144,166,201508,1,4,0:3:0:0:
271,173,201655,2,0,P|250:237|246:270,1,90.9999958343508,2|4,1:2|0:3,0:0:0:0:
380,342,201949,2,0,P|371:297|355:254,1,90.9999958343508,2|4,1:2|0:3,0:0:0:0:
491,193,202243,2,0,P|430:184|373:80,1,181.999991668702,0|0,1:0|1:2,0:0:0:0:
463,110,202684,1,4,1:3:0:0:
334,209,202831,1,2,1:2:0:0:
267,89,202978,2,0,P|223:91|174:57,1,90.9999958343508,4|0,0:3|1:0,0:0:0:0:
58,201,203272,2,0,P|143:191|179:186,1,90.9999958343508,4|0,0:3|1:0,0:0:0:0:
80,107,203566,5,4,0:3:0:0:
114,285,203714,1,0,1:0:0:0:
263,171,203861,1,4,0:3:0:0:
263,171,204008,2,0,P|245:253|244:274,1,90.9999958343508,0|4,1:0|0:3,0:0:0:0:
382,349,204302,2,0,P|376:303|363:260,1,90.9999958343508,2|4,1:2|0:3,0:0:0:0:
185,143,204596,2,0,P|287:138|330:69,1,181.999991668702,0|0,1:0|1:0,0:0:0:0:
241,64,205037,1,4,0:3:0:0:
371,174,205184,1,0,1:0:0:0:
233,278,205331,2,0,L|256:179,1,90.9999958343508,4|0,0:3|1:0,0:0:0:0:
91,94,205625,2,0,L|111:182,1,90.9999958343508,4|4,0:3|0:3,0:0:0:0:
332,185,205919,6,0,P|292:121|193:138,1,181.999991668702,4|4,0:3|0:3,0:0:0:0:
233,278,206361,1,0,1:0:0:0:
351,257,206508,1,4,0:3:0:0:
169,335,206655,2,0,P|150:282|158:242,1,90.9999958343508,0|4,1:0|0:3,0:0:0:0:
270,112,206949,2,0,P|256:198|255:219,1,90.9999958343508,2|4,1:2|0:3,0:0:0:0:
134,17,207243,2,0,P|148:103|149:124,1,90.9999958343508,0|4,1:2|0:3,0:0:0:0:
359,135,207537,2,0,P|279:110|241:25,1,181.999991668702,2|2,1:2|1:2,0:0:0:0:
483,121,207978,1,4,0:3:0:0:
483,121,208052,1,0,1:0:0:0:
483,121,208125,6,0,P|446:154|460:258,1,154.000004699707,4|2,1:2|0:0,0:0:0:0:
494,326,208566,1,4,1:3:0:0:
418,380,208714,1,4,0:3:0:0:
355,310,208861,2,0,B|316:319|316:319|270:308,1,77.0000023498536,0|4,1:3|0:3,0:0:0:0:
271,107,209155,1,0,1:0:0:0:
271,107,209302,2,0,P|322:181|312:247,1,154.000004699707,0|0,1:0|1:0,0:0:0:0:
94,204,209743,1,0,1:0:0:0:
94,204,209890,2,0,B|165:226|165:226|254:184,1,154.000004699707,4|4,0:3|0:3,0:0:0:0:
136,89,210331,1,0,1:0:0:0:
172,298,210478,1,0,1:0:0:0:
320,110,210625,6,0,L|310:174,1,45.4999979171754,4|0,0:0|0:0,0:0:0:0:
349,117,211655,6,0,L|339:181,1,45.4999979171754,4|0,0:0|0:0,0:0:0:0:
370,120,212978,6,0,L|360:184,1,45.4999979171754,4|0,0:0|0:0,0:0:0:0:
