osu file format v14

[General]
AudioFilename: audio.mp3
AudioLeadIn: 0
PreviewTime: 163199
Countdown: 0
SampleSet: Soft
StackLeniency: 0.7
Mode: 0
LetterboxInBreaks: 0
WidescreenStoryboard: 1

[Editor]
DistanceSpacing: 2.5
BeatDivisor: 4
GridSize: 8
TimelineZoom: 1

[Metadata]
Title:The Noise of Rain
TitleUnicode:雨音ノイズ
Artist:Kino Hiko
ArtistUnicode:木のひこ
Creator:Battle
Version:Extra
Source:
Tags:regraz 40mp utaite amaoto noise 40meterP english cover
BeatmapID:1363850
BeatmapSetID:613928

[Difficulty]
HPDrainRate:6
CircleSize:4
OverallDifficulty:8.5
ApproachRate:9
SliderMultiplier:1.5
SliderTickRate:1

[Events]
//Background and Video events
Video,-185,"mv.avi"
0,0,"bg.jpg",0,0
//Break Periods
2,83619,84584
2,163566,172378
//Storyboard Layer 0 (Background)
//Storyboard Layer 1 (Fail)
//Storyboard Layer 2 (Pass)
//Storyboard Layer 3 (Foreground)
//Storyboard Sound Samples

[TimingPoints]
1214,294.117647058824,4,2,1,50,1,0
1214,-133.333333333333,4,2,1,50,0,0
9302,-133.333333333333,4,2,1,60,0,0
10331,-133.333333333333,4,2,1,70,0,0
10625,-100,4,2,1,80,0,0
19302,-200,4,2,1,80,0,0
20037,-100,4,2,1,75,0,0
38861,-100,4,2,1,75,0,0
56655,-133.333333333333,4,2,1,80,0,0
56949,-333.333333333333,4,2,1,90,0,0
57390,-100,4,2,1,80,0,0
57611,-100,4,2,1,5,0,0
57684,-76.9230769230769,4,2,1,90,0,1
75478,-111.111111111111,4,2,1,80,0,0
75772,-250,4,2,1,80,0,0
76508,-100,4,2,1,80,0,0
85184,-100,4,2,1,60,0,0
85919,-100,4,2,1,70,0,0
94008,-100,4,2,1,80,0,0
103714,-133.333333333333,4,2,1,80,0,0
104008,-333.333333333333,4,2,1,80,0,0
104449,-100,4,2,1,80,0,0
104669,-100,4,2,1,5,0,0
104743,-76.9230769230769,4,2,1,90,0,1
121214,-100,4,2,1,60,0,0
125478,-83.3333333333333,4,2,1,70,0,0
125919,-83.3333333333333,4,2,1,80,0,0
144743,-133.333333333333,4,2,1,70,0,0
158861,-100,4,2,1,80,0,0
172978,-100,4,2,1,70,0,0
180037,-66.6666666666667,4,2,1,80,0,0
181214,-200,4,2,1,80,0,0
181728,-200,4,2,1,5,0,0
181802,-66.6666666666667,4,2,1,80,0,0
182022,-66.6666666666667,4,2,1,5,0,0
182096,-100,4,2,1,80,0,0
182316,-100,4,2,1,5,0,0
182390,-76.9230769230769,4,2,1,90,0,1
198861,-100,4,2,1,80,0,0
201214,-76.9230769230769,4,2,1,90,0,1
208125,-76.9230769230769,4,2,1,80,0,0
210625,-76.9230769230769,4,2,1,80,0,1
210699,-76.9230769230769,4,2,1,80,0,0
211655,-76.9230769230769,4,2,1,80,0,1
211728,-76.9230769230769,4,2,1,80,0,0
212978,-76.9230769230769,4,2,1,80,0,1
213052,-76.9230769230769,4,2,1,80,0,0

[Colours]
Combo1 : 131,90,114
Combo2 : 77,88,136
Combo3 : 171,113,78
Combo4 : 226,202,150
Combo5 : 97,118,133

[HitObjects]
108,56,1214,6,0,B|76:113|76:113|89:177,1,112.500004291535,2|0,0:0|3:0,0:0:0:0:
178,124,1655,1,0,0:0:0:0:
133,254,1802,2,0,L|154:195,1,56.2500021457673,2|2,0:0|0:0,0:0:0:0:
207,298,2096,1,0,3:0:0:0:
76,349,2243,6,0,L|141:340,1,56.2500021457673,2|0,0:0|0:0,0:0:0:0:
281,235,2537,2,0,L|214:224,1,56.2500021457673,2|0,0:0|3:0,0:0:0:0:
18,255,2831,2,0,B|56:275|56:275|137:266,1,112.500004291535,2|2,0:0|0:0,0:0:0:0:
85,131,3272,2,0,L|70:195,1,56.2500021457673,0|0,3:0|0:0,0:0:0:0:
189,62,3566,6,0,L|156:193,1,112.500004291535,2|0,0:0|3:0,0:0:0:0:
253,126,4008,1,0,0:0:0:0:
203,268,4155,2,0,P|157:254|139:239,1,56.2500021457673,2|2,0:0|0:0,0:0:0:0:
288,217,4449,1,0,3:0:0:0:
288,217,4596,6,0,L|270:333,1,112.500004291535,2|2,0:0|0:0,0:0:0:0:
353,286,5037,1,0,3:0:0:0:
299,140,5184,2,0,P|220:181|213:213,1,112.500004291535,2|2,0:0|0:0,0:0:0:0:
422,215,5625,2,0,L|374:176,1,56.2500021457673,0|0,3:0|0:0,0:0:0:0:
469,26,5919,6,0,B|442:80|442:80|455:154,1,112.500004291535,2|0,0:0|3:0,0:0:0:0:
385,22,6361,1,0,0:0:0:0:
356,139,6508,1,2,0:0:0:0:
254,45,6655,2,0,L|328:69,1,56.2500021457673,2|0,0:0|3:0,0:0:0:0:
232,183,6949,6,0,L|257:127,1,56.2500021457673,2|0,0:0|0:0,0:0:0:0:
120,91,7243,2,0,L|188:129,1,56.2500021457673,2|0,0:0|3:0,0:0:0:0:
196,252,7537,2,0,L|76:182,1,112.500004291535,2|2,0:0|0:0,0:0:0:0:
45,320,7978,2,0,L|106:298,1,56.2500021457673,0|0,3:0|0:0,0:0:0:0:
296,233,8272,6,0,P|244:222|186:268,1,112.500004291535,2|0,0:0|3:0,0:0:0:0:
257,308,8714,1,0,0:0:0:0:
394,201,8861,2,0,L|365:264,1,56.2500021457673,2|2,0:0|0:0,0:0:0:0:
310,136,9155,1,0,3:0:0:0:
482,263,9302,6,0,L|351:250,1,112.500004291535,2|0,0:0|0:0,0:0:0:0:
430,133,9743,1,0,1:0:0:0:
332,321,9890,2,0,P|293:271|300:215,1,112.500004291535,4|0,0:3|0:0,0:0:0:0:
416,326,10331,2,0,L|390:392,1,56.2500021457673,4|0,0:0|0:0,0:0:0:0:
312,112,10625,6,0,L|364:255,1,150,4|0,0:1|1:0,0:0:0:0:
426,167,11066,1,0,0:0:0:0:
233,111,11214,2,0,P|262:56|284:47,2,75,2|2|0,0:0|0:0|1:0,0:0:0:0:
266,269,11655,6,0,L|303:193,1,75,2|0,0:0|0:0,0:0:0:0:
132,149,11949,1,2,0:0:0:0:
218,198,12096,1,0,1:0:0:0:
176,375,12243,2,0,B|130:312|130:312|140:218,1,150,2|0,0:0|0:0,0:0:0:0:
0,170,12684,2,0,L|47:238,1,75,0|0,1:0|0:0,0:0:0:0:
260,201,12978,6,0,B|167:212|218:154|102:161,1,150,2|0,0:0|1:0,0:0:0:0:
246,116,13419,1,0,0:0:0:0:
247,292,13566,2,0,L|150:266,1,75,2|2,0:0|0:0,0:0:0:0:
327,313,13861,1,0,1:0:0:0:
341,162,14008,6,0,B|316:194|316:194|317:242,1,75,2|0,0:0|0:0,0:0:0:0:
302,72,14302,1,2,0:0:0:0:
248,143,14449,1,0,1:0:0:0:
485,142,14596,2,0,L|398:121,1,75,2|0,0:0|0:0,0:0:0:0:
406,324,14890,1,2,0:0:0:0:
406,324,15037,2,0,L|434:187,1,112.5,0|0,1:0|0:0,0:0:0:0:
240,182,15331,6,0,P|296:182|339:272,1,150,2|0,0:0|1:0,0:0:0:0:
254,270,15772,1,0,0:0:0:0:
467,130,15919,2,0,L|396:179,1,75,2|2,0:0|0:0,0:0:0:0:
380,79,16214,1,0,1:0:0:0:
394,278,16361,6,0,L|436:340,1,75,2|0,0:0|0:0,0:0:0:0:
345,211,16655,2,0,P|312:273|318:305,1,75,2|0,0:0|1:0,0:0:0:0:
404,146,16949,2,0,P|354:124|319:125,1,75,2|0,0:0|0:0,0:0:0:0:
509,259,17243,1,2,0:0:0:0:
419,228,17390,2,0,L|424:315,1,75,0|0,1:0|0:0,0:0:0:0:
295,185,17684,6,0,B|382:200|351:138|453:153,1,150,2|0,0:0|1:0,0:0:0:0:
317,105,18125,1,0,0:0:0:0:
247,249,18272,1,2,0:0:0:0:
214,159,18419,1,2,0:0:0:0:
282,337,18566,1,0,1:0:0:0:
175,247,18714,6,0,B|212:259|212:259|278:239,1,75,2|0,0:0|0:0,0:0:0:0:
96,214,19008,2,0,B|133:202|133:202|199:222,1,75,2|0,0:0|0:0,0:0:0:0:
0,247,19302,6,0,B|47:259|47:259|113:239,1,112.5,2|0,0:0|0:0,0:0:0:0:
193,247,20037,6,0,P|164:195|123:269,1,150,4|0,1:1|1:0,0:0:0:0:
154,320,20478,1,0,1:0:0:0:
234,131,20625,2,0,L|198:213,1,75,2|0,0:0|0:0,0:0:0:0:
293,200,20919,1,0,1:0:0:0:
87,54,21066,6,0,P|88:88|125:122,1,75,2|0,0:0|0:0,0:0:0:0:
278,89,21361,1,2,0:0:0:0:
190,35,21508,1,0,1:0:0:0:
160,195,21655,2,0,B|257:212|212:163|321:179,1,150,2|2,0:0|0:0,0:0:0:0:
430,72,22096,2,0,P|389:82|356:117,1,75,0|0,1:0|0:0,0:0:0:0:
434,295,22390,6,0,B|439:239|439:239|421:207|421:207|428:149,1,150,2|0,0:0|1:0,0:0:0:0:
504,189,22831,1,2,0:0:0:0:
359,257,22978,2,0,L|324:188,1,75,2|2,0:0|0:0,0:0:0:0:
374,119,23272,1,0,1:0:0:0:
249,216,23419,6,0,P|249:160|279:125,1,75,2|0,0:0|0:0,0:0:0:0:
223,299,23714,2,0,P|180:272|164:242,1,75,2|0,0:0|1:0,0:0:0:0:
307,328,24008,2,0,P|273:365|166:372,1,150,2|0,0:0|1:0,0:0:0:0:
90,339,24449,1,0,1:0:0:0:
178,376,24596,1,4,3:0:0:0:
179,222,24743,6,0,L|155:323,1,75,0|0,1:0|0:0,0:0:0:0:
71,113,25037,1,0,1:0:0:0:
91,212,25184,1,0,1:0:0:0:
19,61,25331,2,0,P|-1:119|9:153,1,75,2|0,0:0|0:0,0:0:0:0:
143,149,25625,1,0,1:0:0:0:
0,249,25772,6,0,L|90:223,1,75,2|0,0:0|0:0,0:0:0:0:
91,370,26066,2,0,L|139:289,1,75,2|0,0:0|1:0,0:0:0:0:
251,381,26361,2,0,L|196:204,1,150,2|2,0:0|0:0,0:0:0:0:
201,129,26802,2,0,P|233:133|278:158,1,75,0|0,1:0|0:0,0:0:0:0:
133,255,27096,6,0,L|213:235,1,75,2|0,0:0|0:0,0:0:0:0:
196,325,27390,1,0,1:0:0:0:
309,235,27537,2,0,L|293:330,1,75,0|2,1:0|0:0,0:0:0:0:
328,132,27831,1,2,0:0:0:0:
239,177,27978,1,0,1:0:0:0:
439,272,28125,6,0,L|334:138,1,150,2|2,0:0|0:0,0:0:0:0:
441,119,28566,1,0,1:0:0:0:
288,252,28714,2,0,L|383:233,1,75,0|0,1:0|0:0,0:0:0:0:
192,140,29008,1,0,1:0:0:0:
288,174,29155,1,0,1:0:0:0:
208,234,29302,1,4,3:0:0:0:
285,17,29449,6,0,B|323:81|323:81|298:162,1,150,0|0,1:0|1:0,0:0:0:0:
228,93,29890,1,0,1:0:0:0:
375,26,30037,2,0,P|398:83|390:111,1,75,2|2,0:0|0:0,0:0:0:0:
300,153,30331,1,0,1:0:0:0:
490,204,30478,6,0,L|407:184,1,75,2|0,0:0|0:0,0:0:0:0:
288,293,30772,1,2,0:0:0:0:
405,270,30919,1,0,1:0:0:0:
209,243,31066,2,0,L|282:214,1,75,2|0,0:0|0:0,0:0:0:0:
208,151,31361,1,2,0:0:0:0:
361,56,31508,2,0,L|344:156,1,75,0|0,1:0|0:0,0:0:0:0:
202,23,31802,6,0,P|262:9|299:23,2,75,2|2|0,0:0|0:0|1:0,0:0:0:0:
136,161,32243,2,0,L|108:63,1,75,2|0,0:0|0:0,0:0:0:0:
74,212,32537,1,2,0:0:0:0:
211,134,32684,1,0,1:0:0:0:
180,292,32831,6,0,L|200:209,1,75,2|0,0:0|0:0,0:0:0:0:
331,324,33125,2,0,P|290:285|256:277,1,75,2|0,0:0|1:0,0:0:0:0:
182,384,33419,1,0,1:0:0:0:
257,351,33566,1,2,0:0:0:0:
163,218,33714,2,0,L|183:308,1,75,2|0,0:0|1:0,0:0:0:0:
235,155,34008,1,2,0:0:0:0:
235,155,34081,1,2,0:0:0:0:
235,155,34155,6,0,P|288:141|317:151,1,75,2|0,0:0|0:0,0:0:0:0:
394,300,34449,1,0,1:0:0:0:
332,225,34596,1,0,0:0:0:0:
466,173,34743,2,0,L|404:231,1,75,2|2,0:0|0:0,0:0:0:0:
360,137,35037,1,0,1:0:0:0:
332,225,35184,1,2,0:0:0:0:
240,33,35331,6,0,P|252:103|270:123,1,75,2|0,0:0|0:0,0:0:0:0:
387,75,35625,1,0,1:0:0:0:
326,151,35772,1,0,0:0:0:0:
385,295,35919,2,0,L|315:243,1,75,2|0,0:0|0:0,0:0:0:0:
204,372,36214,1,0,1:0:0:0:
298,330,36361,1,2,0:0:0:0:
298,330,36434,1,2,0:0:0:0:
298,330,36508,5,2,0:0:0:0:
172,286,36655,1,0,0:0:0:0:
306,139,36802,2,0,L|253:223,1,75,0|0,1:0|1:0,0:0:0:0:
239,40,37096,1,0,1:0:0:0:
384,203,37243,1,0,1:0:0:0:
353,75,37390,1,0,1:0:0:0:
245,272,37537,6,0,P|291:273|328:240,1,75,4|0,0:0|0:0,0:0:0:0:
163,239,37831,1,2,0:0:0:0:
233,346,37978,1,0,1:0:0:0:
99,184,38125,2,0,P|81:235|91:283,1,75,4|0,0:0|0:0,0:0:0:0:
210,248,38419,1,2,0:0:0:0:
59,116,38566,1,2,3:0:0:0:
243,172,38714,1,2,3:0:0:0:
16,50,38861,6,0,L|148:25,1,112.5,4|0,0:0|0:0,0:0:0:0:
216,133,39155,2,0,P|164:122|136:90,1,75,0|0,1:0|1:0,0:0:0:0:
248,53,39449,1,2,0:0:0:0:
291,195,39596,2,0,L|219:232,1,75,2|0,0:0|1:0,0:0:0:0:
334,352,39890,6,0,L|294:267,1,75,2|0,0:0|0:0,0:0:0:0:
452,244,40184,2,0,L|384:294,1,75,2|0,0:0|1:0,0:0:0:0:
333,138,40478,2,0,L|386:221,1,75,2|0,0:0|0:0,0:0:0:0:
449,149,40772,1,2,0:0:0:0:
289,81,40919,2,0,P|261:143|272:172,1,75,0|0,1:0|0:0,0:0:0:0:
267,305,41214,6,0,L|294:204,2,75,2|2|0,0:0|0:0|1:0,0:0:0:0:
146,156,41655,2,0,P|141:207|152:236,1,75,2|0,0:0|0:0,0:0:0:0:
225,192,41949,1,2,0:0:0:0:
160,73,42096,1,0,1:0:0:0:
305,58,42243,6,0,L|259:140,1,75,2|0,0:0|0:0,0:0:0:0:
448,187,42537,2,0,L|391:129,1,75,2|0,0:0|1:0,0:0:0:0:
249,224,42831,2,0,L|349:221,1,75,2|0,0:0|0:0,0:0:0:0:
268,123,43125,1,0,1:0:0:0:
323,221,43272,1,0,1:0:0:0:
395,133,43419,1,4,3:0:0:0:
283,304,43566,6,0,L|316:378,1,75,2|0,0:0|0:0,0:0:0:0:
199,193,43861,1,0,1:0:0:0:
186,292,44008,1,0,1:0:0:0:
346,251,44155,2,0,P|302:225|263:221,2,75,2|2|0,0:0|0:0|1:0,0:0:0:0:
453,201,44596,6,0,L|408:359,1,150,2|0,0:0|0:0,0:0:0:0:
346,251,45037,1,0,1:0:0:0:
495,132,45184,2,0,B|401:103|430:165|333:137,1,150,2|0,0:0|0:0,0:0:0:0:
236,92,45625,2,0,L|296:31,1,75,0|0,1:0|0:0,0:0:0:0:
274,214,45919,6,0,L|175:218,2,75,2|2|0,0:0|0:0|1:0,0:0:0:0:
127,187,46361,2,0,P|165:146|195:138,1,75,2|0,0:0|0:0,0:0:0:0:
201,304,46655,1,2,0:0:0:0:
199,217,46802,1,0,1:0:0:0:
321,338,46949,6,0,L|237:375,1,75,2|0,0:0|0:0,0:0:0:0:
105,243,47243,1,2,0:0:0:0:
201,304,47390,1,0,1:0:0:0:
42,362,47537,2,0,L|120:327,1,75,2|0,0:0|0:0,0:0:0:0:
14,188,47831,1,0,1:0:0:0:
21,278,47978,1,0,1:0:0:0:
105,243,48125,1,4,0:3:0:0:
44,41,48272,6,0,L|11:202,1,150,6|0,0:0|1:0,0:0:0:0:
112,133,48714,1,0,1:0:0:0:
170,278,48861,2,0,L|100:240,2,75,2|2|0,0:0|0:0|1:0,0:0:0:0:
255,143,49302,6,0,P|198:166|179:200,1,75,2|0,0:0|0:0,0:0:0:0:
281,305,49596,2,0,L|259:234,1,75,2|0,0:0|1:0,0:0:0:0:
388,109,49890,2,0,L|341:280,1,150,2|2,0:0|0:0,0:0:0:0:
274,63,50331,2,0,L|293:150,1,75,0|0,1:0|0:0,0:0:0:0:
503,125,50625,6,0,P|458:79|382:120,1,150,2|0,0:0|1:0,0:0:0:0:
411,295,51066,2,0,L|449:218,1,75,2|0,0:0|0:0,0:0:0:0:
297,133,51361,2,0,P|335:187|363:197,1,75,2|0,0:0|1:0,0:0:0:0:
352,376,51655,6,0,P|323:310|250:274,1,150,2|0,0:0|0:0,0:0:0:0:
143,180,52096,2,0,L|233:152,1,75,0|0,1:0|0:0,0:0:0:0:
195,350,52390,1,2,0:0:0:0:
154,258,52537,1,2,0:0:0:0:
256,274,52684,1,0,1:0:0:0:
87,328,52831,1,2,0:0:0:0:
87,328,52978,6,0,P|65:296|62:230,1,75,2|0,0:0|0:0,0:0:0:0:
174,185,53272,2,0,L|146:291,1,75,0|0,1:0|0:0,0:0:0:0:
52,82,53566,1,2,0:0:0:0:
76,184,53714,1,2,0:0:0:0:
52,82,53861,1,0,1:0:0:0:
206,115,54008,1,2,0:0:0:0:
206,115,54155,6,0,B|261:117|261:117|301:102|301:102|379:108,1,150,2|0,0:0|1:0,0:0:0:0:
410,37,54596,1,0,0:0:0:0:
300,24,54743,1,2,0:0:0:0:
385,173,54890,2,0,L|345:88,1,75,2|0,0:0|1:0,0:0:0:0:
268,309,55184,6,0,P|253:226|317:194,1,150,4|0,0:0|0:0,0:0:0:0:
382,362,55625,1,0,1:0:0:0:
346,275,55772,1,0,1:0:0:0:
188,351,55919,1,4,0:3:0:0:
268,309,56066,1,4,0:3:0:0:
108,237,56214,1,0,1:0:0:0:
238,75,56361,6,0,P|253:117|238:164,1,75,4|0,0:0|0:0,0:0:0:0:
327,76,56655,2,0,P|333:118|329:143,1,56.2500021457673,4|0,0:0|0:0,0:0:0:0:
412,76,56949,2,0,P|415:104|415:124,1,44.999998626709,4|0,0:0|0:0,0:0:0:0:
305,245,57390,6,0,P|368:203|429:218,1,112.5,2|0,0:0|0:0,0:0:0:0:
438,358,57684,6,0,L|377:282,1,97.4999955368044,4|0,0:1|0:0,0:0:0:0:
277,326,57978,1,0,1:0:0:0:
274,161,58125,2,0,P|308:204|282:271,2,97.4999955368044,2|0|2,0:0|0:0|0:0,0:0:0:0:
370,113,58566,1,0,1:0:0:0:
187,173,58714,6,0,P|203:108|249:77,1,97.4999955368044,2|0,0:0|0:0,0:0:0:0:
288,296,59008,1,2,0:0:0:0:
274,161,59155,1,0,1:0:0:0:
90,263,59302,2,0,B|221:246,1,97.4999955368044,2|0,0:0|0:0,0:0:0:0:
152,347,59596,1,4,0:3:0:0:
364,149,59743,2,0,P|296:146|266:168,1,97.4999955368044,0|0,1:0|0:0,0:0:0:0:
351,355,60037,6,0,L|328:234,1,97.4999955368044,2|0,0:0|0:0,0:0:0:0:
306,110,60331,1,0,1:0:0:0:
481,195,60478,2,0,P|439:257|404:266,1,97.4999955368044,2|0,0:0|0:0,0:0:0:0:
403,185,60772,1,2,0:0:0:0:
434,348,60919,1,0,1:0:0:0:
222,345,61066,6,0,L|350:305,1,97.4999955368044,2|0,0:0|0:0,0:0:0:0:
314,129,61361,1,2,0:0:0:0:
231,238,61508,1,0,1:0:0:0:
423,192,61655,2,0,P|388:279|415:391,1,194.999991073609,2|4,0:0|0:3,0:0:0:0:
475,271,62096,1,0,1:0:0:0:
368,223,62243,1,4,0:3:0:0:
287,308,62390,6,0,P|268:235|264:195,1,97.4999955368044,2|0,0:0|0:0,0:0:0:0:
181,260,62684,1,0,1:0:0:0:
371,87,62831,2,0,P|363:135|349:181,1,97.4999955368044,2|0,0:0|0:0,0:0:0:0:
306,19,63125,1,2,0:0:0:0:
456,106,63272,1,0,1:0:0:0:
266,137,63419,6,0,B|168:96|173:193|68:146,1,194.999991073609,2|0,0:0|0:0,0:0:0:0:
121,77,63861,1,0,1:0:0:0:
223,216,64008,2,0,L|211:318,1,97.4999955368044,2|0,0:0|0:0,0:0:0:0:
115,258,64302,1,2,0:0:0:0:
312,184,64449,2,0,P|262:135|227:129,1,97.4999955368044,0|0,1:0|0:0,0:0:0:0:
319,293,64743,5,4,0:0:0:0:
405,209,64890,1,4,0:3:0:0:
121,210,65037,2,0,L|216:230,1,97.4999955368044,0|0,1:0|1:0,0:0:0:0:
431,294,65331,5,4,0:0:0:0:
299,180,65478,1,2,0:0:0:0:
298,372,65625,1,0,1:0:0:0:
281,94,65772,6,0,P|234:118|210:183,1,97.4999955368044,4|0,0:0|0:0,0:0:0:0:
304,185,66066,1,2,0:0:0:0:
138,93,66214,1,0,1:0:0:0:
219,236,66361,1,0,1:0:0:0:
0,229,66508,2,0,P|37:190|101:182,1,97.4999955368044,8|4,0:3|0:3,0:0:0:0:
122,372,66802,2,0,L|89:281,1,97.4999955368044,0|4,1:0|0:3,0:0:0:0:
243,162,67096,6,0,L|196:314,1,146.249993305207,4|0,0:0|0:0,0:0:0:0:
143,208,67390,1,0,1:0:0:0:
319,151,67537,2,0,P|268:92|225:91,1,97.4999955368044,2|0,0:0|0:0,0:0:0:0:
371,313,67831,1,2,0:0:0:0:
257,218,67978,1,0,1:0:0:0:
450,170,68125,6,0,L|355:234,1,97.4999955368044,2|0,0:0|0:0,0:0:0:0:
257,218,68419,1,2,0:0:0:0:
326,117,68566,1,0,1:0:0:0:
201,283,68714,2,0,P|173:208|185:166,1,97.4999955368044,2|0,0:0|0:0,0:0:0:0:
276,345,69008,1,2,0:0:0:0:
311,137,69155,2,0,L|251:226,1,97.4999955368044,0|0,1:0|0:0,0:0:0:0:
77,112,69449,6,0,P|141:124|234:102,1,146.249993305207,2|0,0:0|0:0,0:0:0:0:
142,44,69743,1,0,1:0:0:0:
94,200,69890,2,0,P|151:205|194:201,1,97.4999955368044,2|0,0:0|0:0,0:0:0:0:
278,255,70184,1,2,0:0:0:0:
311,107,70331,1,0,1:0:0:0:
419,250,70478,6,0,P|351:203|311:192,1,97.4999955368044,2|0,0:0|0:0,0:0:0:0:
246,369,70772,2,0,P|304:340|340:291,1,97.4999955368044,2|0,0:0|1:0,0:0:0:0:
205,177,71066,2,0,P|221:226|240:298,1,97.4999955368044,2|0,0:0|0:0,0:0:0:0:
134,243,71361,1,2,0:0:0:0:
331,52,71508,2,0,P|315:101|296:173,1,97.4999955368044,0|0,1:0|1:0,0:0:0:0:
427,296,71802,6,0,P|413:205|385:111,1,146.249993305207,2|0,0:0|0:0,0:0:0:0:
322,234,72096,1,0,1:0:0:0:
236,78,72243,2,0,P|154:66|118:49,2,97.4999955368044,2|0|2,0:0|0:0|0:0,0:0:0:0:
361,32,72684,1,0,1:0:0:0:
293,253,72831,6,0,P|282:183|281:148,1,97.4999955368044,2|0,0:0|0:0,0:0:0:0:
208,208,73125,1,2,0:0:0:0:
370,296,73272,1,0,1:0:0:0:
259,353,73419,2,0,P|190:334|143:329,1,97.4999955368044,2|0,0:0|0:0,0:0:0:0:
60,254,73714,1,0,1:0:0:0:
60,254,73787,1,0,1:0:0:0:
60,254,73861,1,0,1:0:0:0:
124,58,74008,6,0,B|105:159|196:140|174:248,1,194.999991073609,6|2,0:0|0:0,0:0:0:0:
300,95,74449,2,0,P|240:78|196:93,1,97.4999955368044,4|0,1:2|0:0,0:0:0:0:
325,220,74743,1,4,0:3:0:0:
379,101,74890,1,4,0:3:0:0:
280,323,75037,1,0,1:0:0:0:
165,157,75184,6,0,L|262:193,1,97.4999955368044,4|0,0:0|0:0,0:0:0:0:
79,297,75478,2,0,L|150:270,1,67.4999979400635,4|0,0:0|0:0,0:0:0:0:
82,199,75772,1,4,0:0:0:0:
254,323,75919,2,0,L|239:393,1,60,4|4,0:0|0:3,0:0:0:0:
382,338,76508,6,0,P|317:298|247:330,1,150,4|0,0:0|1:0,0:0:0:0:
190,253,76949,1,0,1:0:0:0:
328,185,77096,2,0,L|252:218,1,75,2|2,0:0|0:0,0:0:0:0:
256,127,77390,1,0,1:0:0:0:
403,156,77537,6,0,P|401:220|386:242,1,75,2|0,0:0|0:0,0:0:0:0:
441,67,77831,1,2,0:0:0:0:
494,141,77978,1,0,1:0:0:0:
259,150,78125,2,0,B|306:172|306:172|403:155,1,150,2|2,0:0|0:0,0:0:0:0:
344,14,78566,2,0,L|309:86,1,75,0|0,1:0|0:0,0:0:0:0:
213,211,78861,6,0,P|182:146|227:79,1,150,2|0,0:0|1:0,0:0:0:0:
283,255,79302,1,2,0:0:0:0:
72,270,79449,2,0,L|147:251,1,75,2|0,0:0|0:0,0:0:0:0:
130,340,79743,1,0,1:0:0:0:
140,137,79890,6,0,P|83:187|78:216,1,75,2|0,0:0|0:0,0:0:0:0:
251,232,80184,2,0,L|209:146,1,75,2|0,0:0|1:0,0:0:0:0:
357,18,80478,2,0,L|312:163,1,150,2|2,0:0|0:0,0:0:0:0:
214,1,80919,1,0,1:0:0:0:
243,107,81066,1,0,0:0:0:0:
46,28,81214,6,0,L|145:40,1,75,2|0,0:0|0:0,0:0:0:0:
5,170,81508,1,0,1:0:0:0:
86,117,81655,1,0,0:0:0:0:
116,288,81802,2,0,L|136:205,1,75,2|2,0:0|0:0,0:0:0:0:
202,341,82096,1,0,1:0:0:0:
234,127,82243,6,0,P|211:125|147:164,1,75,2|0,0:0|0:0,0:0:0:0:
333,248,82537,2,0,P|289:209|281:180,1,75,2|0,0:0|1:0,0:0:0:0:
408,17,82831,2,0,L|367:162,1,150,4|0,1:2|1:0,0:0:0:0:
303,85,83199,1,0,0:0:0:0:
303,85,83272,2,0,L|350:77,1,37.5,0|0,1:0|0:0,0:0:0:0:
441,233,83419,5,4,0:0:0:0:
441,233,85184,5,0,3:0:0:0:
377,163,85331,2,0,L|451:139,1,75,0|0,3:0|0:0,0:0:0:0:
329,233,85625,2,0,P|292:160|309:101,1,112.5,2|0,3:0|0:0,0:0:0:0:
329,233,85919,6,0,L|315:328,1,75,4|0,0:0|0:0,0:0:0:0:
235,256,86214,1,0,1:0:0:0:
235,256,86361,1,0,0:0:0:0:
398,203,86508,2,0,P|356:163|325:158,2,75,2|2|0,0:0|0:0|1:0,0:0:0:0:
244,89,86949,6,0,L|266:195,1,75,2|0,0:0|0:0,0:0:0:0:
373,15,87243,2,0,L|351:121,1,75,2|0,0:0|1:0,0:0:0:0:
211,15,87537,2,0,P|179:45|185:149,1,150,2|0,0:0|0:0,0:0:0:0:
332,176,87978,2,0,L|248:160,1,75,0|0,1:0|0:0,0:0:0:0:
157,289,88272,5,2,0:0:0:0:
257,257,88419,1,0,0:0:0:0:
118,188,88566,2,0,L|151:284,1,75,0|0,1:0|0:0,0:0:0:0:
59,129,88861,2,0,P|37:177|44:220,2,75,2|2|0,0:0|0:0|1:0,0:0:0:0:
260,180,89302,6,0,B|160:207|160:207|118:188,1,150,2|0,0:0|0:0,0:0:0:0:
167,127,89743,1,0,1:0:0:0:
312,244,89890,2,0,L|165:285,1,150,2|2,0:0|0:0,0:0:0:0:
297,366,90331,2,0,L|251:296,1,75,0|0,1:0|0:0,0:0:0:0:
399,219,90625,5,2,0:0:0:0:
361,307,90772,1,0,0:0:0:0:
294,135,90919,2,0,L|309:223,1,75,0|0,1:0|0:0,0:0:0:0:
471,172,91214,2,0,P|414:139|392:139,1,75,2|2,0:0|0:0,0:0:0:0:
404,219,91508,1,0,1:0:0:0:
291,52,91655,6,0,L|196:92,1,75,2|0,0:0|0:0,0:0:0:0:
351,123,91949,1,2,0:0:0:0:
306,208,92096,1,0,1:0:0:0:
362,363,92243,2,0,L|413:188,1,150,2|2,0:0|0:0,0:0:0:0:
228,229,92684,2,0,L|277:300,1,75,0|0,1:0|0:0,0:0:0:0:
164,181,92978,6,0,P|150:234|155:255,1,75,2|0,0:0|0:0,0:0:0:0:
228,229,93272,1,0,1:0:0:0:
155,339,93419,2,0,L|80:299,1,75,2|0,0:0|0:0,0:0:0:0:
63,147,93713,1,0,1:0:0:0:
8,242,93861,1,0,1:0:0:0:
174,163,94008,6,0,B|203:89|124:81|174:-4,1,150,4|0,0:0|1:0,0:0:0:0:
89,158,94449,1,0,1:0:0:0:
342,112,94596,2,0,L|264:92,1,75,2|0,0:0|0:0,0:0:0:0:
256,241,94890,1,0,1:0:0:0:
291,147,95037,1,4,0:3:0:0:
173,221,95184,1,4,0:3:0:0:
412,285,95331,6,0,L|328:265,1,75,4|0,0:0|0:0,0:0:0:0:
211,363,95625,1,0,1:0:0:0:
303,338,95772,1,0,0:0:0:0:
248,204,95919,2,0,P|225:272|233:297,1,75,2|2,0:0|0:0,0:0:0:0:
335,186,96214,1,0,1:0:0:0:
152,154,96361,6,0,L|299:95,1,150,2|2,0:0|0:0,0:0:0:0:
186,59,96802,1,0,1:0:0:0:
98,204,96949,2,0,P|84:126|96:102,1,75,2|0,0:0|0:0,0:0:0:0:
193,217,97243,1,2,0:0:0:0:
193,217,97390,2,0,L|171:314,1,75,0|0,1:0|0:0,0:0:0:0:
61,353,97684,6,0,B|156:328|115:383|228:358,1,150,2|0,0:0|1:0,0:0:0:0:
284,278,98125,1,0,0:0:0:0:
139,188,98272,2,0,P|104:250|111:278,1,75,2|2,0:0|0:0,0:0:0:0:
230,163,98566,1,0,1:0:0:0:
284,278,98714,6,0,L|442:271,1,150,2|2,0:0|0:0,0:0:0:0:
414,127,99155,2,0,P|369:181|371:218,1,75,0|0,1:0|0:0,0:0:0:0:
512,113,99449,1,2,0:0:0:0:
442,195,99596,1,2,0:0:0:0:
436,35,99743,1,0,1:0:0:0:
307,126,99890,1,2,0:0:0:0:
307,126,100037,6,0,B|254:120|254:120|208:139|208:139|149:134,1,150,2|0,0:0|1:0,0:0:0:0:
73,196,100478,1,0,0:0:0:0:
48,35,100625,2,0,P|79:85|78:114,1,75,2|2,0:0|0:0,0:0:0:0:
0,195,100919,1,0,1:0:0:0:
92,351,101066,1,2,0:0:0:0:
92,351,101214,6,0,L|95:201,1,150,2|0,0:0|1:0,0:0:0:0:
172,268,101655,1,0,0:0:0:0:
197,54,101802,1,2,0:0:0:0:
97,127,101949,1,2,0:0:0:0:
278,79,102096,1,0,1:0:0:0:
247,282,102243,6,0,P|194:212|211:133,1,150,6|0,0:0|0:0,0:0:0:0:
347,240,102684,2,0,L|312:339,1,75,0|0,1:0|1:0,0:0:0:0:
294,126,102978,1,0,1:0:0:0:
427,216,103125,1,4,0:3:0:0:
270,198,103272,1,0,1:0:0:0:
394,94,103419,6,0,L|370:171,1,75,4|0,0:0|0:0,0:0:0:0:
271,19,103714,2,0,L|283:92,1,56.2500021457673,4|0,0:0|0:0,0:0:0:0:
202,149,104008,2,0,L|193:197,1,44.999998626709,4|0,0:0|0:0,0:0:0:0:
68,18,104449,6,0,L|96:130,1,112.5,2|0,0:0|0:0,0:0:0:0:
41,208,104743,6,0,P|3:154|2:119,1,97.4999955368044,4|0,0:0|0:0,0:0:0:0:
128,241,105037,1,0,1:0:0:0:
265,127,105184,2,0,L|155:154,1,97.4999955368044,2|0,0:0|0:0,0:0:0:0:
279,251,105478,1,4,0:3:0:0:
149,310,105625,1,0,1:0:0:0:
364,384,105772,6,0,P|378:338|356:274,1,97.4999955368044,2|0,0:0|0:0,0:0:0:0:
265,127,106066,2,0,P|251:172|285:237,1,97.4999955368044,2|0,0:0|1:0,0:0:0:0:
512,187,106361,2,0,B|455:171|455:171|394:194|394:194|317:169,1,194.999991073609,2|0,0:0|0:0,0:0:0:0:
352,8,106802,2,0,P|387:74|380:110,1,97.4999955368044,0|0,1:0|0:0,0:0:0:0:
160,81,107096,6,0,L|262:47,2,97.4999955368044,2|0|0,0:0|0:0|1:0,0:0:0:0:
98,224,107537,2,0,P|83:153|63:99,1,97.4999955368044,2|0,0:0|0:0,0:0:0:0:
0,254,107831,1,2,0:0:0:0:
195,187,107978,1,0,1:0:0:0:
193,357,108125,6,0,P|117:332|81:331,1,97.4999955368044,2|0,0:0|0:0,0:0:0:0:
358,254,108419,2,0,P|282:279|246:280,1,97.4999955368044,2|0,0:0|1:0,0:0:0:0:
481,357,108714,2,0,B|513:269|400:257|469:156,1,194.999991073609,2|2,0:0|0:0,0:0:0:0:
379,85,109155,1,0,1:0:0:0:
295,162,109302,1,0,1:0:0:0:
130,63,109449,6,0,P|193:21|238:5,1,97.4999955368044,2|0,0:0|0:0,0:0:0:0:
226,111,109743,1,0,1:0:0:0:
97,247,109890,2,0,P|21:211|-6:204,1,97.4999955368044,2|0,0:0|0:0,0:0:0:0:
26,309,110184,1,2,0:0:0:0:
85,150,110331,1,0,1:0:0:0:
192,378,110478,6,0,P|206:287|309:287,1,194.999991073609,2|2,0:0|0:0,0:0:0:0:
391,349,110919,1,0,1:0:0:0:
430,159,111066,2,0,L|414:266,1,97.4999955368044,2|0,0:0|0:0,0:0:0:0:
341,187,111361,1,6,0:3:0:0:
511,118,111508,1,0,1:0:0:0:
430,159,111655,1,0,1:0:0:0:
323,10,111802,5,4,0:0:0:0:
441,80,111949,1,2,0:0:0:0:
226,138,112096,2,0,L|314:98,1,97.4999955368044,0|4,1:0|0:3,0:0:0:0:
472,255,112390,5,4,0:2:0:0:
287,269,112537,1,2,0:0:0:0:
395,138,112684,1,0,1:0:0:0:
160,206,112831,6,0,P|138:111|139:93,1,97.4999955368044,4|0,0:2|0:0,0:0:0:0:
262,223,113125,2,0,P|256:271|239:317,1,97.4999955368044,2|0,0:0|1:0,0:0:0:0:
79,201,113419,1,4,0:3:0:0:
323,152,113566,2,0,P|264:146|221:139,1,97.4999955368044,0|4,1:0|0:3,0:0:0:0:
80,46,113861,2,0,P|128:38|176:33,1,97.4999955368044,0|4,1:0|0:3,0:0:0:0:
249,357,114155,6,0,L|272:255,1,97.4999955368044,4|0,0:0|0:0,0:0:0:0:
229,142,114449,1,0,1:0:0:0:
76,171,114596,2,0,L|122:299,1,97.4999955368044,2|0,0:0|0:0,0:0:0:0:
0,239,114890,1,4,0:3:0:0:
147,117,115037,1,0,1:0:0:0:
32,2,115184,6,0,P|19:64|44:112,1,97.4999955368044,2|0,0:0|0:0,0:0:0:0:
269,142,115478,2,0,L|150:120,1,97.4999955368044,2|0,0:0|1:0,0:0:0:0:
9,259,115772,2,0,L|114:237,1,97.4999955368044,2|0,0:0|0:0,0:0:0:0:
217,346,116066,1,2,0:0:0:0:
227,115,116214,2,0,B|191:176|191:176|202:259,1,146.249993305207,0|0,1:0|0:0,0:0:0:0:
374,220,116508,6,0,L|278:199,1,97.4999955368044,2|0,0:0|0:3,0:0:0:0:
400,40,116802,1,0,1:0:0:0:
471,222,116949,2,0,L|430:133,1,97.4999955368044,0|2,0:0|0:0,0:0:0:0:
304,114,117243,1,2,0:0:0:0:
406,295,117390,1,0,1:0:0:0:
174,217,117537,6,0,P|266:225|329:214,1,146.249993305207,2|0,0:0|0:0,0:0:0:0:
246,147,117831,1,2,0:0:0:0:
235,322,117978,1,0,1:0:0:0:
76,154,118125,2,0,P|94:246|88:356,1,194.999991073609,2|0,0:0|0:0,0:0:0:0:
0,173,118566,1,0,1:0:0:0:
123,84,118714,1,0,1:0:0:0:
263,215,118861,6,0,P|193:192|170:181,1,97.4999955368044,2|0,0:0|0:0,0:0:0:0:
249,97,119155,1,0,1:0:0:0:
353,244,119302,2,0,P|326:325|319:354,1,97.4999955368044,2|0,0:0|0:0,0:0:0:0:
413,329,119596,1,2,0:0:0:0:
244,259,119743,1,0,1:0:0:0:
415,187,119890,6,0,P|483:138|512:134,1,97.4999955368044,2|0,0:0|0:0,0:0:0:0:
286,66,120184,1,2,0:0:0:0:
404,78,120331,1,0,1:0:0:0:
240,203,120478,2,0,P|295:180|336:122,1,97.4999955368044,2|0,0:0|0:0,0:0:0:0:
151,88,120772,2,0,L|209:96,1,48.7499977684022,0|0,1:3|1:3,0:0:0:0:
124,207,120919,2,0,L|66:215,1,48.7499977684022,0|0,1:0|0:0,0:0:0:0:
0,129,121066,6,0,P|67:214|28:305,1,194.999991073609,4|4,0:0|0:3,0:0:0:0:
108,57,121508,2,0,L|85:156,1,75,4|0,1:2|0:0,0:0:0:0:
265,250,121802,1,4,0:3:0:0:
162,179,121949,1,4,0:3:0:0:
174,306,122096,1,4,0:3:0:0:
315,171,122243,6,0,B|278:155|278:155|221:165,1,75,4|0,3:0|0:0,0:0:0:0:
413,178,122537,2,0,B|376:194|376:194|319:184,1,75,4|0,3:0|1:0,0:0:0:0:
511,174,122831,2,0,B|474:158|474:158|417:168,1,75,8|0,3:0|0:0,0:0:0:0:
457,332,123125,5,4,0:3:0:0:
457,332,123199,1,0,0:0:0:0:
457,332,123272,2,0,L|470:261,1,37.5,4|0,0:3|0:0,0:0:0:0:
335,151,123419,2,0,L|348:222,1,37.5,4|4,0:3|0:3,0:0:0:0:
314,355,123566,6,0,P|230:331|192:347,1,112.5,4|0,0:0|0:0,0:0:0:0:
100,312,123861,2,0,L|121:399,1,75,0|0,1:0|1:0,0:0:0:0:
89,233,124081,1,0,1:0:0:0:
89,233,124155,1,0,1:0:0:0:
185,256,124302,1,4,0:3:0:0:
0,212,124449,1,4,0:3:0:0:
152,66,124596,6,0,L|118:154,1,75,4|0,3:0|0:0,0:0:0:0:
293,88,124890,2,0,L|212:121,1,75,4|0,3:0|0:0,0:0:0:0:
377,208,125184,2,0,L|275:179,1,75,4|0,3:0|0:0,0:0:0:0:
121,343,125478,5,2,0:0:0:0:
214,313,125625,1,2,0:0:0:0:
313,286,125772,1,2,0:0:0:0:
144,198,125919,6,0,L|231:341,1,134.999995880127,4|0,0:0|0:0,0:0:0:0:
335,208,126214,2,0,P|290:207|248:240,1,89.9999972534181,0|0,1:0|0:0,0:0:0:0:
182,45,126508,1,2,0:0:0:0:
308,98,126655,2,0,L|275:194,1,89.9999972534181,2|0,0:0|1:0,0:0:0:0:
38,171,126949,6,0,B|149:180|95:124|213:131,1,179.999994506836,2|0,0:0|0:0,0:0:0:0:
214,293,127390,1,0,1:0:0:0:
173,209,127537,1,0,0:0:0:0:
162,362,127684,1,2,0:0:0:0:
331,192,127831,2,0,L|230:230,1,89.9999972534181,2|0,0:0|1:0,0:0:0:0:
370,372,128125,6,0,P|361:319|333:281,1,89.9999972534181,2|0,0:0|0:0,0:0:0:0:
450,135,128419,2,0,P|427:173|421:217,1,89.9999972534181,2|0,0:0|1:0,0:0:0:0:
359,66,128714,1,2,0:0:0:0:
450,135,128861,1,2,0:0:0:0:
284,7,129008,1,2,0:0:0:0:
435,42,129155,1,0,1:0:0:0:
328,131,129302,6,0,L|238:105,1,89.9999972534181,2|0,0:0|0:0,0:0:0:0:
239,292,129596,2,0,L|261:198,1,89.9999972534181,2|0,0:0|1:0,0:0:0:0:
145,62,129890,2,0,P|142:136|158:161,1,89.9999972534181,2|0,0:0|0:0,0:0:0:0:
101,310,130184,2,0,L|182:222,1,89.9999972534181,2|0,0:0|1:0,0:0:0:0:
57,207,130478,1,2,0:0:0:0:
262,239,130625,2,0,P|231:171|188:150,1,89.9999972534181,2|0,0:0|0:0,0:0:0:0:
233,357,130919,5,2,1:2:0:0:
174,227,131066,1,0,0:0:0:0:
312,303,131214,1,2,0:0:0:0:
267,128,131361,5,2,1:2:0:0:
252,251,131508,1,0,1:0:0:0:
393,92,131655,6,0,B|364:164|364:164|389:257,1,134.999995880127,4|0,0:0|0:0,0:0:0:0:
448,171,131949,1,2,0:0:0:0:
335,22,132096,2,0,L|295:114,1,89.9999972534181,0|0,1:0|1:0,1:0:0:0:
148,78,132390,1,2,0:0:0:0:
235,27,132537,1,2,0:0:0:0:
232,207,132684,1,0,1:0:0:0:
63,152,132831,6,0,B|110:164|110:164|177:148,1,89.9999972534181,2|0,0:0|1:0,0:0:0:0:
186,345,133125,2,0,L|160:242,1,89.9999972534181,2|0,0:0|1:0,0:0:0:0:
101,354,133419,1,4,0:3:0:0:
291,186,133566,2,0,L|275:298,1,89.9999972534181,2|2,0:0|0:0,0:0:0:0:
206,161,133861,1,0,1:0:0:0:
459,115,134008,6,0,B|394:130|394:130|298:91,1,134.999995880127,4|0,0:0|0:0,0:0:0:0:
268,16,134302,2,0,L|333:-10,1,44.999998626709,0|0,1:0|0:0,0:0:0:0:
247,177,134449,2,0,L|182:151,1,44.999998626709,0|0,1:0|0:0,0:0:0:0:
53,15,134596,2,0,P|84:70|66:164,1,134.999995880127,4|0,0:0|0:0,0:0:0:0:
0,197,134890,1,0,1:0:0:0:
117,263,135037,1,0,1:0:0:0:
40,384,135184,1,2,0:0:0:0:
40,384,135258,1,2,0:0:0:0:
40,384,135331,6,0,P|41:313|13:250,1,119.999996337891,0|2,1:0|0:0,0:0:0:0:
132,147,135625,2,0,P|114:185|119:270,1,119.999996337891,4|0,1:0|0:0,0:0:0:0:
221,209,135919,1,2,0:0:0:0:
166,353,136066,1,2,0:0:0:0:
115,261,136214,1,0,1:0:0:0:
344,292,136361,6,0,P|268:282|196:272,1,134.999995880127,2|0,0:0|0:0,0:0:0:0:
121,269,136655,1,2,0:0:0:0:
233,193,136802,1,0,1:0:0:0:
1,197,136949,6,0,P|77:187|149:177,1,134.999995880127,2|0,0:0|0:0,0:0:0:0:
48,112,137243,1,2,0:0:0:0:
214,11,137390,2,0,P|198:70|189:115,1,89.9999972534181,0|0,1:0|0:0,0:0:0:0:
317,192,137684,5,2,0:0:0:0:
273,68,137831,1,0,0:0:0:0:
210,254,137978,1,0,1:0:0:0:
247,159,138125,1,0,0:0:0:0:
85,236,138272,2,0,L|163:175,1,89.9999972534181,2|0,0:0|0:0,0:0:0:0:
138,309,138566,1,0,1:0:0:0:
7,33,138714,6,0,L|85:174,1,134.999995880127,2|0,0:0|0:0,0:0:0:0:
115,62,139008,1,2,0:0:0:0:
4,205,139155,1,0,1:0:0:0:
204,155,139302,2,0,P|165:206|188:307,1,134.999995880127,2|0,0:0|0:0,0:0:0:0:
202,359,139596,1,2,0:0:0:0:
345,277,139743,2,0,L|264:239,1,89.9999972534181,0|0,1:0|0:0,0:0:0:0:
320,98,139964,1,2,0:0:0:0:
320,98,140037,6,0,P|304:146|335:207,1,89.9999972534181,2|0,0:0|0:0,0:0:0:0:
441,88,140258,1,2,0:0:0:0:
441,88,140331,2,0,P|411:131|344:141,1,89.9999972534181,0|0,1:0|0:0,0:0:0:0:
294,8,140552,1,2,0:0:0:0:
294,8,140625,2,0,L|412:47,1,89.9999972534181,2|0,0:0|0:0,0:0:0:0:
234,102,140846,1,2,0:0:0:0:
234,102,140919,2,0,P|280:112|338:80,1,89.9999972534181,0|0,1:0|0:0,0:0:0:0:
192,27,141140,1,2,0:0:0:0:
192,27,141214,5,2,0:0:0:0:
114,151,141361,1,4,0:3:0:0:
249,313,141508,1,0,1:0:0:0:
230,211,141655,2,0,P|164:258|159:298,1,89.9999972534181,2|0,0:0|0:0,0:0:0:0:
14,379,141949,1,6,0:0:0:0:
15,203,142096,2,0,L|62:313,1,89.9999972534181,0|0,1:0|1:0,0:0:0:0:
295,204,142390,6,0,B|188:181|188:181|104:218,1,179.999994506836,4|0,0:0|1:0,0:0:0:0:
249,114,142831,1,4,0:3:0:0:
228,362,142978,2,0,L|201:270,1,89.9999972534181,2|0,0:0|0:0,0:0:0:0:
134,354,143272,1,2,0:0:0:0:
388,225,143419,6,0,L|326:317,1,89.9999972534181,2|0,0:0|0:0,0:0:0:0:
249,118,143714,1,4,0:3:0:0:
273,223,143861,1,0,1:0:0:0:
380,62,144008,1,2,0:0:0:0:
328,151,144155,1,4,0:3:0:0:
172,22,144302,1,2,0:0:0:0:
286,59,144449,1,0,1:0:0:0:
211,124,144596,1,2,0:0:0:0:
211,124,144743,6,0,P|137:99|94:120,1,112.500004291535,4|0,0:0|1:0,0:0:0:0:
96,307,145331,2,0,L|82:234,2,56.2500021457673,0|0|0,1:0|0:0|0:0,0:0:0:0:
176,284,145772,2,0,L|148:155,1,112.500004291535,2|0,0:0|0:0,0:0:0:0:
187,84,146214,2,0,P|244:139|252:181,2,112.500004291535,0|0|0,1:0|1:0|0:0,0:0:0:0:
295,0,146949,1,0,1:0:0:0:
295,0,147096,6,0,L|262:123,1,112.500004291535,2|0,0:0|1:0,0:0:0:0:
356,83,147537,1,0,0:0:0:0:
234,188,147684,2,0,P|194:154|182:92,1,112.500004291535,2|0,0:2|1:0,0:0:0:0:
317,192,148125,1,0,1:0:0:0:
317,192,148272,6,0,L|231:269,1,112.500004291535,2|0,0:0|1:0,0:0:0:0:
337,286,148714,1,0,0:0:0:0:
181,203,148861,2,0,P|155:282|172:319,1,112.500004291535,0|0,1:0|1:0,0:0:0:0:
77,223,149302,1,0,1:0:0:0:
190,90,149449,6,0,L|179:218,1,112.500004291535,4|0,0:0|1:0,0:0:0:0:
320,24,150037,2,0,P|284:17|260:21,2,56.2500021457673,0|0|0,1:0|0:0|0:0,0:0:0:0:
383,82,150478,2,0,P|447:97|506:74,1,112.500004291535,2|0,0:0|0:0,0:0:0:0:
336,209,150919,2,0,L|320:140,1,56.2500021457673,0|0,1:0|0:0,0:0:0:0:
433,208,151214,2,0,L|411:328,1,112.500004291535,0|0,1:0|1:0,0:0:0:0:
503,285,151655,1,0,1:0:0:0:
346,370,151802,6,0,P|330:325|351:258,1,112.500004291535,2|0,0:0|1:0,0:0:0:0:
243,160,152243,2,0,L|253:284,1,112.500004291535,2|0,0:0|0:0,0:0:0:0:
172,222,152684,1,0,1:0:0:0:
320,122,152831,6,0,P|276:86|201:92,1,112.500004291535,2|0,0:0|0:0,0:0:0:0:
250,166,153272,1,0,1:0:0:0:
250,166,153419,1,0,1:0:0:0:
264,0,153566,2,0,L|187:6,1,56.2500021457673,4|4,0:3|0:3,0:0:0:0:
85,83,153861,2,0,L|162:89,1,56.2500021457673,0|0,1:0|0:0,0:0:0:0:
253,186,154155,6,0,L|121:192,1,112.500004291535,4|0,0:0|1:0,0:0:0:0:
51,375,154743,2,0,P|44:336|51:300,2,56.2500021457673,0|0|0,1:0|0:0|0:0,0:0:0:0:
136,384,155184,2,0,L|129:246,1,112.500004291535,2|0,0:0|0:0,0:0:0:0:
122,172,155625,2,0,P|65:193|36:242,2,112.500004291535,0|0|0,1:0|1:0|1:0,0:0:0:0:
229,239,156361,1,0,1:0:0:0:
229,239,156508,6,0,L|209:108,1,112.500004291535,2|0,0:0|1:0,0:0:0:0:
145,193,156949,1,0,0:0:0:0:
283,77,157096,2,0,P|228:44|182:49,1,112.500004291535,2|0,0:0|1:0,0:0:0:0:
310,173,157537,1,0,1:0:0:0:
383,6,157684,2,0,L|374:129,1,112.500004291535,2|0,0:0|1:0,0:0:0:0:
292,44,158125,1,0,1:0:0:0:
432,191,158272,2,0,P|464:143|467:126,1,56.2500021457673,0|4,1:0|0:3,0:0:0:0:
350,249,158566,2,0,L|410:299,1,56.2500021457673,0|4,1:0|0:3,0:0:0:0:
248,189,158861,6,0,L|286:350,1,150,4|0,0:0|1:0,0:0:0:0:
181,266,159302,1,0,0:0:0:0:
364,126,159449,2,0,L|329:198,1,75,2|2,0:0|0:0,0:0:0:0:
275,40,159743,1,0,1:0:0:0:
138,160,159890,6,0,P|193:152|221:144,1,75,2|0,0:0|0:0,0:0:0:0:
25,57,160184,2,0,P|80:65|108:73,1,75,2|0,0:0|1:0,0:0:0:0:
78,299,160478,2,0,P|59:202|43:149,1,150,2|2,0:0|0:0,0:0:0:0:
200,248,160919,1,0,1:0:0:0:
159,363,161066,1,2,0:0:0:0:
159,363,161140,1,0,1:0:0:0:
159,363,161214,5,4,1:2:0:0:
140,190,161361,1,0,1:0:0:0:
254,341,161508,1,0,1:0:0:0:
283,170,161655,6,0,L|248:211,1,37.5,2|0,1:2|0:0,0:0:0:0:
201,271,161802,1,2,0:0:0:0:
181,95,161949,6,0,L|214:126,1,37.5,2|0,1:2|0:0,0:0:0:0:
354,235,162096,1,2,1:2:0:0:
318,50,162243,6,0,L|284:95,1,37.5,2|0,1:2|0:0,0:0:0:0:
186,204,162390,1,2,0:0:0:0:
210,0,162537,6,0,L|250:40,1,37.5,2|0,1:2|0:0,0:0:0:0:
415,169,162684,1,2,0:0:0:0:
249,291,162831,5,4,0:0:0:0:
136,101,172978,5,4,0:0:0:0:
136,101,173272,2,0,P|139:44|113:6,1,75,0|0,3:0|3:0,0:0:0:0:
128,182,173861,2,0,P|125:125|151:87,1,75,0|0,3:0|3:0,0:0:0:0:
139,266,174449,2,0,P|142:209|116:171,1,75,0|0,3:0|3:0,0:0:0:0:
120,359,175037,2,0,P|117:302|143:264,1,75,0|0,3:0|3:0,0:0:0:0:
283,251,175331,5,2,0:0:0:0:
283,251,175625,2,0,L|219:317,1,75,0|0,3:0|3:0,0:0:0:0:
217,182,176214,2,0,L|281:248,1,75,0|0,3:0|3:0,0:0:0:0:
246,108,176802,2,0,L|182:174,1,75,0|0,3:0|3:0,0:0:0:0:
208,36,177390,2,0,L|272:102,1,75,0|0,3:0|3:0,0:0:0:0:
153,141,177684,5,2,0:0:0:0:
153,141,177978,2,0,P|131:123|125:62,1,75,0|0,3:0|3:0,0:0:0:0:
143,219,178566,2,0,P|165:201|171:140,1,75,0|0,3:0|3:0,0:0:0:0:
152,296,179155,2,0,P|130:278|124:217,1,75,0|0,3:0|3:0,0:0:0:0:
138,372,179743,2,0,P|160:354|166:293,1,75,0|0,0:0|3:0,0:0:0:0:
263,189,180037,6,0,P|237:220|215:263,1,75.000002861023,0|0,1:0|0:0,0:0:0:0:
181,138,180233,2,0,P|199:172|205:217,1,75.000002861023,0|0,1:0|0:0,0:0:0:0:
294,57,180429,2,0,P|270:86|252:134,1,75.000002861023,0|0,1:0|0:0,0:0:0:0:
371,239,180625,2,0,P|361:202|342:171,1,75.000002861023,0|0,1:0|0:0,0:0:0:0:
435,9,180821,2,0,P|412:95|414:108,1,75.000002861023,0|0,1:0|0:0,0:0:0:0:
508,288,181017,2,0,P|501:251|493:212,1,75.000002861023,0|0,1:0|0:0,0:0:0:0:
490,102,181214,6,0,B|408:90|453:131|355:114,1,131.25,4|0,0:0|0:0,0:0:0:0:
247,28,181802,6,0,P|278:110|238:177,1,168.750006437302,4|0,0:0|0:0,0:0:0:0:
124,106,182096,2,0,P|190:82|193:134,1,112.5,4|0,0:0|0:0,0:0:0:0:
168,199,182390,6,0,P|87:176|43:168,1,97.4999955368044,4|0,0:0|0:0,0:0:0:0:
130,293,182684,1,0,1:0:0:0:
294,129,182831,2,0,P|270:222|266:259,1,97.4999955368044,2|0,0:0|0:0,0:0:0:0:
386,201,183125,1,2,0:0:0:0:
193,71,183272,1,0,1:0:0:0:
384,114,183419,6,0,P|445:51|458:8,1,97.4999955368044,2|0,0:0|0:0,0:0:0:0:
360,234,183714,2,0,P|438:270|465:269,1,97.4999955368044,2|0,0:0|1:0,0:0:0:0:
222,214,184008,2,0,P|260:307|284:328,1,97.4999955368044,2|0,0:0|0:0,0:0:0:0:
297,147,184302,1,0,0:0:0:0:
179,33,184449,2,0,L|67:104,1,97.4999955368044,0|0,1:0|0:0,0:0:0:0:
21,165,184669,1,2,0:0:0:0:
21,165,184743,6,0,P|14:105|-8:58,1,97.4999955368044,4|2,0:0|0:0,0:0:0:0:
63,275,185037,1,0,1:0:0:0:
227,227,185184,2,0,P|164:199|120:159,1,97.4999955368044,2|0,0:0|0:0,0:0:0:0:
322,156,185478,2,0,P|290:85|283:34,1,97.4999955368044,2|0,0:0|1:0,0:0:0:0:
401,65,185772,5,2,0:0:0:0:
334,171,185919,1,0,0:0:0:0:
512,231,186066,1,2,0:0:0:0:
421,147,186214,1,0,1:0:0:0:
390,361,186361,2,0,P|415:274|437:239,1,97.4999955368044,2|0,0:0|0:0,0:0:0:0:
277,164,186655,1,2,0:0:0:0:
277,164,186802,2,0,L|308:280,1,97.4999955368044,0|0,1:0|0:0,0:0:0:0:
415,93,187096,6,0,B|331:148|320:36|218:94,1,194.999991073609,4|0,0:0|1:0,0:0:0:0:
85,221,187537,2,0,P|132:222|194:187,1,97.4999955368044,2|0,0:0|0:0,0:0:0:0:
111,120,187831,1,2,0:0:0:0:
155,304,187978,1,0,1:0:0:0:
305,193,188125,6,0,L|282:364,1,146.249993305207,2|0,0:0|0:0,0:0:0:0:
367,299,188419,1,2,0:0:0:0:
225,233,188566,1,0,1:0:0:0:
399,84,188714,2,0,B|422:145|422:145|384:227,1,146.249993305207,2|0,0:0|0:0,0:0:0:0:
313,146,189008,1,2,0:0:0:0:
485,56,189155,2,0,L|459:158,1,97.4999955368044,0|0,1:0|0:0,0:0:0:0:
282,67,189449,5,4,0:0:0:0:
388,28,189596,1,4,0:3:0:0:
238,165,189743,2,0,P|188:113|174:68,1,97.4999955368044,0|0,1:0|1:0,0:0:0:0:
358,187,190037,5,4,0:0:0:0:
321,344,190184,1,2,0:0:0:0:
427,216,190331,1,0,1:0:0:0:
220,281,190478,6,0,P|233:335|250:413,1,97.4999955368044,4|0,0:0|0:0,0:0:0:0:
148,364,190772,1,2,0:0:0:0:
325,168,190919,2,0,P|314:243|309:285,1,97.4999955368044,0|0,1:0|0:0,0:0:0:0:
110,121,191214,2,0,P|181:103|215:98,1,97.4999955368044,0|4,1:0|0:3,0:0:0:0:
346,67,191508,1,0,1:3:0:0:
220,209,191655,1,4,0:3:0:0:
34,65,191802,6,0,P|74:166|75:242,1,146.249993305207,4|0,0:0|0:0,0:0:0:0:
64,298,192096,1,4,1:2:0:0:
266,178,192243,2,0,P|209:156|176:129,1,97.4999955368044,2|0,0:0|0:0,0:0:0:0:
304,92,192537,1,4,0:3:0:0:
219,263,192684,1,0,1:0:0:0:
375,289,192831,6,0,P|349:221|340:180,1,97.4999955368044,2|0,0:2|0:0,0:0:0:0:
492,59,193125,2,0,P|474:135|472:180,1,97.4999955368044,2|0,0:0|1:0,0:0:0:0:
511,370,193419,2,0,B|416:320|421:428|295:354,1,194.999991073609,2|0,0:0|0:0,0:0:0:0:
254,172,193861,2,0,P|288:247|285:292,1,97.4999955368044,0|0,1:0|0:0,0:0:0:0:
105,274,194155,6,0,P|170:253|213:245,2,97.4999955368044,4|0|0,0:0|0:0|1:0,0:0:0:0:
352,174,194596,2,0,P|293:156|205:90,1,146.249993305207,2|0,0:0|0:0,0:0:0:0:
316,58,194890,1,2,0:0:0:0:
186,183,195037,1,0,1:0:0:0:
317,361,195184,6,0,P|306:294|292:255,1,97.4999955368044,2|0,0:0|0:0,0:0:0:0:
450,172,195478,2,0,P|435:218|429:266,1,97.4999955368044,2|0,0:0|1:0,0:0:0:0:
315,8,195772,2,0,P|347:129|349:208,1,194.999991073609,2|0,0:0|1:0,0:0:0:0:
259,108,196214,1,0,1:0:0:0:
406,48,196361,1,0,1:0:0:0:
195,186,196508,6,0,P|163:114|161:84,1,97.4999955368044,4|0,0:0|0:0,0:0:0:0:
269,274,196802,1,0,1:0:0:0:
188,348,196949,2,0,P|119:334|82:326,1,97.4999955368044,2|0,0:0|0:0,0:0:0:0:
76,172,197243,1,2,0:0:0:0:
150,264,197390,1,0,1:0:0:0:
205,59,197537,6,0,P|181:125|172:180,1,97.4999955368044,2|0,0:0|0:0,0:0:0:0:
281,285,197831,1,2,0:0:0:0:
256,161,197978,1,0,1:0:0:0:
447,263,198125,2,0,P|388:245|338:217,1,97.4999955368044,2|0,0:0|1:0,0:0:0:0:
424,173,198346,1,0,1:0:0:0:
424,173,198419,2,0,L|452:122,1,48.7499977684022,0|0,1:0|0:0,0:0:0:0:
308,4,198566,2,0,L|335:70,1,48.7499977684022,0|0,1:0|0:0,0:0:0:0:
267,189,198714,6,0,P|208:169|117:269,1,194.999991073609,4|0,0:0|0:0,0:0:0:0:
232,328,199155,2,0,L|202:242,1,75,0|0,1:0|1:0,0:0:0:0:
316,271,199375,1,0,1:0:0:0:
316,271,199449,1,0,1:0:0:0:
140,324,199596,1,0,1:0:0:0:
267,189,199743,1,0,1:0:0:0:
74,174,199890,6,0,L|111:261,1,75,2|0,0:0|0:0,0:0:0:0:
186,75,200184,2,0,L|160:154,1,75,2|0,0:0|1:0,0:0:0:0:
99,62,200478,1,2,0:0:0:0:
315,179,200625,2,0,P|274:163|240:138,1,75,2|0,0:0|1:0,0:0:0:0:
438,46,200919,2,0,P|397:62|363:87,1,75,0|0,1:0|1:0,0:0:0:0:
422,274,201214,5,4,0:0:0:0:
451,143,201361,1,0,1:0:0:0:
451,143,201434,1,0,1:0:0:0:
451,143,201508,1,4,0:3:0:0:
276,273,201655,2,0,P|308:236|348:208,1,97.4999955368044,2|4,1:2|0:3,0:0:0:0:
190,63,201949,1,2,1:2:0:0:
290,158,202096,1,4,0:3:0:0:
161,343,202243,6,0,P|171:278|190:232,1,97.4999955368044,0|4,1:0|0:3,0:0:0:0:
35,145,202537,1,0,1:2:0:0:
35,145,202611,1,0,1:0:0:0:
35,145,202684,1,4,1:3:0:0:
92,269,202831,1,2,1:2:0:0:
276,70,202978,1,4,0:3:0:0:
130,182,203125,1,0,1:0:0:0:
331,278,203272,1,4,0:3:0:0:
193,100,203419,1,0,1:0:0:0:
388,52,203566,6,0,P|368:120|358:172,1,97.4999955368044,4|0,0:3|1:0,0:0:0:0:
470,320,203861,1,4,0:3:0:0:
477,172,204008,1,0,1:0:0:0:
326,339,204155,1,4,0:3:0:0:
413,265,204302,1,2,1:2:0:0:
194,213,204449,2,0,P|285:241|299:251,1,97.4999955368044,4|0,0:3|1:0,0:0:0:0:
82,335,204743,5,4,0:3:0:0:
223,291,204890,2,0,P|207:371|202:390,1,97.4999955368044,0|4,1:0|0:3,0:0:0:0:
87,137,205184,1,0,1:0:0:0:
119,251,205331,1,4,0:3:0:0:
201,125,205478,1,0,1:0:0:0:
30,241,205625,1,4,0:3:0:0:
239,196,205772,1,4,0:3:0:0:
336,369,205919,6,0,P|404:352|449:346,1,97.4999955368044,4|0,0:3|1:0,0:0:0:0:
348,285,206140,1,2,0:0:0:0:
348,285,206214,1,4,0:3:0:0:
505,179,206361,1,0,1:0:0:0:
462,274,206508,1,4,0:3:0:0:
338,88,206655,2,0,P|377:167|387:196,1,97.4999955368044,0|4,1:0|0:3,0:0:0:0:
200,263,206949,1,2,1:2:0:0:
288,171,207096,5,4,0:3:0:0:
78,105,207243,2,0,P|131:148|167:171,1,97.4999955368044,0|4,1:2|0:3,0:0:0:0:
300,30,207537,1,2,1:2:0:0:
186,80,207684,1,4,0:3:0:0:
377,293,207831,1,2,1:2:0:0:
281,145,207978,1,4,0:3:0:0:
281,145,208052,1,0,1:0:0:0:
281,145,208125,6,0,P|268:222|266:348,1,194.999991073609,4|2,1:2|0:0,0:0:0:0:
156,235,208566,1,4,1:3:0:0:
189,316,208714,1,4,0:3:0:0:
214,131,208861,1,0,1:3:0:0:
156,235,209008,1,4,0:3:0:0:
128,30,209155,1,0,1:0:0:0:
214,131,209302,6,0,B|121:88|128:192|23:157,1,194.999991073609,0|0,1:0|1:0,0:0:0:0:
59,91,209743,1,0,1:0:0:0:
39,256,209890,2,0,B|132:299|125:195|230:230,1,194.999991073609,4|4,0:3|0:3,0:0:0:0:
204,330,210331,1,0,1:0:0:0:
209,142,210478,1,0,1:0:0:0:
345,238,210625,6,0,L|334:307,1,48.7499977684022,4|0,0:0|0:0,0:0:0:0:
373,244,211655,6,0,L|362:313,1,48.7499977684022,4|0,0:0|0:0,0:0:0:0:
398,250,212978,6,0,L|387:319,1,48.7499977684022,4|0,0:0|0:0,0:0:0:0:
