osu file format v14

[General]
AudioFilename: audio.mp3
AudioLeadIn: 0
PreviewTime: 163199
Countdown: 0
SampleSet: Soft
StackLeniency: 0.7
Mode: 0
LetterboxInBreaks: 0
WidescreenStoryboard: 0

[Editor]
DistanceSpacing: 2.5
BeatDivisor: 4
GridSize: 4
TimelineZoom: 1

[Metadata]
Title:The Noise of Rain
TitleUnicode:雨音ノイズ
Artist:Kino Hiko
ArtistUnicode:木のひこ
Creator:Battle
Version:Ame
Source:
Tags:regraz 40mp utaite amaoto noise 40meterP english cover
BeatmapID:1295194
BeatmapSetID:613928

[Difficulty]
HPDrainRate:6
CircleSize:4
OverallDifficulty:9
ApproachRate:9.3
SliderMultiplier:1.6
SliderTickRate:1

[Events]
//Background and Video events
Video,-185,"mv.avi"
0,0,"bg.jpg",0,0
//Break Periods
2,83619,84630
2,163566,172390
//Storyboard Layer 0 (Background)
//Storyboard Layer 1 (Fail)
//Storyboard Layer 2 (Pass)
//Storyboard Layer 3 (Foreground)
//Storyboard Sound Samples

[TimingPoints]
1214,294.117647058824,4,2,1,50,1,0
1214,-133.333333333333,4,2,1,50,0,0
9302,-133.333333333333,4,2,1,60,0,0
10331,-133.333333333333,4,2,1,70,0,0
10625,-100,4,2,1,80,0,0
20037,-100,4,2,1,75,0,0
56655,-133.333333333333,4,2,1,80,0,0
56949,-333.333333333333,4,2,1,90,0,0
57390,-100,4,2,1,80,0,0
57611,-100,4,2,1,5,0,0
57684,-76.9230769230769,4,2,1,90,0,1
75478,-111.111111111111,4,2,1,80,0,0
75772,-250,4,2,1,80,0,0
76508,-100,4,2,1,80,0,0
85184,-100,4,2,1,60,0,0
85919,-100,4,2,1,70,0,0
94008,-100,4,2,1,80,0,0
103714,-133.333333333333,4,2,1,80,0,0
104008,-333.333333333333,4,2,1,80,0,0
104449,-100,4,2,1,80,0,0
104669,-100,4,2,1,5,0,0
104743,-76.9230769230769,4,2,1,90,0,1
121214,-100,4,2,1,60,0,0
125478,-100,4,2,1,70,0,0
125919,-100,4,2,1,80,0,0
144743,-133.333333333333,4,2,1,70,0,0
158861,-100,4,2,1,80,0,0
172978,-100,4,2,1,70,0,0
180037,-66.6666666666667,4,2,1,80,0,0
181214,-200,4,2,1,80,0,0
181728,-200,4,2,1,5,0,0
181802,-66.6666666666667,4,2,1,80,0,0
182022,-66.6666666666667,4,2,1,5,0,0
182096,-100,4,2,1,80,0,0
182316,-100,4,2,1,5,0,0
182390,-76.9230769230769,4,2,1,90,0,1
198861,-100,4,2,1,80,0,0
201214,-76.9230769230769,4,2,1,90,0,1
208125,-76.9230769230769,4,2,1,80,0,0
210625,-76.9230769230769,4,2,1,80,0,1
210699,-76.9230769230769,4,2,1,80,0,0
211655,-76.9230769230769,4,2,1,80,0,1
211728,-76.9230769230769,4,2,1,80,0,0
212978,-76.9230769230769,4,2,1,80,0,1
213052,-76.9230769230769,4,2,1,80,0,0

[Colours]
Combo1 : 131,90,114
Combo2 : 77,88,136
Combo3 : 171,113,78
Combo4 : 226,202,150
Combo5 : 97,118,133

[HitObjects]
60,69,1214,5,2,0:0:0:0:
60,69,1508,2,0,P|92:53|138:51,1,60.0000022888184,0|0,3:0|0:0,0:0:0:0:
147,139,1802,2,0,L|226:146,2,60.0000022888184,2|2|0,0:0|0:0|3:0,0:0:0:0:
56,212,2243,2,0,P|50:175|60:129,1,60.0000022888184,2|0,0:0|0:0,0:0:0:0:
72,289,2537,2,0,P|77:252|67:206,1,60.0000022888184,2|0,0:0|3:0,0:0:0:0:
53,368,2831,2,0,P|47:338|50:308,1,60.0000022888184,2|0,0:0|0:0,0:0:0:0:
147,196,3125,2,0,P|154:274|144:322,1,120.000004577637,2|0,0:0|0:0,0:0:0:0:
250,248,3566,6,0,P|305:252|375:253,1,120.000004577637,2|0,0:0|3:0,0:0:0:0:
446,172,4008,1,0,0:0:0:0:
446,172,4155,2,0,P|440:121|440:93,2,60.0000022888184,2|2|0,0:0|0:0|3:0,0:0:0:0:
482,256,4596,2,0,P|450:295|452:320,1,60.0000022888184,2|0,0:0|0:0,0:0:0:0:
352,338,4890,2,0,P|384:377|382:402,1,60.0000022888184,2|0,0:0|3:0,0:0:0:0:
305,234,5184,2,0,P|273:273|275:298,1,60.0000022888184,2|0,0:0|0:0,0:0:0:0:
239,384,5478,1,2,0:0:0:0:
239,384,5625,2,0,P|187:363|156:360,1,60.0000022888184,0|0,3:0|0:0,0:0:0:0:
50,284,5919,6,0,P|102:282|189:250,1,120.000004577637,2|0,0:0|3:0,0:0:0:0:
212,167,6361,1,0,0:0:0:0:
212,167,6508,2,0,P|200:111|199:91,2,60.0000022888184,2|2|0,0:0|0:0|3:0,0:0:0:0:
257,295,6949,2,0,P|286:262|321:255,1,60.0000022888184,2|0,0:0|0:0,0:0:0:0:
388,256,7243,2,0,P|344:258|314:239,1,60.0000022888184,2|0,0:0|3:0,0:0:0:0:
280,167,7537,2,0,P|307:201|308:236,1,60.0000022888184,2|0,0:0|0:0,0:0:0:0:
326,78,7831,2,0,P|384:146|396:200,1,120.000004577637,2|0,0:0|0:0,0:0:0:0:
164,168,8272,6,0,B|201:182|201:182|301:162,1,120.000004577637,2|0,0:0|3:0,0:0:0:0:
152,74,8714,1,0,0:0:0:0:
152,74,8861,2,0,L|216:101,2,60.0000022888184,2|2|0,0:0|0:0|3:0,0:0:0:0:
43,97,9302,2,0,P|76:166|71:224,1,120.000004577637,2|0,0:0|0:0,0:0:0:0:
0,172,9743,1,0,1:0:0:0:
182,214,9890,2,0,P|149:283|154:341,1,120.000004577637,4|0,0:3|0:0,0:0:0:0:
292,307,10331,2,0,P|240:296|213:286,1,60.0000022888184,4|0,0:0|0:0,0:0:0:0:
120,178,10625,6,0,P|200:168|264:147,1,120,4|0,0:1|0:0,0:0:0:0:
325,117,10919,2,0,P|319:169|317:209,1,80,0|0,1:0|0:0,0:0:0:0:
431,272,11214,2,0,P|428:232|423:192,1,80,2|2,0:0|0:0,0:0:0:0:
264,62,11508,1,0,1:0:0:0:
264,62,11655,2,0,P|244:178|247:240,1,160,2|2,0:0|0:0,0:0:0:0:
326,151,12096,1,0,1:0:0:0:
159,128,12243,2,0,P|99:134|56:125,1,80,2|0,0:0|0:0,0:0:0:0:
6,236,12537,1,0,0:0:0:0:
6,236,12684,2,0,P|45:233|85:239,1,80,0|0,1:0|0:0,0:0:0:0:
168,378,12978,6,0,P|166:299|206:243,1,120,2|0,0:0|0:0,0:0:0:0:
237,199,13272,2,0,P|264:238|269:276,1,80,0|0,1:0|0:0,0:0:0:0:
140,166,13566,2,0,P|126:116|121:71,1,80,2|2,0:0|0:0,0:0:0:0:
251,22,13861,1,0,1:0:0:0:
251,22,14008,2,0,L|213:109,1,80,2|0,0:0|0:0,0:0:0:0:
403,132,14302,2,0,L|314:108,1,80,2|0,0:0|1:0,0:0:0:0:
177,214,14596,2,0,L|264:194,1,80,2|0,0:0|0:0,0:0:0:0:
205,123,14890,1,2,0:0:0:0:
174,295,15037,2,0,L|293:264,1,120,0|0,1:0|0:0,0:0:0:0:
383,241,15331,6,0,P|371:302|381:332,1,80,2|0,0:0|0:0,0:0:0:0:
512,182,15625,2,0,L|417:174,1,80,0|0,1:0|0:0,0:0:0:0:
304,96,15919,2,0,P|370:68|396:46,2,80,2|2|0,0:0|0:0|1:0,0:0:0:0:
200,194,16361,2,0,P|283:202|334:295,1,160,2|2,0:0|0:0,0:0:0:0:
227,355,16802,1,0,1:0:0:0:
227,355,16949,2,0,P|234:285|247:261,1,80,2|0,0:0|0:0,0:0:0:0:
120,169,17243,1,2,0:0:0:0:
120,169,17390,2,0,P|131:207|130:246,1,80,0|0,1:0|0:0,0:0:0:0:
306,97,17684,6,0,B|221:112|221:112|142:71,1,160,2|0,0:0|1:0,0:0:0:0:
41,185,18125,1,0,0:0:0:0:
41,185,18272,2,0,L|133:165,1,80,2|2,0:0|0:0,0:0:0:0:
95,275,18566,1,0,1:0:0:0:
173,106,18714,2,0,P|200:155|193:203,1,80,2|0,0:0|0:0,0:0:0:0:
257,75,19008,2,0,P|283:126|286:174,1,80,2|0,0:0|0:0,0:0:0:0:
325,15,19302,2,0,P|379:115|367:207,1,160,2|0,0:0|0:0,0:0:0:0:
379,158,19743,1,0,0:0:0:0:
250,261,20037,6,0,B|348:250|292:303|422:284,1,160,4|0,1:1|1:0,0:0:0:0:
371,207,20478,1,0,1:0:0:0:
271,362,20625,2,0,P|197:351|178:350,1,80,2|0,0:0|0:0,0:0:0:0:
63,281,20919,1,0,1:0:0:0:
63,281,21066,2,0,P|129:271|164:245,1,80,2|0,0:0|0:0,0:0:0:0:
120,126,21361,2,0,P|95:169|93:228,1,80,2|0,0:0|1:0,0:0:0:0:
238,237,21655,2,0,P|192:197|152:184,1,80,2|0,0:0|0:0,0:0:0:0:
215,328,21949,1,2,0:0:0:0:
328,209,22096,2,0,P|316:288|314:310,1,80,0|0,1:0|0:0,0:0:0:0:
206,81,22390,6,0,B|254:93|272:131|272:131|322:103|374:126,1,160,2|0,0:0|1:0,0:0:0:0:
374,326,22831,2,0,P|318:294|328:208,1,160,2|2,0:0|0:0,0:0:0:0:
416,242,23272,1,0,1:0:0:0:
246,130,23419,2,0,P|316:89|409:95,1,160,2|2,0:0|0:0,0:0:0:0:
253,237,23861,1,0,1:0:0:0:
104,58,24008,2,0,P|139:140|149:243,1,160,2|0,0:0|1:0,0:0:0:0:
27,268,24449,2,0,P|29:209|38:155,1,80,0|4,1:0|3:0,0:0:0:0:
243,135,24743,6,0,P|246:205|212:297,1,160,0|0,1:0|1:0,0:0:0:0:
146,215,25184,1,0,1:0:0:0:
272,45,25331,2,0,P|227:40|182:52,2,80,2|0|0,0:0|0:0|1:0,0:0:0:0:
307,215,25772,2,0,P|322:130|335:117,1,80,2|0,0:0|0:0,0:0:0:0:
475,202,26066,2,0,L|383:186,1,80,2|0,0:0|1:0,0:0:0:0:
287,309,26361,2,0,L|379:293,1,80,2|0,0:0|0:0,0:0:0:0:
458,277,26655,1,2,0:0:0:0:
228,228,26802,2,0,L|320:212,1,80,0|0,1:0|0:0,0:0:0:0:
411,39,27096,6,0,P|379:113|400:194,1,160,2|0,0:0|1:0,0:0:0:0:
505,179,27537,2,0,L|469:106,1,80,0|2,1:0|0:0,0:0:0:0:
325,236,27831,1,2,0:0:0:0:
377,134,27978,1,0,1:0:0:0:
453,307,28125,2,0,P|371:247|297:279,1,160,2|2,0:0|0:0,0:0:0:0:
284,384,28566,1,0,1:0:0:0:
193,212,28714,2,0,P|198:281|206:328,1,80,0|0,1:0|0:0,0:0:0:0:
332,155,29008,2,0,P|327:224|319:271,1,80,0|0,1:0|1:0,0:0:0:0:
240,125,29302,1,4,3:0:0:0:
135,353,29449,6,0,P|116:257|114:187,1,160,0|0,1:0|1:0,0:0:0:0:
176,85,29890,1,0,1:0:0:0:
63,101,30037,2,0,P|30:51|21:21,1,80,2|2,0:0|0:0,0:0:0:0:
172,114,30331,1,0,1:0:0:0:
140,216,30478,2,0,P|131:284|125:327,1,80,2|0,0:0|0:0,0:0:0:0:
8,141,30772,2,0,P|17:209|23:252,1,80,2|0,0:0|1:0,0:0:0:0:
116,365,31066,2,0,P|139:299|221:281,1,160,2|2,0:0|0:0,0:0:0:0:
353,219,31508,2,0,P|277:188|264:170,1,80,0|0,1:0|0:0,0:0:0:0:
180,102,31802,6,0,P|185:173|191:216,1,80,2|2,0:0|0:0,0:0:0:0:
301,112,32096,1,0,1:0:0:0:
350,300,32243,2,0,P|279:287|251:282,1,80,2|0,0:0|0:0,0:0:0:0:
134,384,32537,2,0,P|205:371|233:366,1,80,2|0,0:0|1:0,0:0:0:0:
42,192,32831,2,0,P|75:269|179:276,1,160,2|2,0:0|0:0,0:0:0:0:
214,160,33272,2,0,P|174:166|142:188,1,80,0|0,1:0|1:0,0:0:0:0:
241,338,33566,1,2,0:0:0:0:
206,244,33714,2,0,L|306:246,1,80,2|0,0:0|1:0,0:0:0:0:
414,166,34008,1,2,0:0:0:0:
414,166,34081,1,2,0:0:0:0:
414,166,34155,6,0,P|334:165|273:101,1,160,2|0,0:0|1:0,0:0:0:0:
235,215,34596,1,0,0:0:0:0:
367,95,34743,1,2,0:0:0:0:
215,51,34890,2,0,P|193:103|203:146,1,80,2|0,0:0|1:0,0:0:0:0:
235,215,35184,1,2,0:0:0:0:
58,230,35331,2,0,B|117:236|117:236|164:219|164:219|236:226,1,160,2|0,0:0|1:0,0:0:0:0:
315,238,35772,1,0,0:0:0:0:
163,384,35919,2,0,P|160:339|180:299,1,80,2|0,0:0|0:0,0:0:0:0:
280,373,36214,1,0,1:0:0:0:
421,225,36361,1,2,0:0:0:0:
421,225,36434,1,2,0:0:0:0:
421,225,36508,6,0,P|422:271|413:326,1,80,2|0,0:0|0:0,0:0:0:0:
313,165,36802,1,0,1:0:0:0:
269,258,36949,1,0,1:0:0:0:
269,258,37022,1,0,1:0:0:0:
269,258,37096,1,0,1:0:0:0:
414,133,37243,1,0,1:0:0:0:
331,326,37390,1,0,1:0:0:0:
252,181,37537,2,0,P|263:125|296:97,1,80,4|0,0:0|0:0,0:0:0:0:
191,254,37831,2,0,P|161:195|161:161,1,80,2|0,0:0|1:0,0:0:0:0:
241,336,38125,2,0,P|195:348|151:340,1,80,4|0,0:0|0:0,0:0:0:0:
42,318,38419,1,2,0:0:0:0:
42,318,38493,1,2,0:3:0:0:
42,318,38566,1,2,3:0:0:0:
157,247,38714,1,2,3:0:0:0:
21,81,38861,6,0,B|0:129|0:129|30:249,1,160,4|0,0:0|1:0,0:0:0:0:
108,118,39302,1,0,1:0:0:0:
146,280,39449,1,2,0:0:0:0:
146,280,39596,2,0,L|122:196,1,80,2|0,0:0|1:0,0:0:0:0:
256,134,39890,2,0,P|241:198|213:225,1,80,2|0,0:0|0:0,0:0:0:0:
120,81,40184,2,0,P|156:64|212:65,1,80,2|0,0:0|1:0,0:0:0:0:
147,228,40478,2,0,P|114:204|88:155,1,80,2|0,0:0|0:0,0:0:0:0:
175,148,40772,1,2,0:0:0:0:
138,316,40919,2,0,P|67:312|32:312,1,80,0|0,1:0|0:0,0:0:0:0:
251,233,41214,6,0,P|220:294|226:385,1,160,2|0,0:0|1:0,0:0:0:0:
384,317,41655,2,0,P|333:301|301:305,1,80,2|0,0:0|0:0,0:0:0:0:
225,383,41949,1,2,0:0:0:0:
173,228,42096,1,0,1:0:0:0:
173,228,42243,2,0,P|236:237|282:214,1,80,2|0,0:0|0:0,0:0:0:0:
258,93,42537,2,0,P|221:141|219:184,1,80,2|0,0:0|1:0,0:0:0:0:
335,244,42831,2,0,P|331:205|309:172,1,80,2|0,0:0|0:0,0:0:0:0:
240,302,43125,1,0,1:0:0:0:
419,221,43272,2,0,P|403:159|380:128,1,80,0|4,1:0|3:0,0:0:0:0:
245,52,43566,6,0,B|306:79|306:79|353:72|420:44,1,160,2|0,0:0|1:0,0:0:0:0:
367,198,44008,1,0,1:0:0:0:
224,135,44155,1,2,0:0:0:0:
224,135,44302,2,0,P|197:199|206:238,1,80,2|0,0:0|1:0,0:0:0:0:
297,334,44596,2,0,L|282:242,1,80,2|0,0:0|0:0,0:0:0:0:
374,121,44890,2,0,L|361:199,1,80,0|0,0:0|1:0,0:0:0:0:
476,378,45184,2,0,L|461:214,1,160,2|0,0:0|0:0,0:0:0:0:
295,258,45625,2,0,P|348:286|378:287,1,80,0|0,1:0|0:0,0:0:0:0:
304,98,45919,6,0,L|294:273,1,160,2|0,0:0|1:0,0:0:0:0:
223,72,46361,2,0,L|214:179,1,80,2|0,0:0|0:0,0:0:0:0:
394,168,46655,1,2,0:0:0:0:
304,98,46802,1,0,1:0:0:0:
134,144,46949,2,0,P|170:220|266:223,1,160,2|2,0:0|0:0,0:0:0:0:
238,349,47390,1,0,1:0:0:0:
433,287,47537,2,0,B|347:284,1,80,2|0,0:0|0:0,0:0:0:0:
304,144,47831,1,0,1:0:0:0:
381,201,47978,1,0,1:0:0:0:
280,242,48125,1,4,0:3:0:0:
234,107,48272,6,0,P|292:62|322:62,1,80,6|0,0:0|0:0,0:0:0:0:
188,221,48566,2,0,P|135:211|84:205,1,80,0|0,1:0|1:0,0:0:0:0:
24,96,48861,1,2,0:0:0:0:
24,96,49008,2,0,P|75:93|129:73,1,80,2|0,0:0|1:0,0:0:0:0:
237,6,49302,2,0,P|210:124|236:161,1,160,2|2,0:0|0:0,0:0:0:0:
293,235,49743,1,0,1:0:0:0:
66,239,49890,2,0,B|141:276|141:276|246:254,1,160,2|2,0:0|0:0,0:0:0:0:
29,308,50331,2,0,L|120:355,1,80,0|0,1:0|0:0,0:0:0:0:
288,215,50625,6,0,P|230:282|247:347,1,160,2|0,0:0|1:0,0:0:0:0:
322,304,51066,1,2,0:0:0:0:
191,178,51214,2,0,P|208:244|212:271,1,80,0|2,0:0|0:0,0:0:0:0:
333,57,51508,1,0,1:0:0:0:
333,57,51655,2,0,P|318:130|320:230,1,160,2|0,0:0|0:0,0:0:0:0:
404,312,52096,2,0,P|449:286|488:281,1,80,0|0,1:0|0:0,0:0:0:0:
343,383,52390,2,0,P|281:369|241:363,1,80,2|2,0:0|0:0,0:0:0:0:
150,352,52684,1,0,1:0:0:0:
352,251,52831,6,0,P|303:271|194:277,1,160,2|0,0:0|0:0,0:0:0:0:
91,197,53272,2,0,P|157:166|181:162,1,80,0|0,1:0|0:0,0:0:0:0:
280,108,53566,1,2,0:0:0:0:
186,56,53714,1,2,0:0:0:0:
241,185,53861,1,0,1:0:0:0:
349,21,54008,1,2,0:0:0:0:
349,21,54155,2,0,B|329:101|398:82|371:194,1,160,2|0,0:0|1:0,0:0:0:0:
336,277,54596,1,0,0:0:0:0:
257,207,54743,1,2,0:0:0:0:
442,305,54890,2,0,P|434:367|428:399,1,80,2|0,0:0|1:0,0:0:0:0:
257,207,55184,6,0,P|308:148|383:189,1,160,4|0,0:0|0:0,0:0:0:0:
285,318,55625,1,0,1:0:0:0:
156,175,55772,1,0,1:0:0:0:
156,175,55846,1,0,1:0:0:0:
156,175,55919,1,4,0:3:0:0:
173,284,56066,1,4,0:3:0:0:
274,103,56214,1,0,1:0:0:0:
320,245,56361,6,0,L|300:339,1,80,4|0,0:0|0:0,0:0:0:0:
414,229,56655,2,0,L|398:310,1,60.0000022888184,4|0,0:0|0:0,0:0:0:0:
507,221,56949,2,0,L|497:273,1,47.9999985351563,4|0,0:0|0:0,0:0:0:0:
455,132,57390,6,0,P|460:85|494:123,1,120,2|0,0:0|0:0,0:0:0:0:
389,179,57684,6,0,P|366:125|368:76,1,103.999995239258,4|0,0:1|0:0,0:0:0:0:
293,217,57978,1,0,1:0:0:0:
172,41,58125,2,0,P|255:32|297:29,1,103.999995239258,2|0,0:0|0:0,0:0:0:0:
211,169,58419,2,0,P|128:160|86:157,1,103.999995239258,2|0,0:0|1:0,0:0:0:0:
40,367,58714,2,0,P|21:291|36:251,1,103.999995239258,2|0,0:0|0:0,0:0:0:0:
225,302,59008,2,0,B|164:322|164:322|115:312,1,103.999995239258,2|0,0:0|1:0,0:0:0:0:
70,122,59302,2,0,P|116:173|113:220,1,103.999995239258,2|0,0:0|0:0,0:0:0:0:
5,20,59596,1,4,0:3:0:0:
5,20,59743,2,0,P|80:23|121:24,1,103.999995239258,0|0,1:0|0:0,0:0:0:0:
227,119,60037,6,0,P|176:175|179:227,1,103.999995239258,2|0,0:0|0:0,0:0:0:0:
211,335,60331,1,0,1:0:0:0:
346,313,60478,2,0,P|302:262|295:208,1,103.999995239258,2|0,0:0|0:0,0:0:0:0:
409,127,60772,2,0,L|383:249,1,103.999995239258,2|0,0:0|1:0,0:0:0:0:
239,97,61066,2,0,P|282:95|336:50,1,103.999995239258,2|0,0:0|0:0,0:0:0:0:
149,151,61361,2,0,P|204:194|246:197,1,103.999995239258,2|0,0:0|1:0,0:0:0:0:
50,117,61655,2,0,P|53:197|76:229,1,103.999995239258,2|0,0:0|0:0,0:0:0:0:
174,56,61949,1,4,0:3:0:0:
265,263,62096,1,0,1:0:0:0:
330,135,62243,1,4,0:3:0:0:
170,295,62390,6,0,B|217:311|217:311|309:280,1,103.999995239258,2|0,0:0|0:0,0:0:0:0:
352,231,62684,1,0,1:0:0:0:
116,193,62831,2,0,B|224:231,1,103.999995239258,2|0,0:0|0:0,0:0:0:0:
267,52,63125,1,2,0:0:0:0:
203,140,63272,1,0,1:0:0:0:
317,285,63419,2,0,L|304:168,1,103.999995239258,2|0,0:0|0:0,0:0:0:0:
386,112,63714,1,0,0:0:0:0:
236,61,63861,1,0,1:0:0:0:
382,0,64008,2,0,B|404:49|404:49|392:108,1,103.999995239258,2|0,0:0|0:0,0:0:0:0:
362,211,64302,1,2,0:0:0:0:
167,127,64449,2,0,P|202:71|247:60,1,103.999995239258,0|0,1:0|0:0,0:0:0:0:
211,235,64743,5,4,0:0:0:0:
99,197,64890,1,4,0:3:0:0:
248,139,65037,1,0,1:0:0:0:
248,139,65184,1,0,1:0:0:0:
193,321,65331,5,4,0:0:0:0:
154,148,65478,1,2,0:0:0:0:
290,236,65625,1,0,1:0:0:0:
49,254,65772,6,0,B|94:267|94:267|164:252,1,103.999995239258,4|0,0:0|0:0,0:0:0:0:
247,105,66066,1,2,0:0:0:0:
89,164,66214,1,0,1:0:0:0:
216,335,66361,1,0,1:0:0:0:
165,85,66508,5,8,0:3:0:0:
126,325,66655,1,4,0:3:0:0:
60,233,66802,5,0,1:0:0:0:
325,147,66949,1,4,0:3:0:0:
227,41,67096,6,0,B|199:102|199:102|222:186,1,103.999995239258,4|0,0:0|0:0,0:0:0:0:
329,299,67390,1,0,1:0:0:0:
477,250,67537,2,0,P|417:215|364:226,1,103.999995239258,2|0,0:0|0:0,0:0:0:0:
186,207,67831,2,0,P|253:232|296:217,1,103.999995239258,2|0,0:0|1:0,0:0:0:0:
341,32,68125,2,0,P|337:103|334:160,1,103.999995239258,2|0,0:0|0:0,0:0:0:0:
238,333,68419,2,0,P|235:281|232:229,1,103.999995239258,2|0,0:0|1:0,0:0:0:0:
77,132,68714,2,0,P|193:144|229:47,1,207.999990478516,2|2,0:0|0:0,0:0:0:0:
324,23,69081,1,2,0:0:0:0:
324,23,69155,2,0,P|381:13|432:36,1,103.999995239258,0|0,1:0|0:0,0:0:0:0:
427,225,69449,5,2,0:0:0:0:
234,163,69596,1,0,0:3:0:0:
360,120,69743,1,0,1:0:0:0:
360,120,69890,2,0,P|338:193|330:304,1,155.999992858887,2|0,0:0|0:0,0:0:0:0:
272,382,70184,2,0,P|257:328|236:283,1,103.999995239258,2|0,0:0|1:0,0:0:0:0:
67,242,70478,2,0,P|141:227|179:221,1,103.999995239258,2|0,0:0|0:0,0:0:0:0:
7,151,70772,2,0,P|81:136|119:130,1,103.999995239258,2|0,0:0|1:0,0:0:0:0:
268,103,71066,2,0,P|200:88|157:8,1,155.999992858887,2|0,0:0|0:0,0:0:0:0:
248,16,71361,1,2,0:0:0:0:
272,208,71508,2,0,P|200:200|162:194,1,103.999995239258,0|0,1:0|1:0,0:0:0:0:
377,127,71802,6,0,P|353:206|359:330,1,207.999990478516,2|0,0:0|1:0,0:0:0:0:
445,188,72243,2,0,P|431:244|433:297,1,103.999995239258,2|0,0:0|0:0,0:0:0:0:
259,62,72537,2,0,P|274:118|280:173,1,103.999995239258,2|0,0:0|1:0,0:0:0:0:
222,245,72758,1,2,0:0:0:0:
222,245,72831,2,0,P|144:237|103:234,1,103.999995239258,2|0,0:0|0:0,0:0:0:0:
156,345,73125,1,2,0:0:0:0:
59,293,73272,1,0,1:0:0:0:
294,150,73419,2,0,P|216:158|175:161,1,103.999995239258,2|0,0:0|0:0,0:0:0:0:
325,341,73714,1,0,1:0:0:0:
228,249,73861,1,0,1:0:0:0:
358,93,74008,6,0,P|379:187|368:255,1,155.999992858887,6|0,0:0|0:0,0:0:0:0:
294,161,74302,1,2,0:0:0:0:
431,47,74449,2,0,P|459:110|465:167,1,103.999995239258,4|0,1:2|0:0,0:0:0:0:
283,248,74743,1,4,0:3:0:0:
378,164,74890,1,4,0:3:0:0:
350,365,75037,1,0,1:0:0:0:
195,252,75184,6,0,P|218:307|255:331,1,103.999995239258,4|0,0:0|0:0,0:0:0:0:
123,204,75478,2,0,P|112:255|124:302,1,71.9999978027344,4|0,0:0|0:0,0:0:0:0:
195,252,75772,1,4,0:0:0:0:
88,123,75919,2,0,P|46:163|39:182,1,64,4|4,0:0|0:3,0:0:0:0:
234,162,76508,6,0,B|145:164|145:164|86:121,1,160,4|0,0:0|1:0,0:0:0:0:
188,83,76949,1,0,1:0:0:0:
235,247,77096,2,0,L|126:248,1,80,2|2,0:0|0:0,0:0:0:0:
304,171,77390,1,0,1:0:0:0:
304,171,77537,2,0,P|335:235|333:277,1,80,2|0,0:0|0:0,0:0:0:0:
447,105,77831,2,0,P|416:169|418:211,1,80,2|0,0:0|1:0,0:0:0:0:
331,11,78125,2,0,P|344:55|356:109,1,80,2|0,0:0|0:0,0:0:0:0:
304,171,78419,1,2,0:0:0:0:
175,107,78566,2,0,P|222:88|259:80,1,80,0|0,1:0|0:0,0:0:0:0:
217,232,78861,6,0,P|148:227|50:199,1,160,2|0,0:0|1:0,0:0:0:0:
41,345,79302,1,2,0:0:0:0:
41,345,79449,2,0,P|99:326|143:321,1,80,2|0,0:0|0:0,0:0:0:0:
243,357,79743,1,0,1:0:0:0:
241,185,79890,2,0,P|211:233|208:275,1,80,2|0,0:0|0:0,0:0:0:0:
358,308,80184,2,0,L|288:249,1,80,2|0,0:0|1:0,0:0:0:0:
392,132,80478,2,0,L|378:234,1,80,2|0,0:0|0:0,0:0:0:0:
294,109,80772,1,2,0:0:0:0:
450,60,80919,2,0,P|480:103|480:161,1,80,0|0,1:0|0:0,0:0:0:0:
294,231,81214,6,0,L|318:85,1,120,2|0,0:0|0:0,0:0:0:0:
225,64,81508,2,0,P|212:114|228:169,1,80,0|0,1:0|0:0,0:0:0:0:
401,193,81802,1,2,0:0:0:0:
313,112,81949,2,0,L|300:199,1,80,2|0,0:0|1:0,0:0:0:0:
246,328,82243,2,0,P|226:277|188:254,1,80,2|0,0:0|0:0,0:0:0:0:
96,207,82537,1,2,0:0:0:0:
225,137,82684,1,0,1:0:0:0:
14,81,82831,2,0,P|97:110|162:39,1,160,4|0,1:2|1:0,0:0:0:0:
75,0,83199,1,0,0:0:0:0:
75,0,83272,2,0,L|83:68,1,40,0|0,1:0|0:0,0:0:0:0:
174,195,83419,5,4,0:0:0:0:
174,195,85184,5,0,3:0:0:0:
209,281,85331,1,0,3:0:0:0:
266,211,85478,1,0,0:0:0:0:
149,118,85625,2,0,L|175:200,1,80,2|0,3:0|0:0,0:0:0:0:
253,25,85919,6,0,B|227:81|227:81|250:164,1,120,4|0,0:0|0:0,0:0:0:0:
386,95,86214,2,0,P|335:77|291:95,1,80,0|0,1:0|0:0,0:0:0:0:
276,231,86508,2,0,L|360:200,2,80,2|2|0,0:0|0:0|1:0,0:0:0:0:
130,174,86949,2,0,P|176:163|220:182,1,80,2|0,0:0|0:0,0:0:0:0:
91,274,87243,2,0,P|137:285|181:266,1,80,2|0,0:0|1:0,0:0:0:0:
291,320,87537,2,0,P|280:258|244:231,1,80,2|0,0:0|0:0,0:0:0:0:
216,361,87831,1,0,0:0:0:0:
338,205,87978,2,0,P|363:256|371:298,1,80,0|0,1:0|0:0,0:0:0:0:
262,146,88272,6,0,P|338:119|406:117,1,120,2|0,0:0|0:0,0:0:0:0:
464,47,88566,2,0,P|409:31|377:7,1,80,0|0,1:0|0:0,0:0:0:0:
249,67,88861,1,2,0:0:0:0:
249,67,89008,2,0,L|263:154,1,80,2|0,0:0|1:0,0:0:0:0:
340,277,89302,2,0,P|355:188|380:120,1,160,2|0,0:0|0:0,0:0:0:0:
434,221,89743,1,0,1:0:0:0:
264,205,89890,2,0,P|210:198|161:188,1,80,2|0,0:0|0:0,0:0:0:0:
13,85,90184,2,0,P|131:53|171:48,1,160,2|0,0:0|0:0,0:0:0:0:
267,125,90625,5,2,0:0:0:0:
271,24,90772,1,0,0:0:0:0:
183,165,90919,2,0,P|225:199|266:216,1,80,0|0,1:0|0:0,0:0:0:0:
362,116,91214,2,0,P|345:187|340:225,2,80,2|2|0,0:0|0:0|1:0,0:0:0:0:
450,2,91655,2,0,P|474:50|481:86,1,80,2|0,0:0|0:0,0:0:0:0:
508,210,91949,2,0,P|449:190|424:181,1,80,2|0,0:0|1:0,0:0:0:0:
287,107,92243,2,0,P|348:98|374:94,1,80,2|0,0:0|0:0,0:0:0:0:
481,79,92537,1,2,0:0:0:0:
357,295,92684,2,0,P|344:235|337:162,1,120,0|0,1:0|0:0,0:0:0:0:
458,273,92978,6,0,P|453:343|448:374,1,80,2|0,0:0|0:0,0:0:0:0:
357,295,93272,1,0,1:0:0:0:
433,173,93419,2,0,P|499:162|527:160,1,80,2|0,0:0|0:0,0:0:0:0:
364,316,93714,1,0,1:0:0:0:
326,162,93861,1,0,1:0:0:0:
224,245,94008,2,0,P|132:252|81:228,1,120,4|0,0:0|0:0,0:0:0:0:
32,188,94302,1,0,1:0:0:0:
38,300,94449,1,0,1:0:0:0:
127,114,94596,2,0,P|67:85|42:56,1,80,2|0,0:0|0:0,0:0:0:0:
165,251,94890,1,0,1:0:0:0:
266,189,95037,1,4,0:3:0:0:
205,352,95184,1,4,0:3:0:0:
187,172,95331,6,0,P|255:167|303:164,1,80,4|0,0:0|0:0,0:0:0:0:
359,71,95625,2,0,P|314:47|281:39,1,80,0|0,1:0|0:0,0:0:0:0:
385,248,95919,1,2,0:0:0:0:
334,146,96066,1,2,0:0:0:0:
447,169,96214,1,0,1:0:0:0:
371,321,96361,2,0,P|361:257|361:231,1,80,2|0,0:0|0:0,0:0:0:0:
486,384,96655,2,0,P|496:320|496:294,1,80,2|0,0:0|1:0,0:0:0:0:
311,373,96949,2,0,P|289:260|292:189,1,160,2|2,0:0|0:0,0:0:0:0:
417,95,97390,2,0,P|391:140|362:175,1,80,0|0,1:0|0:0,0:0:0:0:
224,84,97684,5,2,0:0:0:0:
341,61,97831,1,0,0:0:0:0:
224,84,97978,2,0,P|204:159|203:180,1,80,0|0,1:0|0:0,0:0:0:0:
124,315,98272,2,0,P|106:248|97:220,2,80,2|2|0,0:0|0:0|1:0,0:0:0:0:
254,384,98714,2,0,P|262:265|309:215,1,160,2|2,0:0|0:0,0:0:0:0:
408,295,99155,2,0,P|348:316|313:330,1,80,0|0,1:0|0:0,0:0:0:0:
267,146,99449,1,2,0:0:0:0:
350,228,99596,1,2,0:0:0:0:
208,262,99743,1,0,1:0:0:0:
140,132,99890,1,2,0:0:0:0:
140,132,99964,1,2,0:0:0:0:
140,132,100037,6,0,P|125:71|113:47,1,80,2|0,0:0|0:0,0:0:0:0:
6,235,100331,2,0,P|54:215|96:209,1,80,0|0,1:0|0:0,0:0:0:0:
194,350,100625,1,2,0:0:0:0:
88,308,100772,2,0,P|69:363|64:390,1,80,2|0,0:0|1:0,0:0:0:0:
263,256,101066,1,2,0:0:0:0:
263,256,101140,1,2,0:0:0:0:
263,256,101214,2,0,P|191:247|135:207,1,120,2|0,0:0|0:0,0:0:0:0:
63,164,101508,2,0,P|120:123|142:115,1,80,0|0,1:0|0:0,0:0:0:0:
238,76,101802,1,2,0:0:0:0:
263,256,101949,2,0,P|248:195|244:155,1,80,2|0,0:0|1:0,0:0:0:0:
410,34,102243,6,0,P|369:117|367:200,1,160,6|0,0:0|0:0,0:0:0:0:
456,309,102684,1,0,1:0:0:0:
472,174,102831,1,0,1:0:0:0:
472,174,102905,1,0,1:0:0:0:
472,174,102978,1,0,1:0:0:0:
354,281,103125,1,4,0:3:0:0:
512,242,103272,1,0,1:0:0:0:
261,287,103419,6,0,L|162:284,1,80,4|0,0:0|0:0,0:0:0:0:
308,199,103714,2,0,L|235:196,1,60.0000022888184,4|0,0:0|0:0,0:0:0:0:
366,112,104008,2,0,L|309:110,1,47.9999985351563,4|0,0:0|0:0,0:0:0:0:
176,12,104449,6,0,P|193:68|186:146,1,120,2|0,0:0|0:0,0:0:0:0:
114,243,104743,6,0,P|105:200|86:139,1,103.999995239258,4|0,0:0|0:0,0:0:0:0:
27,234,105037,1,0,1:0:0:0:
189,357,105184,2,0,P|198:314|217:253,1,103.999995239258,2|0,0:0|0:0,0:0:0:0:
330,325,105478,1,4,0:3:0:0:
440,238,105625,1,0,1:0:0:0:
440,238,105772,2,0,P|382:217|341:185,1,103.999995239258,2|0,0:0|0:0,0:0:0:0:
218,126,106066,2,0,P|243:217|244:261,1,103.999995239258,2|0,0:0|1:0,0:0:0:0:
355,4,106361,2,0,P|330:95|329:139,1,103.999995239258,2|0,0:0|0:0,0:0:0:0:
415,166,106655,1,0,0:0:0:0:
237,55,106802,2,0,P|180:57|114:36,1,103.999995239258,0|0,1:0|0:0,0:0:0:0:
48,178,107096,6,0,P|106:164|158:155,1,103.999995239258,2|0,0:0|0:0,0:0:0:0:
221,265,107390,1,0,1:0:0:0:
367,147,107537,2,0,P|349:205|346:264,1,103.999995239258,2|0,0:0|0:0,0:0:0:0:
419,359,107831,1,2,0:0:0:0:
477,255,107978,1,0,1:0:0:0:
300,363,108125,2,0,P|224:333|200:307,1,103.999995239258,2|0,0:0|0:0,0:0:0:0:
37,249,108419,2,0,P|117:236|147:216,1,103.999995239258,2|0,0:0|1:0,0:0:0:0:
308,145,108714,2,0,P|226:137|196:118,1,103.999995239258,2|0,0:0|0:0,0:0:0:0:
91,67,109008,1,2,0:0:0:0:
257,32,109155,1,0,1:0:0:0:
200,254,109302,1,0,1:0:0:0:
200,254,109449,6,0,P|193:186|176:144,1,103.999995239258,2|0,0:0|0:0,0:0:0:0:
267,332,109743,1,0,1:0:0:0:
406,261,109890,2,0,P|346:242|289:231,1,103.999995239258,2|0,0:0|0:0,0:0:0:0:
128,225,110184,1,2,0:0:0:0:
265,132,110331,1,0,1:0:0:0:
133,4,110478,2,0,B|125:95|184:64|172:161,1,155.999992858887,2|0,0:0|0:0,0:0:0:0:
128,225,110772,1,2,0:0:0:0:
56,135,110919,1,0,1:0:0:0:
245,43,111066,2,0,P|263:113|260:157,1,103.999995239258,2|0,0:0|0:0,0:0:0:0:
211,296,111361,1,6,0:3:0:0:
211,296,111508,1,0,1:0:0:0:
174,142,111655,1,0,1:0:0:0:
326,245,111802,5,4,0:0:0:0:
131,245,111949,1,2,0:0:0:0:
311,171,112096,1,0,1:0:0:0:
311,171,112243,1,4,0:3:0:0:
224,299,112390,5,4,0:2:0:0:
163,127,112537,1,2,0:0:0:0:
331,179,112684,1,0,1:0:0:0:
150,346,112831,6,0,P|139:269|124:221,1,103.999995239258,4|0,0:2|0:0,0:0:0:0:
251,112,113125,1,2,0:0:0:0:
224,214,113272,1,0,1:0:0:0:
86,62,113419,1,4,0:3:0:0:
51,178,113566,5,0,1:0:0:0:
254,100,113714,1,4,0:3:0:0:
149,273,113861,5,0,1:0:0:0:
180,44,114008,1,4,0:3:0:0:
266,235,114155,6,0,P|243:301|231:359,1,103.999995239258,4|0,0:0|0:0,0:0:0:0:
325,149,114449,1,0,1:0:0:0:
436,289,114596,2,0,P|362:314|308:300,1,103.999995239258,2|0,0:0|0:0,0:0:0:0:
179,238,114890,1,4,0:3:0:0:
179,238,115037,1,0,1:0:0:0:
389,121,115184,2,0,P|375:196|372:233,1,103.999995239258,2|0,0:0|0:0,0:0:0:0:
219,12,115478,2,0,P|233:87|236:124,1,103.999995239258,2|0,0:0|1:0,0:0:0:0:
178,356,115772,2,0,P|197:249|291:257,1,207.999990478516,2|2,0:0|0:0,0:0:0:0:
355,348,116140,1,2,0:0:0:0:
355,348,116214,2,0,P|425:325|462:319,1,103.999995239258,0|0,1:0|0:0,0:0:0:0:
392,113,116508,5,2,0:0:0:0:
373,242,116655,1,0,0:3:0:0:
373,242,116802,1,0,1:0:0:0:
200,142,116949,2,0,P|259:140|305:127,1,103.999995239258,0|2,0:0|0:0,0:0:0:0:
423,25,117243,1,2,0:0:0:0:
442,193,117390,1,0,1:0:0:0:
234,65,117537,2,0,P|251:148|251:245,1,155.999992858887,2|0,0:0|0:0,0:0:0:0:
210,332,117831,2,0,P|285:310|324:308,1,103.999995239258,2|0,0:0|1:0,0:0:0:0:
149,236,118125,2,0,P|86:222|21:154,1,155.999992858887,2|0,0:0|0:0,0:0:0:0:
124,136,118419,1,0,0:0:0:0:
119,326,118566,1,0,1:0:0:0:
55,244,118714,1,0,1:0:0:0:
229,166,118861,6,0,P|212:234|212:290,1,103.999995239258,2|0,0:0|0:0,0:0:0:0:
336,228,119155,1,0,1:0:0:0:
290,39,119302,2,0,P|319:106|327:149,1,103.999995239258,2|0,0:0|0:0,0:0:0:0:
220,113,119596,1,2,0:0:0:0:
418,177,119743,1,0,1:0:0:0:
299,310,119890,2,0,P|250:294|186:280,1,103.999995239258,2|0,0:0|0:0,0:0:0:0:
57,193,120184,2,0,P|107:181|157:165,1,103.999995239258,2|0,0:0|1:0,0:0:0:0:
231,359,120478,1,2,0:0:0:0:
281,222,120625,1,0,0:0:0:0:
85,104,120772,1,0,1:3:0:0:
85,104,120846,1,0,1:3:0:0:
85,104,120919,1,0,1:0:0:0:
82,275,121066,6,0,P|142:261|195:242,1,103.999995239258,4|0,0:0|0:0,0:0:0:0:
243,141,121361,1,4,0:3:0:0:
365,376,121508,2,0,P|364:319|381:224,1,120,4|0,1:2|0:0,0:0:0:0:
385,150,121802,1,4,0:3:0:0:
462,234,121949,1,4,0:3:0:0:
312,69,122096,1,4,0:3:0:0:
449,81,122243,6,0,P|480:142|480:168,1,80,4|0,3:0|0:0,0:0:0:0:
307,161,122537,2,0,P|355:147|402:156,1,80,4|0,3:0|1:0,0:0:0:0:
346,320,122831,2,0,P|345:280|359:243,1,80,8|0,3:0|0:0,0:0:0:0:
473,370,123125,2,0,L|411:364,1,40,4|0,0:3|0:0,0:0:0:0:
215,283,123272,2,0,L|277:277,1,40,4|0,0:3|0:0,0:0:0:0:
360,150,123419,1,4,0:3:0:0:
360,150,123493,1,4,0:3:0:0:
360,150,123566,6,0,P|294:121|239:74,1,120,4|0,0:0|0:0,0:0:0:0:
106,222,123861,2,0,P|173:211|216:202,1,80,0|0,1:0|1:0,0:0:0:0:
184,208,124081,1,0,1:0:0:0:
184,208,124155,1,0,1:0:0:0:
188,115,124302,1,4,0:3:0:0:
204,304,124449,1,4,0:3:0:0:
94,20,124596,6,0,B|80:62|80:62|99:111,1,80,4|0,3:0|0:0,0:0:0:0:
220,259,124890,2,0,B|232:225|232:225|218:183,1,80,4|0,3:0|0:0,0:0:0:0:
57,7,125184,2,0,B|34:66|34:66|67:150,1,120,4|0,3:0|0:0,0:0:0:0:
85,205,125478,5,2,0:0:0:0:
198,160,125625,1,2,0:0:0:0:
310,106,125772,1,2,0:0:0:0:
175,19,125919,6,0,L|198:167,1,120,4|0,0:0|0:0,0:0:0:0:
219,246,126214,2,0,P|284:211|307:209,1,80,0|0,1:0|0:0,0:0:0:0:
375,347,126508,2,0,P|315:319|277:301,1,80,2|2,0:0|0:0,0:0:0:0:
416,216,126802,1,0,1:0:0:0:
336,27,126949,6,0,L|325:178,1,120,2|0,0:0|0:0,0:0:0:0:
241,101,127243,1,0,0:0:0:0:
423,147,127390,1,0,1:0:0:0:
240,226,127537,1,0,0:0:0:0:
327,146,127684,1,2,0:0:0:0:
348,345,127831,2,0,P|303:334|253:327,1,80,2|0,0:0|1:0,0:0:0:0:
89,227,128125,1,2,0:0:0:0:
89,227,128199,1,2,0:0:0:0:
89,227,128272,5,0,0:0:0:0:
144,344,128419,1,2,0:0:0:0:
270,169,128566,1,0,1:0:0:0:
191,253,128714,1,2,0:0:0:0:
191,253,128787,1,2,0:0:0:0:
191,253,128861,1,2,0:0:0:0:
107,89,129008,1,2,0:0:0:0:
85,215,129155,1,0,1:0:0:0:
330,108,129302,6,0,P|286:93|241:84,1,80,2|0,0:0|0:0,0:0:0:0:
118,0,129596,2,0,P|142:31|162:66,1,80,2|0,0:0|1:0,0:0:0:0:
130,229,129890,2,0,P|152:196|179:166,1,80,2|0,0:0|0:0,0:0:0:0:
269,338,130184,1,2,0:0:0:0:
223,248,130331,1,0,1:0:0:0:
340,155,130478,1,2,0:0:0:0:
340,155,130552,1,2,0:0:0:0:
340,155,130625,2,0,L|350:252,1,80,2|0,0:0|0:0,0:0:0:0:
467,57,130919,5,2,1:2:0:0:
439,179,131066,1,0,0:0:0:0:
271,164,131214,1,2,0:0:0:0:
391,79,131361,1,2,1:2:0:0:
424,266,131508,1,0,1:0:0:0:
264,183,131655,6,0,B|225:173|129:149,1,120,4|0,0:0|0:0,0:0:0:0:
66,136,131949,1,2,0:0:0:0:
260,17,132096,2,0,P|244:74|236:113,1,80,0|0,1:0|1:0,0:0:0:0:
175,262,132390,1,2,0:0:0:0:
148,97,132537,1,2,0:0:0:0:
291,296,132684,1,0,1:0:0:0:
109,178,132831,1,2,0:0:0:0:
284,208,132978,5,0,1:0:0:0:
416,67,133125,2,0,P|444:122|442:158,1,80,2|0,0:0|1:0,0:0:0:0:
302,255,133419,1,4,0:3:0:0:
302,255,133493,1,4,0:3:0:0:
302,255,133566,1,2,0:0:0:0:
403,196,133714,1,2,0:0:0:0:
202,307,133861,1,0,1:0:0:0:
306,99,134008,6,0,P|305:172|304:223,1,120,4|0,0:0|0:0,0:0:0:0:
210,73,134302,2,0,L|219:135,1,40,0|0,1:0|0:0,0:0:0:0:
395,205,134449,2,0,L|386:267,1,40,0|0,1:0|0:0,0:0:0:0:
303,374,134596,2,0,P|252:321|199:307,1,120,4|0,0:0|0:0,0:0:0:0:
128,363,134890,2,0,P|114:321|113:304,1,40,0|0,1:0|0:0,0:0:0:0:
176,165,135037,2,0,L|160:270,1,80,0|2,1:0|0:0,0:0:0:0:
100,81,135258,1,2,0:0:0:0:
100,81,135331,6,0,L|86:211,1,106.666666666667,0|2,1:0|0:0,1:0:0:0:
11,209,135625,2,0,L|22:89,1,106.666666666667,4|0,1:0|0:0,0:0:0:0:
113,0,135919,1,2,0:0:0:0:
25,28,136066,1,2,0:0:0:0:
236,16,136214,1,0,1:0:0:0:
110,204,136361,6,0,L|229:178,1,120,2|0,0:0|0:0,0:0:0:0:
305,151,136655,1,2,0:0:0:0:
195,86,136802,1,0,1:0:0:0:
360,213,136949,2,0,P|387:148|365:94,1,120,2|0,0:0|0:0,0:0:0:0:
288,50,137243,1,2,0:0:0:0:
194,257,137390,2,0,L|293:241,1,80,0|0,1:0|0:0,0:0:0:0:
422,350,137684,5,2,0:0:0:0:
467,227,137831,1,0,0:0:0:0:
307,143,137978,1,0,1:0:0:0:
356,262,138125,1,0,0:0:0:0:
510,153,138272,2,0,P|461:142|414:135,1,80,2|0,0:0|0:0,0:0:0:0:
310,168,138566,1,0,1:0:0:0:
469,25,138714,6,0,P|420:36|373:43,1,80,2|0,0:0|0:0,0:0:0:0:
225,171,139008,1,2,0:0:0:0:
314,97,139155,1,0,1:0:0:0:
190,32,139302,2,0,P|115:65|80:123,1,120,2|0,0:0|0:0,0:0:0:0:
181,140,139596,1,2,0:0:0:0:
45,295,139743,2,0,P|35:231|24:189,1,80,0|0,1:0|0:0,0:0:0:0:
149,344,139964,1,2,0:0:0:0:
149,344,140037,6,0,P|159:280|170:238,1,80,2|0,0:0|0:0,0:0:0:0:
309,229,140258,1,2,0:0:0:0:
309,229,140331,2,0,P|274:266|221:277,1,80,0|0,1:0|0:0,0:0:0:0:
120,179,140552,1,2,0:0:0:0:
120,179,140625,2,0,L|221:161,1,80,2|0,0:0|0:0,0:0:0:0:
334,78,140846,1,2,0:0:0:0:
334,78,140919,2,0,L|233:60,1,80,0|0,1:0|0:0,0:0:0:0:
134,49,141214,5,2,0:0:0:0:
158,259,141361,1,4,0:3:0:0:
364,189,141508,1,0,1:0:0:0:
364,189,141655,2,0,P|289:158|232:110,1,120,2|0,0:0|0:0,0:0:0:0:
344,92,141949,1,6,0:0:0:0:
282,300,142096,1,0,1:0:0:0:
488,318,142243,1,0,1:0:0:0:
488,318,142316,1,0,1:0:0:0:
488,318,142390,6,0,P|464:244|433:205,1,120,4|0,0:0|0:0,0:0:0:0:
332,308,142684,2,0,L|391:287,1,40,0|0,1:0|0:0,0:0:0:0:
492,137,142831,1,4,0:3:0:0:
321,99,142978,2,0,P|316:181|317:206,1,80,2|0,0:0|0:0,0:0:0:0:
489,120,143272,1,2,0:0:0:0:
342,10,143419,6,0,P|290:11|191:-1,1,120,2|0,0:0|0:0,0:0:0:0:
139,108,143714,2,0,L|199:99,1,40,4|4,0:3|0:3,0:0:0:0:
302,224,143861,2,0,L|191:207,1,80,0|2,1:0|0:0,0:0:0:0:
73,311,144155,1,4,0:3:0:0:
31,180,144302,1,2,0:0:0:0:
191,352,144449,1,0,1:0:0:0:
222,211,144596,1,2,0:0:0:0:
0,274,144743,6,0,B|55:301|55:301|127:300,1,120.000004577637,4|0,0:0|1:0,0:0:0:0:
186,142,145184,1,0,0:0:0:0:
186,142,145331,2,0,P|155:167|140:204,1,60.0000022888184,0|0,1:0|0:0,0:0:0:0:
232,329,145625,1,0,0:0:0:0:
232,329,145772,2,0,L|220:199,1,120.000004577637,2|0,0:0|0:0,0:0:0:0:
320,326,146214,2,0,L|311:238,1,60.0000022888184,0|0,1:0|0:0,0:0:0:0:
368,110,146508,2,0,P|400:170|384:242,1,120.000004577637,0|0,1:0|0:0,0:0:0:0:
305,183,146949,1,0,1:0:0:0:
434,49,147096,6,0,L|420:176,1,120.000004577637,2|0,0:0|1:0,0:0:0:0:
355,30,147537,1,0,0:0:0:0:
355,30,147684,2,0,L|346:106,1,60.0000022888184,2|0,0:2|0:0,0:0:0:0:
463,207,147978,2,0,P|430:172|404:164,1,60.0000022888184,0|0,1:0|1:0,0:0:0:0:
206,173,148272,2,0,B|261:196|261:196|336:176,1,120.000004577637,2|0,0:0|1:0,0:0:0:0:
252,105,148714,1,0,0:0:0:0:
146,238,148861,2,0,L|221:274,1,60.0000022888184,0|0,1:0|0:0,0:0:0:0:
76,299,149155,2,0,L|151:335,1,60.0000022888184,0|0,1:0|1:0,0:0:0:0:
277,269,149449,6,0,P|220:311|214:365,1,120.000004577637,4|0,0:0|1:0,0:0:0:0:
377,327,149890,1,0,0:0:0:0:
377,327,150037,2,0,P|368:271|364:243,2,60.0000022888184,0|0|0,1:0|0:0|0:0,0:0:0:0:
488,171,150478,2,0,P|481:269|478:299,1,120.000004577637,2|0,0:0|0:0,0:0:0:0:
316,207,150919,2,0,P|371:189|394:189,1,60.0000022888184,0|0,1:0|0:0,0:0:0:0:
491,88,151214,2,0,P|421:91|353:62,1,120.000004577637,0|0,1:0|1:0,0:0:0:0:
253,33,151655,1,0,1:0:0:0:
253,33,151802,6,0,P|273:93|273:117,1,60.0000022888184,2|0,0:0|0:0,0:0:0:0:
136,169,152096,1,0,1:0:0:0:
136,169,152243,2,0,L|176:123,1,60.0000022888184,2|0,0:0|0:0,0:0:0:0:
306,188,152537,2,0,P|255:177|227:178,1,60.0000022888184,0|0,0:0|1:0,0:0:0:0:
70,281,152831,2,0,P|132:271|214:268,1,120.000004577637,2|0,0:0|0:0,0:0:0:0:
278,325,153272,1,0,1:0:0:0:
354,259,153419,1,0,1:0:0:0:
241,144,153566,1,4,0:3:0:0:
351,49,153714,1,4,0:3:0:0:
324,186,153861,1,0,1:0:0:0:
228,49,154008,1,0,0:0:0:0:
126,168,154155,6,0,B|176:185|176:185|264:163,1,120.000004577637,4|0,0:0|1:0,0:0:0:0:
85,253,154596,1,0,0:0:0:0:
85,253,154743,2,0,L|153:281,2,60.0000022888184,0|0|0,1:0|0:0|0:0,0:0:0:0:
0,151,155184,2,0,P|41:142|108:83,1,120.000004577637,2|0,0:0|0:0,0:0:0:0:
216,28,155625,2,0,P|203:64|201:97,1,60.0000022888184,0|0,1:0|0:0,0:0:0:0:
214,193,155919,2,0,P|164:175|132:168,1,60.0000022888184,0|0,1:0|0:0,0:0:0:0:
99,304,156214,2,0,P|149:286|181:279,1,60.0000022888184,0|0,1:0|1:0,0:0:0:0:
282,193,156508,6,0,P|218:165|153:147,1,120.000004577637,2|0,0:0|1:0,0:0:0:0:
261,292,156949,1,0,0:0:0:0:
261,292,157096,2,0,P|272:339|273:364,1,60.0000022888184,2|0,0:0|0:0,0:0:0:0:
370,197,157390,2,0,L|360:267,1,60.0000022888184,0|0,1:0|1:0,0:0:0:0:
484,379,157684,2,0,P|465:330|469:247,1,120.000004577637,2|0,0:0|1:0,0:0:0:0:
466,147,158125,1,0,1:0:0:0:
466,147,158199,1,0,1:0:0:0:
466,147,158272,2,0,L|404:158,1,60.0000022888184,0|4,1:0|0:3,0:0:0:0:
285,54,158566,2,0,L|347:65,1,60.0000022888184,0|4,1:0|0:3,0:0:0:0:
276,200,158861,5,4,0:0:0:0:
185,100,159008,1,0,0:0:0:0:
293,219,159155,2,0,P|281:272|278:319,1,80,0|0,1:0|0:0,0:0:0:0:
143,178,159449,1,2,0:0:0:0:
177,287,159596,1,2,0:0:0:0:
177,287,159669,1,2,0:0:0:0:
177,287,159743,1,0,1:0:0:0:
349,162,159890,2,0,P|278:137|241:148,1,80,2|0,0:0|0:0,0:0:0:0:
242,278,160184,2,0,P|286:235|287:187,1,80,2|0,0:0|1:0,0:0:0:0:
191,125,160478,2,0,P|198:173|239:220,1,80,2|0,0:0|0:0,0:0:0:0:
327,16,160772,1,2,0:0:0:0:
327,16,160919,2,0,P|317:84|309:132,1,80,0|2,1:0|0:0,0:0:0:0:
296,186,161140,1,0,1:0:0:0:
296,186,161214,5,4,1:2:0:0:
92,170,161361,1,0,1:0:0:0:
156,347,161508,1,0,1:0:0:0:
197,61,161655,6,0,L|207:135,1,40,2|0,1:2|0:0,0:0:0:0:
223,290,161802,1,2,0:0:0:0:
87,111,161949,6,0,L|151:142,1,40,2|0,1:2|0:0,0:0:0:0:
312,236,162096,1,2,1:2:0:0:
95,249,162243,6,0,L|160:232,1,40,2|0,1:2|0:0,0:0:0:0:
339,166,162390,1,2,0:0:0:0:
197,61,162537,6,0,L|207:135,1,40,2|0,1:2|0:0,0:0:0:0:
230,306,162684,1,2,0:0:0:0:
431,251,162831,5,4,0:0:0:0:
113,132,172978,5,4,0:0:0:0:
221,60,173272,2,0,L|212:158,1,80,0|0,3:0|3:0,0:0:0:0:
314,33,173861,2,0,L|305:131,1,80,0|0,3:0|3:0,0:0:0:0:
414,13,174449,2,0,L|405:111,1,80,0|0,3:0|3:0,0:0:0:0:
389,254,175037,2,0,P|434:237|465:234,1,80,0|0,3:0|3:0,0:0:0:0:
300,179,175331,5,2,0:0:0:0:
220,308,175625,2,0,P|266:323|312:328,1,80,0|0,3:0|3:0,0:0:0:0:
103,262,176214,2,0,P|122:306|149:343,1,80,0|0,3:0|3:0,0:0:0:0:
62,161,176802,2,0,P|30:199|11:240,1,80,0|0,3:0|3:0,0:0:0:0:
119,49,177390,2,0,P|69:54|27:72,1,80,0|0,3:0|3:0,0:0:0:0:
159,180,177684,5,2,0:0:0:0:
318,121,177978,2,0,P|272:113|227:104,1,80,0|0,3:0|3:0,0:0:0:0:
157,245,178566,2,0,P|203:237|248:228,1,80,0|0,3:0|3:0,0:0:0:0:
329,357,179155,2,0,P|283:349|238:340,1,80,0|0,3:0|3:0,0:0:0:0:
147,216,179743,2,0,P|193:208|238:199,1,80,0|0,0:0|3:0,0:0:0:0:
290,70,180037,6,0,P|360:132|389:132,1,80.0000030517579,0|0,1:0|0:0,0:0:0:0:
188,107,180233,2,0,L|298:128,1,80.0000030517579,0|0,1:0|0:0,0:0:0:0:
111,229,180429,2,0,P|205:205|223:206,1,80.0000030517579,0|0,1:0|0:0,0:0:0:0:
293,357,180625,2,0,P|267:259|266:248,1,80.0000030517579,0|0,1:0|0:0,0:0:0:0:
369,75,180821,2,0,P|355:122|344:188,1,80.0000030517579,0|0,1:0|0:0,0:0:0:0:
462,384,181017,2,0,P|451:342|448:290,1,80.0000030517579,0|0,1:0|0:0,0:0:0:0:
512,78,181214,6,0,L|481:232,1,140,4|0,0:0|0:0,0:0:0:0:
298,26,181802,6,0,P|379:105|435:91,1,180.000006866455,4|0,0:0|0:0,0:0:0:0:
285,181,182096,2,0,P|359:193|412:183,1,120,4|0,0:0|0:0,0:0:0:0:
212,260,182390,6,0,P|194:204|188:133,1,103.999995239258,4|0,0:0|0:0,0:0:0:0:
200,63,182684,1,0,1:0:0:0:
386,164,182831,2,0,P|333:170|277:169,1,103.999995239258,2|0,0:0|0:0,0:0:0:0:
123,110,183125,1,2,0:0:0:0:
256,24,183272,1,0,1:0:0:0:
204,259,183419,2,0,P|190:188|181:145,1,103.999995239258,2|0,0:0|0:0,0:0:0:0:
319,375,183714,2,0,P|333:304|342:261,1,103.999995239258,2|0,0:0|1:0,0:0:0:0:
142,367,184008,2,0,P|120:258|106:192,1,155.999992858887,2|0,0:0|0:0,0:0:0:0:
45,316,184302,1,0,0:0:0:0:
273,184,184449,2,0,P|216:160|181:127,1,103.999995239258,0|0,1:0|0:0,0:0:0:0:
277,84,184669,1,2,0:0:0:0:
277,84,184743,5,4,0:0:0:0:
234,275,184890,1,2,0:0:0:0:
351,178,185037,1,0,1:0:0:0:
351,178,185184,2,0,P|416:181|458:189,1,103.999995239258,2|0,0:0|0:0,0:0:0:0:
319,384,185478,2,0,P|312:319|302:277,1,103.999995239258,2|0,0:0|1:0,0:0:0:0:
108,233,185772,2,0,P|177:228|237:207,1,103.999995239258,2|0,0:0|0:0,0:0:0:0:
368,73,186066,2,0,P|299:78|239:99,1,103.999995239258,2|0,0:0|1:0,0:0:0:0:
99,307,186361,2,0,P|169:304|260:278,1,155.999992858887,2|0,0:0|0:0,0:0:0:0:
325,207,186655,1,2,0:0:0:0:
168,98,186802,2,0,P|159:178|160:213,1,103.999995239258,0|0,1:0|0:0,0:0:0:0:
37,44,187096,6,0,P|55:117|70:213,1,155.999992858887,4|0,0:0|0:0,0:0:0:0:
20,283,187390,1,0,1:0:0:0:
129,383,187537,2,0,P|219:351|256:348,1,103.999995239258,2|0,0:0|0:0,0:0:0:0:
300,219,187831,2,0,P|210:187|173:184,1,103.999995239258,2|0,0:0|1:0,0:0:0:0:
356,376,188125,2,0,P|397:309|475:278,1,155.999992858887,2|0,0:0|0:0,0:0:0:0:
442,114,188419,2,0,P|409:201|404:229,1,103.999995239258,2|0,0:0|1:0,0:0:0:0:
222,98,188714,2,0,P|273:110|390:42,1,155.999992858887,2|0,0:0|0:0,0:0:0:0:
284,19,189008,1,2,0:0:0:0:
196,176,189155,2,0,P|254:193|305:194,1,103.999995239258,0|0,1:0|0:0,0:0:0:0:
412,292,189449,5,4,0:0:0:0:
260,353,189596,1,4,0:3:0:0:
403,202,189743,1,0,1:0:0:0:
403,202,189890,1,0,1:0:0:0:
222,98,190037,5,4,0:0:0:0:
268,269,190184,1,2,0:0:0:0:
485,218,190331,1,0,1:0:0:0:
357,64,190478,6,0,P|340:143|340:195,1,103.999995239258,4|0,0:0|0:0,0:0:0:0:
265,315,190772,1,2,0:0:0:0:
180,173,190919,1,0,1:0:0:0:
25,216,191066,1,0,0:0:0:0:
160,319,191214,5,0,1:0:0:0:
81,59,191361,1,4,0:3:0:0:
213,107,191508,5,0,1:3:0:0:
36,303,191655,1,4,0:3:0:0:
255,284,191802,6,0,P|329:277|384:273,1,103.999995239258,4|0,0:0|0:0,0:0:0:0:
510,118,192096,1,4,1:2:0:0:
378,1,192243,2,0,P|365:67|361:116,1,103.999995239258,2|0,0:0|0:0,0:0:0:0:
442,233,192537,1,4,0:3:0:0:
442,233,192684,1,0,1:0:0:0:
289,288,192831,2,0,P|242:238|194:218,1,103.999995239258,2|0,0:2|0:0,0:0:0:0:
81,180,193125,2,0,P|126:154|159:114,1,103.999995239258,2|0,0:0|1:0,0:0:0:0:
291,12,193419,2,0,P|281:76|271:179,1,155.999992858887,2|0,0:0|0:0,0:0:0:0:
254,271,193714,1,0,0:0:0:0:
441,242,193861,2,0,P|407:179|389:148,1,103.999995239258,0|0,1:0|0:0,0:0:0:0:
263,363,194155,6,0,B|326:325|326:325|422:325,1,155.999992858887,4|0,0:0|0:0,0:0:0:0:
506,330,194449,1,0,1:0:0:0:
365,133,194596,2,0,L|353:255,1,103.999995239258,2|0,0:0|0:0,0:0:0:0:
449,196,194890,1,2,0:0:0:0:
268,150,195037,1,0,1:0:0:0:
419,5,195184,2,0,P|443:73|452:119,1,103.999995239258,2|0,0:0|0:0,0:0:0:0:
232,75,195478,2,0,P|301:71|354:83,1,103.999995239258,2|0,0:0|1:0,0:0:0:0:
236,272,195772,2,0,P|259:208|286:173,1,103.999995239258,2|0,0:0|0:0,0:0:0:0:
348,272,196066,1,0,1:0:0:0:
186,174,196214,1,0,1:0:0:0:
114,379,196361,1,0,1:0:0:0:
85,213,196508,6,0,P|78:148|60:93,1,103.999995239258,4|0,0:0|0:0,0:0:0:0:
0,183,196802,1,0,1:0:0:0:
197,23,196949,2,0,P|181:73|177:157,1,103.999995239258,2|0,0:0|0:0,0:0:0:0:
305,252,197243,2,0,P|235:226|186:218,1,103.999995239258,2|0,0:0|1:0,0:0:0:0:
80,360,197537,2,0,P|138:350|209:324,1,103.999995239258,2|0,0:0|0:0,0:0:0:0:
318,162,197831,1,2,0:0:0:0:
291,303,197978,1,0,1:0:0:0:
154,161,198125,2,0,P|185:236|195:280,1,103.999995239258,2|0,0:0|1:0,0:0:0:0:
306,20,198419,1,0,1:0:0:0:
259,184,198566,1,0,1:0:0:0:
473,209,198714,6,0,P|431:140|363:110,1,155.999992858887,4|0,0:0|0:0,0:0:0:0:
359,223,199008,1,0,0:0:0:0:
484,55,199155,1,0,1:0:0:0:
279,117,199302,1,0,1:0:0:0:
279,117,199375,1,0,1:0:0:0:
279,117,199449,1,0,1:0:0:0:
355,8,199596,1,0,1:0:0:0:
273,237,199743,1,0,1:0:0:0:
113,152,199890,2,0,B|157:163|157:163|225:143,1,80,2|0,0:0|0:0,0:0:0:0:
113,240,200184,2,0,B|157:251|157:251|225:231,1,80,2|0,0:0|1:0,0:0:0:0:
117,335,200478,1,2,0:0:0:0:
296,329,200625,1,2,0:0:0:0:
202,251,200772,1,0,1:0:0:0:
202,251,200846,1,0,1:0:0:0:
202,251,200919,1,0,1:0:0:0:
229,384,201066,1,0,1:0:0:0:
341,266,201214,5,4,0:0:0:0:
96,176,201361,1,0,1:0:0:0:
271,83,201508,1,4,0:3:0:0:
186,345,201655,2,0,P|171:271|167:238,1,103.999995239258,2|4,1:2|0:3,0:0:0:0:
392,77,201949,2,0,P|384:128|373:179,1,103.999995239258,2|4,1:2|0:3,0:0:0:0:
235,123,202243,2,0,P|278:114|306:112,1,51.999997619629,0|2,1:0|0:0,0:0:0:0:
451,257,202390,5,4,0:3:0:0:
270,335,202537,1,0,1:2:0:0:
373,179,202684,1,4,1:3:0:0:
404,369,202831,1,2,1:2:0:0:
286,114,202978,2,0,P|251:194|253:235,1,103.999995239258,4|0,0:3|1:0,0:0:0:0:
455,44,203272,2,0,P|399:23|313:10,1,103.999995239258,4|0,0:3|1:0,0:0:0:0:
251,32,203493,1,2,0:0:0:0:
251,32,203566,5,4,0:3:0:0:
404,116,203714,1,0,1:0:0:0:
163,193,203861,1,4,0:3:0:0:
316,118,204008,2,0,P|303:192|299:235,1,103.999995239258,0|4,1:0|0:3,0:0:0:0:
205,384,204302,2,0,P|198:332|189:281,1,103.999995239258,2|4,1:2|0:3,0:0:0:0:
30,151,204596,2,0,P|66:129|107:115,1,51.999997619629,0|0,1:0|0:0,0:0:0:0:
226,92,204743,5,4,0:3:0:0:
126,336,204890,1,0,1:0:0:0:
83,203,205037,1,4,0:3:0:0:
321,181,205184,1,0,1:0:0:0:
261,290,205331,2,0,P|200:271|148:261,1,103.999995239258,4|0,0:3|1:0,0:0:0:0:
65,264,205625,1,4,0:3:0:0:
182,358,205772,1,4,0:3:0:0:
318,84,205919,6,0,P|301:133|291:197,1,103.999995239258,4|0,0:3|1:0,0:0:0:0:
360,263,206140,1,2,0:0:0:0:
360,263,206214,1,4,0:3:0:0:
208,75,206361,1,0,1:0:0:0:
477,104,206508,1,4,0:3:0:0:
334,143,206655,1,0,1:0:0:0:
411,4,206802,1,4,0:3:0:0:
506,249,206949,6,0,P|452:231|376:218,1,103.999995239258,2|4,1:2|0:3,0:0:0:0:
270,384,207243,2,0,P|324:366|400:353,1,103.999995239258,0|4,1:2|0:3,0:0:0:0:
234,131,207537,1,2,1:2:0:0:
276,304,207684,1,4,0:3:0:0:
390,172,207831,1,2,1:2:0:0:
121,160,207978,1,4,0:3:0:0:
121,160,208052,1,0,1:0:0:0:
121,160,208125,6,0,L|104:322,1,155.999992858887,4|0,1:2|0:0,0:0:0:0:
22,223,208419,1,2,0:0:0:0:
216,148,208566,2,0,B|225:206|225:206|205:264,1,103.999995239258,4|4,1:3|0:3,0:0:0:0:
124,68,208861,1,0,1:3:0:0:
328,159,209008,1,4,0:3:0:0:
229,39,209155,1,0,1:0:0:0:
66,169,209302,6,0,P|157:172|224:142,1,155.999992858887,0|0,1:0|0:0,0:0:0:0:
328,281,209596,2,0,P|265:269|223:275,1,103.999995239258,0|0,1:0|1:0,0:0:0:0:
271,361,209890,1,4,0:3:0:0:
340,147,210037,1,0,0:0:0:0:
411,253,210184,1,4,0:3:0:0:
226,170,210331,1,0,1:0:0:0:
393,67,210478,1,0,1:0:0:0:
113,218,210625,6,0,L|104:312,1,51.999997619629,4|0,0:0|0:0,0:0:0:0:
85,216,211655,6,0,L|76:310,1,51.999997619629,4|0,0:0|0:0,0:0:0:0:
60,213,212978,6,0,L|51:307,1,51.999997619629,4|0,0:0|0:0,0:0:0:0:
