osu file format v14

[General]
AudioFilename: MAD Raocow's Sky High Cat Planet x Sky High (1).mp3
AudioLeadIn: 0
PreviewTime: 12873
Countdown: 0
SampleSet: Soft
StackLeniency: 0.7
Mode: 2
LetterboxInBreaks: 0
WidescreenStoryboard: 0

[Editor]
DistanceSpacing: 1
BeatDivisor: 4
GridSize: 4
TimelineZoom: 1.9

[Metadata]
Title:Raocow's Sky High
TitleUnicode:Raocow's Sky High
Artist:KinkyOats feat. raocow
ArtistUnicode:KinkyOats feat. raocow
Creator:murutattack
Version:Salad
Source:
Tags:Kirby Nico Douga Jun Ishikawa Cat Planet
BeatmapID:700807
BeatmapSetID:313871

[Difficulty]
HPDrainRate:4
CircleSize:3
OverallDifficulty:6.5
ApproachRate:6.5
SliderMultiplier:1.3
SliderTickRate:1

[Events]
//Background and Video events
0,0,"Untitled2222.jpg",0,0
Video,0,"aaaa2.avi"
//Break Periods
//Storyboard Layer 0 (Background)
//Storyboard Layer 1 (Fail)
//Storyboard Layer 2 (Pass)
//Storyboard Layer 3 (Foreground)
//Storyboard Sound Samples

[TimingPoints]
6731,338.983050847458,4,2,1,70,1,0
7422,340.909090909091,4,2,1,70,1,0
10141,338.983050847458,4,2,1,70,1,0
12507,365.853658536585,4,2,1,70,1,0
12873,340.909090909091,4,2,1,70,1,0
42873,-100,4,2,1,80,0,1
48327,-100,4,2,1,70,0,0
59236,-100,4,2,1,80,0,1
64520,-100,4,2,1,70,0,0
72868,351.906158357771,4,2,1,70,1,0
75680,352.941176470588,7,2,1,70,1,0
78150,-100,7,1,0,70,0,0

[Colours]
Combo1 : 98,98,98
Combo2 : 206,206,206
Combo3 : 72,164,255

[HitObjects]
360,168,6731,6,0,P|416:240|340:276,1,195
256,256,7422,6,0,L|116:256,1,130
192,256,7933,1,0,0:0:0:0:
256,256,8103,6,0,L|396:256,1,130
320,256,8614,1,0,0:0:0:0:
240,280,8785,6,0,L|124:184,2,130
304,280,9637,1,0,0:0:0:0:
388,280,9808,1,8,0:0:0:0:
192,204,10141,6,0,L|100:204,2,65,0|0|8,0:0|0:0|0:0,0:0:0:0:
260,168,10649,1,0,0:0:0:0:
328,208,10818,2,0,L|396:208,2,65,0|0|8,0:0|0:0|0:0,0:0:0:0:
168,256,11496,5,2,0:0:0:0:
150,229,11580,1,2,0:0:0:0:
150,197,11665,1,2,0:0:0:0:
167,170,11750,1,2,0:0:0:0:
200,144,11835,1,2,0:0:0:0:
232,124,11919,1,2,0:0:0:0:
200,100,12004,1,2,0:0:0:0:
60,76,12174,5,0,0:0:0:0:
184,76,12507,1,8,0:0:0:0:
144,76,12598,1,8,0:0:0:0:
104,76,12689,1,8,0:0:0:0:
60,76,12781,1,8,0:0:0:0:
0,128,12873,6,0,L|152:128,1,130,4|8,0:0|0:0,0:0:0:0:
196,128,13384,1,0,0:0:0:0:
328,132,13554,2,0,L|420:132,2,65,0|0|8,0:0|0:0|0:0,0:0:0:0:
512,128,14236,6,0,L|360:128,1,130,0|8,0:0|0:0,0:0:0:0:
288,128,14748,1,0,0:0:0:0:
388,192,14918,2,0,L|308:192,1,65,0|8,0:0|0:0,0:0:0:0:
258,192,15259,1,0,0:0:0:0:
60,192,15600,6,0,L|216:192,1,130
288,192,16111,1,0,0:0:0:0:
392,192,16282,2,0,L|456:192,2,65,0|0|8,0:0|0:0|0:0,0:0:0:0:
280,216,16963,6,2,L|216:216,1,65,10|2,0:0|0:0,0:0:0:0:
280,216,17304,2,2,L|344:216,1,65,10|2,0:0|0:0,0:0:0:0:
475,216,17645,1,0,0:0:0:0:
410,216,17815,1,0,0:0:0:0:
345,216,17985,1,8,0:0:0:0:
152,204,18327,6,0,L|48:96,1,130,0|2,0:0|0:0,0:0:0:0:
160,92,18838,2,0,L|216:44,2,65
28,248,19350,1,8,0:0:0:0:
152,248,19691,5,0,0:0:0:0:
217,248,19861,1,0,0:0:0:0:
282,248,20031,1,0,0:0:0:0:
412,184,20373,2,2,L|268:184,1,130,2|10,0:0|0:0,0:0:0:0:
96,152,21054,6,2,P|140:92|216:92,1,130,2|10,0:0|0:0,0:0:0:0:
248,80,21565,1,0,0:0:0:0:
348,152,21736,2,2,P|304:92|228:92,1,130,2|10,0:0|0:0,0:0:0:0:
396,112,22418,1,2,0:0:0:0:
200,200,22759,2,0,P|272:200|264:144,1,130
176,176,23270,2,2,L|88:176,1,65,10|4,0:0|0:0,0:0:0:0:
312,176,23782,6,2,L|464:176,1,130,0|0,0:0|0:0,0:0:0:0:
372,176,24292,1,0,0:0:0:0:
303,176,24463,2,0,L|387:176,1,65
444,260,24804,1,8,0:0:0:0:
200,176,25145,6,2,L|48:176,1,130,0|0,0:0|0:0,0:0:0:0:
140,176,25657,1,0,0:0:0:0:
209,176,25827,2,0,L|125:176,1,65,0|8,0:0|0:0,0:0:0:0:
68,260,26167,1,8,0:0:0:0:
276,176,26509,6,2,P|348:160|412:184,2,130
176,176,27361,2,0,L|96:176,1,65,0|8,0:0|0:0,0:0:0:0:
264,288,27873,6,0,L|288:288|320:288,1,32.5,0|8,0:0|0:0,0:0:0:0:
360,288,28128,2,0,L|408:288,1,32.5,0|8,0:0|0:0,0:0:0:0:
460,288,28384,1,0,0:0:0:0:
329,288,28554,2,0,L|257:288,2,65,8|0|12,0:0|0:0|0:0,0:0:0:0:
460,288,29236,5,0,0:0:0:0:
264,288,29577,2,0,P|204:264|208:196,1,130
300,212,30088,2,0,L|365:212,1,65,0|8,0:0|0:0,0:0:0:0:
104,208,30600,5,0,0:0:0:0:
300,212,30941,1,0,0:0:0:0:
392,188,31111,1,0,0:0:0:0:
456,108,31281,1,0,0:0:0:0:
392,40,31452,2,0,L|327:40,1,65,0|8,0:0|0:0,0:0:0:0:
140,280,31963,6,0,P|44:216|84:72,1,260
136,80,32816,2,0,L|204:72,1,65,0|8,0:0|0:0,0:0:0:0:
428,228,33327,2,0,L|228:228,1,195
168,228,34009,1,8,0:0:0:0:
472,152,34520,6,2,L|384:152,1,65,2|6,0:0|0:0,0:0:0:0:
132,136,35202,5,0,0:0:0:0:
212,144,35373,2,0,L|68:144,2,130
280,148,36225,1,0,0:0:0:0:
202,143,36395,2,0,L|50:143,2,130,0|0|8,0:0|0:0|0:0,0:0:0:0:
440,192,37418,6,2,L|290:193,1,130
132,192,38100,2,2,L|28:88,1,130
180,120,38782,1,0,0:0:0:0:
332,136,39123,2,0,L|448:52,2,130
232,344,40145,6,0,P|140:268|136:244,1,130,0|2,0:0|0:0,0:0:0:0:
212,200,40656,1,8,0:0:0:0:
136,144,40827,2,0,P|160:96|240:64,1,130,0|10,0:0|0:0,0:0:0:0:
424,104,41509,6,8,P|380:188|328:208,1,130
135,229,42191,1,8,0:0:0:0:
101,150,42361,1,8,0:0:0:0:
198,126,42532,1,8,0:0:0:0:
240,112,42617,1,8,0:0:0:0:
280,96,42702,1,8,0:0:0:0:
400,188,42873,6,0,L|508:88,2,130,4|0|0,0:0|0:0|0:0,0:0:0:0:
332,188,43725,2,0,L|236:188,1,65,0|8,0:0|0:0,0:0:0:0:
39,192,44236,2,0,L|191:192,2,130
104,192,45088,2,0,L|198:192,1,65,2|8,0:0|0:0,0:0:0:0:
376,192,45600,5,0,0:0:0:0:
441,192,45770,1,0,0:0:0:0:
506,192,45940,1,8,0:0:0:0:
376,112,46282,1,0,0:0:0:0:
311,112,46452,1,0,0:0:0:0:
246,112,46622,1,8,0:0:0:0:
48,112,46963,6,8,L|160:16,2,130
128,116,47816,1,0,0:0:0:0:
208,116,47986,1,12,0:0:0:0:
404,184,48327,6,0,P|456:140|444:60,1,130,0|8,0:0|0:0,0:0:0:0:
376,96,48838,2,0,L|304:112,1,65
232,132,49179,1,0,0:0:0:0:
100,176,49350,1,8,0:0:0:0:
300,188,49691,6,0,L|404:84,1,130,8|0,0:0|0:0,0:0:0:0:
296,72,50202,2,0,L|228:8,2,65
428,80,50713,1,8,0:0:0:0:
296,80,51054,6,0,L|128:80,1,130,0|8,0:0|0:0,0:0:0:0:
100,80,51566,1,0,0:0:0:0:
36,152,51736,1,0,0:0:0:0:
101,152,51906,1,0,0:0:0:0:
166,152,52076,1,8,0:0:0:0:
376,156,52418,2,0,P|400:104|324:68,1,130
256,60,52929,1,0,0:0:0:0:
144,108,53100,2,2,L|88:56,2,65,2|2|6,0:0|0:0|0:0,0:0:0:0:
340,132,53782,6,0,L|444:52,2,130,8|0|0,0:0|0:0|0:0,0:0:0:0:
272,136,54634,1,0,0:0:0:0:
208,136,54804,1,8,0:0:0:0:
16,160,55145,6,0,L|160:144,2,130,8|0|0,0:0|0:0|0:0,0:0:0:0:
100,220,55998,1,0,0:0:0:0:
184,220,56168,1,8,0:0:0:0:
276,224,56338,1,0,0:0:0:0:
376,236,56509,6,0,L|440:172,1,65,0|8,0:0|0:0,0:0:0:0:
340,236,56850,2,0,L|268:236,1,65,0|8,0:0|0:0,0:0:0:0:
176,244,57191,2,0,L|248:116,1,130,0|8,0:0|0:0,0:0:0:0:
376,168,57873,2,0,L|452:168,2,65,8|0|8,0:0|0:0|0:0,0:0:0:0:
244,172,58384,2,0,P|220:136|316:48,1,195,8|4,0:0|0:0,0:0:0:0:
436,192,59236,6,0,P|480:156|496:80,2,130,8|0|0,0:0|0:0|0:0,0:0:0:0:
368,200,60088,1,0,0:0:0:0:
300,200,60259,1,8,0:0:0:0:
76,192,60600,6,0,P|32:156|32:80,1,130,8|0,0:0|0:0,0:0:0:0:
112,40,61111,1,8,0:0:0:0:
184,112,61282,2,0,L|252:56,2,65,0|0|8,0:0|0:0|0:0,0:0:0:0:
312,56,61963,6,0,L|232:176,1,130,0|8,0:0|0:0,0:0:0:0:
356,52,62645,2,0,L|404:192,1,130,0|8,0:0|0:0,0:0:0:0:
120,244,63327,2,0,P|36:180|152:108,1,260,0|8,0:0|0:0,0:0:0:0:
380,88,64520,6,0,L|444:104,1,65,0|4,0:0|0:0,0:0:0:0:
317,189,65202,1,0,0:0:0:0:
384,196,65373,2,0,L|248:236,1,130,8|0,0:0|0:0,0:0:0:0:
128,236,66054,1,0,0:0:0:0:
63,236,66224,1,0,0:0:0:0:
24,176,66394,1,0,0:0:0:0:
92,164,66566,1,0,0:0:0:0:
200,140,66736,2,0,L|288:140|344:108,1,130,8|0,0:0|0:0,0:0:0:0:
456,228,67418,6,0,L|280:236,1,130,2|0,0:0|0:0,0:0:0:0:
68,240,68100,1,2,0:0:0:0:
136,240,68270,1,10,0:0:0:0:
328,272,68782,2,0,L|496:152,2,195,8|8|8,0:0|0:0|0:0,0:0:0:0:
456,192,70145,6,0,L|360:64,1,130,10|8,0:0|0:0,0:0:0:0:
148,192,70827,2,0,L|300:192,1,130,10|8,0:0|0:0,0:0:0:0:
472,184,71509,1,0,0:0:0:0:
407,184,71679,1,0,0:0:0:0:
342,184,71849,1,8,0:0:0:0:
80,112,72191,1,4,0:0:0:0:
216,116,72532,1,2,0:0:0:0:
184,128,72617,1,2,0:0:0:0:
148,140,72702,1,2,0:0:0:0:
56,192,72868,6,0,P|248:208|232:64,1,390,0|8,0:0|0:0,0:0:0:0:
456,216,74275,2,0,P|320:256|320:64,1,390,0|8,0:0|0:0,0:0:0:0:
60,292,75680,2,0,P|202:282|156:84,1,390,0|8,0:0|0:0,0:0:0:0:
288,144,76974,5,0,0:0:0:0:
332,160,77091,2,0,L|420:128,1,86.6666666666667,8|0,0:0|0:0,0:0:0:0:
448,116,77444,2,0,L|364:76,1,86.6666666666667,8|0,0:0|0:0,0:0:0:0:
328,60,77797,1,8,0:0:0:0:
60,72,78150,1,4,0:0:0:0:
