osu file format v14

[General]
AudioFilename: MAD Raocow's Sky High Cat Planet x Sky High (1).mp3
AudioLeadIn: 0
PreviewTime: 12873
Countdown: 0
SampleSet: Soft
StackLeniency: 0.7
Mode: 2
LetterboxInBreaks: 0
WidescreenStoryboard: 0

[Editor]
DistanceSpacing: 1.3
BeatDivisor: 4
GridSize: 4
TimelineZoom: 1.9

[Metadata]
Title:Raocow's Sky High
TitleUnicode:Raocow's Sky High
Artist:KinkyOats feat. raocow
ArtistUnicode:KinkyOats feat. raocow
Creator:murutattack
Version:Cup
Source:
Tags:Kirby Nico Douga Jun Ishikawa Cat Planet
BeatmapID:708079
BeatmapSetID:313871

[Difficulty]
HPDrainRate:3
CircleSize:2.5
OverallDifficulty:5
ApproachRate:5
SliderMultiplier:1
SliderTickRate:1

[Events]
//Background and Video events
0,0,"Untitled2222.jpg",0,0
Video,0,"aaaa2.avi"
//Break Periods
//Storyboard Layer 0 (Background)
//Storyboard Layer 1 (Fail)
//Storyboard Layer 2 (Pass)
//Storyboard Layer 3 (Foreground)
//Storyboard Sound Samples

[TimingPoints]
6731,338.983050847458,4,2,1,70,1,0
7422,340.909090909091,4,2,1,70,1,0
10141,338.983050847458,4,2,1,70,1,0
12507,365.853658536585,4,2,1,70,1,0
12873,340.909090909091,4,2,1,70,1,0
42873,-100,4,2,1,80,0,1
48327,-100,4,2,1,70,0,0
59236,-100,4,2,1,80,0,1
64520,-100,4,2,1,70,0,0
72868,351.906158357771,4,2,1,70,1,0
75680,352.941176470588,7,2,1,70,1,0
78150,-100,7,1,0,70,0,0

[Colours]
Combo1 : 98,98,98
Combo2 : 206,206,206
Combo3 : 72,164,255

[HitObjects]
112,192,7422,6,2,L|200:120,2,100
256,192,8444,1,8,0:0:0:0:
400,192,8785,6,2,L|304:120,2,100
216,192,9808,1,8,0:0:0:0:
72,192,10141,6,2,L|72:80,1,100
192,88,10818,2,2,L|208:200,1,100
336,192,11496,6,2,L|367:94,1,100
448,88,12174,1,8,0:0:0:0:
376,176,12507,1,4,0:0:0:0:
224,80,12873,6,2,L|176:184,1,100,0|0,0:0|0:0,0:0:0:0:
72,176,13554,2,2,L|40:80,1,100,0|10,0:0|0:0,0:0:0:0:
152,312,14236,6,2,L|232:224,2,100
252,312,15259,1,8,0:0:0:0:
352,320,15600,6,0,L|252:327,1,100
152,264,16282,2,0,L|264:256,1,100,0|8,0:0|0:0,0:0:0:0:
392,208,16963,6,2,L|464:120,2,100
292,256,17986,1,4,0:0:0:0:
152,312,18327,6,0,P|176:256|160:208,1,100
84,192,19009,2,0,L|204:192,1,100,0|8,0:0|0:0,0:0:0:0:
320,292,19691,6,0,P|296:236|312:188,1,100
388,172,20373,2,0,L|268:172,1,100,0|8,0:0|0:0,0:0:0:0:
132,104,21054,6,2,P|116:160|180:288,1,200
272,288,22077,1,8,0:0:0:0:
372,280,22418,6,0,P|425:198|413:101,1,200
292,100,23441,1,4,0:0:0:0:
144,72,23782,6,0,P|96:88|32:64,1,100
160,176,24463,2,0,P|200:160|256:176,1,100,0|8,0:0|0:0,0:0:0:0:
384,92,25145,2,0,P|424:136|324:192,1,200
228,92,26168,1,8,0:0:0:0:
368,72,26509,6,0,P|416:88|480:64,1,100
352,176,27191,2,0,P|312:160|240:184,1,100,0|8,0:0|0:0,0:0:0:0:
92,200,27873,6,0,P|92:248|140:288,2,100
196,192,28895,1,4,0:0:0:0:
328,144,29236,6,0,L|256:56,1,100
176,144,29918,1,0,0:0:0:0:
328,144,30259,1,8,0:0:0:0:
184,144,30600,6,0,L|256:56,1,100
336,144,31282,1,0,0:0:0:0:
184,144,31623,1,8,0:0:0:0:
368,208,31963,6,0,L|320:112,1,100
193,116,32645,2,0,L|232:24,1,100,0|8,0:0|0:0,0:0:0:0:
92,192,33327,2,0,L|4:112,2,100,0|0|8,0:0|0:0|0:0,0:0:0:0:
388,196,34691,5,4,0:0:0:0:
232,192,35202,2,0,L|124:192,1,100
208,192,35713,1,0,0:0:0:0:
76,132,36054,6,0,L|4:56,2,100
156,132,37077,1,8,0:0:0:0:
300,104,37418,6,0,L|508:152,1,200
412,200,38441,1,8,0:0:0:0:
288,232,38782,2,0,L|93:276,1,200
8,304,39804,1,8,0:0:0:0:
120,276,40145,6,0,L|392:120,1,300
472,72,41509,1,0,0:0:0:0:
340,248,41850,1,0,0:0:0:0:
208,248,42191,1,4,0:0:0:0:
384,248,42873,6,0,P|448:232|480:264,1,100,0|8,0:0|0:0,0:0:0:0:
340,252,43554,2,0,P|300:244|252:212,1,100,0|8,0:0|0:0,0:0:0:0:
104,152,44236,2,0,P|128:192|164:232,1,100,0|8,0:0|0:0,0:0:0:0:
260,228,44918,2,0,P|292:252|348:228,1,100,0|8,0:0|0:0,0:0:0:0:
464,156,45600,6,0,L|352:156,1,100,0|8,0:0|0:0,0:0:0:0:
224,156,46282,2,0,L|328:156,1,100,0|8,0:0|0:0,0:0:0:0:
424,232,46963,2,2,P|448:196|416:152,1,100,2|10,0:0|0:0,0:0:0:0:
292,208,47645,2,8,L|192:208,1,100,0|4,0:0|0:0,0:0:0:0:
52,176,48327,6,0,L|156:120,1,100
240,32,49009,2,0,L|264:144,1,100,0|8,0:0|0:0,0:0:0:0:
432,168,49691,2,0,L|336:240,2,100
272,168,50713,1,8,0:0:0:0:
120,152,51054,6,0,L|200:240,1,100
108,228,51736,1,0,0:0:0:0:
248,232,52077,1,0,0:0:0:0:
392,152,52418,6,0,L|312:240,1,100
204,200,53100,2,2,P|180:164|212:120,1,100
352,192,53782,5,6,0:0:0:0:
240,192,54123,1,0,0:0:0:0:
120,116,54463,2,0,P|112:188|124:212,1,100,2|8,0:0|0:0,0:0:0:0:
256,192,55145,5,0,0:0:0:0:
368,192,55486,1,0,0:0:0:0:
236,192,55827,2,0,P|220:136|244:88,1,100,0|8,0:0|0:0,0:0:0:0:
336,192,56509,6,0,L|232:192,1,100
144,192,57020,1,0,0:0:0:0:
52,192,57191,2,0,L|124:120,1,100,0|8,0:0|0:0,0:0:0:0:
256,48,57873,6,2,P|328:56|352:136,1,150,10|10,0:0|0:0,0:0:0:0:
200,128,58725,1,4,0:0:0:0:
40,160,59236,6,0,L|152:160,1,100,0|8,0:0|0:0,0:0:0:0:
248,128,59918,2,0,L|312:32,1,100,0|8,0:0|0:0,0:0:0:0:
472,160,60600,2,0,L|360:160,1,100,0|8,0:0|0:0,0:0:0:0:
272,160,61282,2,0,L|216:56,1,100,0|8,0:0|0:0,0:0:0:0:
112,144,61963,6,0,L|54:48,2,100
256,192,62986,1,8,0:0:0:0:
384,144,63327,2,0,P|416:192|368:328,1,200,0|4,0:0|0:0,0:0:0:0:
120,316,64691,5,4,0:0:0:0:
328,316,65202,1,0,0:0:0:0:
276,316,65373,2,0,L|156:316,2,100,8|0|8,0:0|0:0|0:0,0:0:0:0:
176,316,66395,1,0,0:0:0:0:
76,324,66736,2,0,L|184:320,1,100,0|8,0:0|0:0,0:0:0:0:
316,320,67418,6,0,P|364:280|364:224,1,100
256,144,68100,2,2,L|220:256|220:256,1,100,2|10,0:0|0:0,0:0:0:0:
112,324,68782,6,0,P|64:284|64:228,1,100
204,248,69463,2,2,P|228:212|196:168,1,100,2|10,0:0|0:0,0:0:0:0:
100,252,70145,6,0,L|20:180,2,100,8|0|8,0:0|0:0|0:0,0:0:0:0:
240,252,71168,1,8,0:0:0:0:
120,232,71509,2,0,P|96:192|80:120,2,100,8|0|8,0:0|0:0|0:0,0:0:0:0:
240,208,72532,1,4,0:0:0:0:
56,176,72868,6,0,L|160:120,1,100,0|8,0:0|0:0,0:0:0:0:
240,32,73571,2,0,L|264:152,1,100,0|8,0:0|0:0,0:0:0:0:
424,168,74275,2,0,L|328:240,2,100
320,128,75331,1,8,0:0:0:0:
220,140,75680,6,0,P|204:188|20:124,1,300,0|8,0:0|0:0,0:0:0:0:
124,128,76974,1,8,0:0:0:0:
160,128,77091,2,0,L|264:128,2,100,8|0|0,0:0|0:0|0:0,0:0:0:0:
360,132,78150,1,4,0:0:0:0:
