osu file format v14

[General]
AudioFilename: MAD Raocow's Sky High Cat Planet x Sky High (1).mp3
AudioLeadIn: 0
PreviewTime: 12873
Countdown: 0
SampleSet: Soft
StackLeniency: 0.7
Mode: 2
LetterboxInBreaks: 0
WidescreenStoryboard: 0

[Editor]
DistanceSpacing: 1.6
BeatDivisor: 6
GridSize: 8
TimelineZoom: 1.9

[Metadata]
Title:Raocow's Sky High
TitleUnicode:Raocow's Sky High
Artist:KinkyOats feat. raocow
ArtistUnicode:KinkyOats feat. raocow
Creator:murutattack
Version:CATS
Source:
Tags:Kirby Nico Douga Jun Ishikawa Cat Planet
BeatmapID:700585
BeatmapSetID:313871

[Difficulty]
HPDrainRate:6
CircleSize:4
OverallDifficulty:9
ApproachRate:9
SliderMultiplier:1.5
SliderTickRate:2

[Events]
//Background and Video events
0,0,"Untitled2222.jpg",0,0
Video,0,"aaaa2.avi"
//Break Periods
//Storyboard Layer 0 (Background)
//Storyboard Layer 1 (Fail)
//Storyboard Layer 2 (Pass)
//Storyboard Layer 3 (Foreground)
//Storyboard Sound Samples

[TimingPoints]
6731,338.983050847458,4,2,1,70,1,0
7422,340.909090909091,4,2,1,70,1,0
10141,338.983050847458,4,2,1,70,1,0
12507,365.853658536585,4,2,1,70,1,0
12873,340.909090909091,4,2,1,70,1,0
42873,-100,4,2,1,80,0,1
48327,-100,4,2,1,70,0,0
59236,-100,4,2,1,80,0,1
64520,-100,4,2,1,70,0,0
72868,351.906158357771,4,2,1,70,1,0
75680,352.941176470588,7,2,1,70,1,0
78150,-100,7,1,0,70,0,0

[Colours]
Combo1 : 98,98,98
Combo2 : 206,206,206
Combo3 : 72,164,255

[HitObjects]
216,328,6731,6,0,P|320:288|224:256,1,262.5
128,344,7422,5,2,0:0:0:0:
64,304,7507,1,0,0:0:0:0:
24,240,7592,1,2,0:0:0:0:
8,168,7677,1,0,0:0:0:0:
32,104,7762,1,2,0:0:0:0:
80,72,7848,1,0,0:0:0:0:
136,80,7933,1,2,0:0:0:0:
192,80,8018,1,0,0:0:0:0:
344,344,8103,5,2,0:0:0:0:
408,304,8188,1,0,0:0:0:0:
448,240,8273,1,2,0:0:0:0:
464,168,8358,1,0,0:0:0:0:
440,104,8443,1,2,0:0:0:0:
392,72,8529,1,0,0:0:0:0:
336,72,8614,1,2,0:0:0:0:
280,72,8699,1,0,0:0:0:0:
336,128,8785,5,0,0:0:0:0:
392,208,8870,1,0,0:0:0:0:
368,288,8955,1,0,0:0:0:0:
312,344,9040,1,0,0:0:0:0:
232,352,9125,1,0,0:0:0:0:
168,312,9211,1,0,0:0:0:0:
144,240,9296,1,0,0:0:0:0:
192,176,9381,1,0,0:0:0:0:
344,184,9467,5,2,0:0:0:0:
384,160,9552,1,0,0:0:0:0:
392,120,9637,1,2,0:0:0:0:
360,96,9723,1,0,0:0:0:0:
176,176,9808,5,2,0:0:0:0:
136,152,9893,1,0,0:0:0:0:
128,112,9978,1,2,0:0:0:0:
160,88,10064,1,0,0:0:0:0:
400,112,10141,6,0,L|472:40,2,75,0|0|8,0:0|0:0|0:0,0:0:0:0:
320,112,10649,1,0,0:0:0:0:
232,64,10818,2,0,P|184:136|224:208,1,150,0|8,0:0|0:0,0:0:0:0:
368,160,11327,1,0,0:0:0:0:
112,184,11496,5,0,0:0:0:0:
120,147,11580,1,0,0:0:0:0:
145,120,11665,1,0,0:0:0:0:
181,110,11750,1,0,0:0:0:0:
336,176,11835,5,0,0:0:0:0:
368,152,11919,1,0,0:0:0:0:
366,120,12004,1,0,0:0:0:0:
330,110,12089,1,0,0:0:0:0:
112,48,12174,1,10,0:0:0:0:
320,248,12507,5,8,0:0:0:0:
280,232,12598,1,8,0:0:0:0:
256,208,12689,1,8,0:0:0:0:
292,208,12781,1,2,0:0:0:0:
440,328,12872,5,4,0:0:0:0:
304,272,13043,1,0,0:0:0:0:
272,272,13128,1,0,0:0:0:0:
240,272,13213,1,0,0:0:0:0:
120,192,13384,1,0,0:0:0:0:
80,232,13469,1,0,0:0:0:0:
120,272,13554,1,0,0:0:0:0:
280,280,13725,1,0,0:0:0:0:
336,232,13810,1,0,0:0:0:0:
280,184,13895,1,8,0:0:0:0:
16,160,14236,5,8,0:0:0:0:
168,160,14407,1,0,0:0:0:0:
128,160,14492,1,0,0:0:0:0:
88,160,14577,1,0,0:0:0:0:
320,176,14748,1,0,0:0:0:0:
368,232,14833,1,0,0:0:0:0:
320,288,14918,1,0,0:0:0:0:
192,176,15088,1,8,0:0:0:0:
424,160,15259,1,8,0:0:0:0:
232,280,15600,5,8,0:0:0:0:
344,288,15770,1,0,0:0:0:0:
376,232,15855,1,0,0:0:0:0:
344,176,15941,1,0,0:0:0:0:
160,280,16111,1,0,0:0:0:0:
128,224,16196,1,0,0:0:0:0:
160,168,16282,1,0,0:0:0:0:
344,192,16452,1,0,0:0:0:0:
376,136,16537,1,0,0:0:0:0:
344,80,16623,1,8,0:0:0:0:
120,160,16963,6,0,L|176:160,1,37.5,8|0,0:0|0:0,0:0:0:0:
216,160,17134,2,0,L|264:160,1,37.5
328,160,17304,2,0,L|272:160,1,37.5
232,160,17475,2,0,L|184:160,1,37.5
136,160,17645,5,0,0:0:0:0:
304,160,17816,1,8,0:0:0:0:
64,160,17986,1,12,0:0:0:0:
264,152,18327,5,8,0:0:0:0:
104,80,18583,2,0,L|168:80,1,37.5
296,80,18838,1,0,0:0:0:0:
256,96,18924,1,0,0:0:0:0:
216,112,19009,1,0,0:0:0:0:
328,168,19179,2,0,L|416:208,1,75,0|8,0:0|0:0,0:0:0:0:
104,176,19691,6,2,L|48:176,2,37.5
144,176,19946,1,0,0:0:0:0:
251,176,20032,2,0,L|176:176,1,75
344,176,20373,2,2,L|432:176,2,75,2|2|10,0:0|0:0|0:0,0:0:0:0:
112,176,20884,1,0,0:0:0:0:
208,288,21054,5,8,0:0:0:0:
328,248,21225,1,0,0:0:0:0:
368,248,21310,1,0,0:0:0:0:
408,248,21395,1,8,0:0:0:0:
168,192,21566,2,0,L|224:192,1,37.5
272,112,21736,6,8,L|328:112,2,37.5,8|0|0,0:0|0:0|0:0,0:0:0:0:
232,112,21992,1,0,0:0:0:0:
136,112,22077,2,0,L|224:112,1,75,8|0,0:0|0:0,0:0:0:0:
368,192,22418,6,2,L|456:192,1,75
368,192,22674,1,2,0:0:0:0:
296,192,22759,2,2,L|208:192,1,75
80,192,23100,1,0,0:0:0:0:
256,192,23270,1,8,0:0:0:0:
0,192,23440,1,4,0:0:0:0:
224,104,23782,5,8,0:0:0:0:
88,176,23952,1,0,0:0:0:0:
136,176,24037,1,0,0:0:0:0:
184,176,24123,1,0,0:0:0:0:
376,192,24293,1,0,0:0:0:0:
432,152,24378,1,0,0:0:0:0:
376,112,24463,1,0,0:0:0:0:
256,192,24634,1,0,0:0:0:0:
208,192,24719,1,0,0:0:0:0:
256,192,24804,1,8,0:0:0:0:
112,184,25145,5,8,0:0:0:0:
264,160,25316,1,0,0:0:0:0:
328,160,25401,1,0,0:0:0:0:
384,160,25486,1,0,0:0:0:0:
288,304,25657,1,0,0:0:0:0:
224,304,25742,1,0,0:0:0:0:
160,304,25827,1,0,0:0:0:0:
8,304,25998,1,8,0:0:0:0:
160,304,26168,1,8,0:0:0:0:
424,168,26509,5,8,0:0:0:0:
296,168,26679,1,0,0:0:0:0:
344,168,26765,1,0,0:0:0:0:
392,168,26850,1,0,0:0:0:0:
216,112,27020,1,0,0:0:0:0:
160,112,27105,1,0,0:0:0:0:
112,112,27191,1,0,0:0:0:0:
232,120,27361,1,0,0:0:0:0:
280,120,27446,1,0,0:0:0:0:
328,120,27532,1,8,0:0:0:0:
176,120,27702,5,8,0:0:0:0:
320,136,27873,1,2,0:0:0:0:
304,96,27958,1,0,0:0:0:0:
160,176,28128,1,2,0:0:0:0:
176,136,28213,1,0,0:0:0:0:
360,232,28384,1,2,0:0:0:0:
344,184,28469,1,0,0:0:0:0:
192,200,28554,1,8,0:0:0:0:
117,200,28725,2,0,L|192:200,1,75,0|4,0:0|0:0,0:0:0:0:
352,272,29236,5,8,0:0:0:0:
136,272,29492,2,0,L|200:272,1,37.5
352,272,29748,1,0,0:0:0:0:
304,272,29833,1,0,0:0:0:0:
256,272,29918,1,0,0:0:0:0:
80,272,30088,2,0,L|168:272,1,75,8|8,0:0|0:0,0:0:0:0:
392,248,30600,5,8,0:0:0:0:
296,232,30770,1,2,0:0:0:0:
256,224,30855,1,2,0:0:0:0:
216,216,30941,1,8,0:0:0:0:
136,200,31111,5,2,0:0:0:0:
184,184,31196,1,2,0:0:0:0:
224,168,31282,2,2,L|184:152,1,37.5
40,128,31452,1,2,0:0:0:0:
75,115,31537,1,2,0:0:0:0:
110,102,31622,1,8,0:0:0:0:
320,128,31963,6,0,L|416:120,1,75,8|0,0:0|0:0,0:0:0:0:
432,120,32219,1,0,0:0:0:0:
469,120,32304,1,0,0:0:0:0:
317,146,32475,6,0,L|373:130,2,37.5,0|0|8,0:0|0:0|0:0,0:0:0:0:
277,162,32730,1,0,0:0:0:0:
201,193,32816,1,0,0:0:0:0:
236,180,32901,1,0,0:0:0:0:
272,168,32986,1,8,0:0:0:0:
368,192,33157,1,8,0:0:0:0:
120,208,33327,6,2,P|56:176|48:80,1,150
115,53,33838,1,8,0:0:0:0:
422,88,34009,2,0,P|465:147|396:178,1,150,2|0,0:0|0:0,0:0:0:0:
302,180,34520,1,0,0:0:0:0:
34,171,34691,1,4,0:0:0:0:
40,168,35202,6,2,L|112:152,1,37.5
104,176,35373,2,2,L|200:200,1,75,10|2,0:0|0:0,0:0:0:0:
256,192,35713,2,0,L|328:136,1,75
389,154,36054,2,0,P|351:152|314:145,1,75
472,168,36395,2,0,P|432:224|408:224,2,75,8|0|0,0:0|0:0|0:0,0:0:0:0:
48,176,37077,1,10,0:0:0:0:
448,280,37418,6,2,L|288:272,1,150
192,272,37929,1,10,0:0:0:0:
448,192,38100,2,2,L|288:184,1,150
144,176,38611,1,10,0:0:0:0:
0,120,38782,2,2,L|152:104,1,150
272,96,39293,1,8,0:0:0:0:
400,80,39463,2,2,L|496:72,2,75,2|2|10,0:0|0:0|0:0,0:0:0:0:
256,96,40145,5,8,0:0:0:0:
168,192,40316,1,0,0:0:0:0:
312,192,40486,2,0,L|472:192,2,150,0|8|0,0:0|0:0|0:0,0:0:0:0:
392,272,41338,1,0,0:0:0:0:
160,296,41509,6,0,L|128:216,1,75,8|0,0:0|0:0,0:0:0:0:
272,232,41850,2,0,L|312:152,1,75,8|0,0:0|0:0,0:0:0:0:
192,136,42191,2,0,L|168:88,1,37.5,8|0,0:0|0:0,0:0:0:0:
280,80,42361,2,0,L|304:24,1,37.5,8|0,0:0|0:0,0:0:0:0:
144,72,42532,2,10,L|80:72,1,37.5,10|10,0:0|0:0,0:0:0:0:
69,72,42702,2,10,L|133:72,1,37.5,10|10,0:0|0:0,0:0:0:0:
312,56,42873,5,4,0:0:0:0:
184,200,43043,1,0,0:0:0:0:
144,200,43128,1,0,0:0:0:0:
184,136,43213,1,8,0:0:0:0:
304,200,43384,1,8,0:0:0:0:
144,200,43554,1,0,0:0:0:0:
104,200,43640,1,0,0:0:0:0:
144,136,43725,1,0,0:0:0:0:
256,200,43895,1,0,0:0:0:0:
288,200,43980,1,0,0:0:0:0:
320,200,44066,1,8,0:0:0:0:
416,192,44236,6,0,L|504:192,3,75
336,192,44918,2,0,L|261:192,1,75
184,192,45259,1,8,0:0:0:0:
112,192,45429,1,8,0:0:0:0:
168,192,45515,1,8,0:0:0:0:
208,192,45600,6,2,L|272:192,2,37.5,2|2|10,0:0|0:0|0:0,0:0:0:0:
112,192,45941,2,2,L|40:192,2,37.5,2|2|10,0:0|0:0|0:0,0:0:0:0:
352,192,46282,6,2,L|424:192,2,37.5,2|2|10,0:0|0:0|0:0,0:0:0:0:
272,192,46623,2,2,L|234:192,2,37.5,2|2|10,0:0|0:0|0:0,0:0:0:0:
448,192,46963,6,0,L|485:192,3,37.5,8|0|8|0,0:0|0:0|0:0|0:0,0:0:0:0:
368,192,47304,2,8,L|280:192,2,75,8|0|8,0:0|0:0|0:0,0:0:0:0:
216,192,47816,2,0,L|136:192,1,75,0|4,0:0|0:0,0:0:0:0:
296,192,48327,5,8,0:0:0:0:
384,192,48498,2,0,L|456:192,1,37.5
472,192,48668,1,0,0:0:0:0:
288,192,48838,1,0,0:0:0:0:
216,192,48924,1,0,0:0:0:0:
144,192,49009,1,0,0:0:0:0:
48,192,49179,2,0,L|123:192,1,75,0|8,0:0|0:0,0:0:0:0:
280,192,49691,5,8,0:0:0:0:
200,200,49861,2,0,L|144:200,1,37.5
56,200,50032,2,0,L|144:200,1,75
192,192,50287,1,0,0:0:0:0:
256,192,50373,2,0,L|320:192,1,37.5,8|0,0:0|0:0,0:0:0:0:
360,192,50543,2,0,L|416:192,2,37.5,0|0|8,0:0|0:0|0:0,0:0:0:0:
424,160,51054,5,8,0:0:0:0:
344,160,51225,2,0,L|296:160,1,37.5
224,160,51395,1,8,0:0:0:0:
296,240,51566,2,0,L|352:240,1,37.5,8|0,0:0|0:0,0:0:0:0:
416,240,51736,2,8,L|376:240,1,37.5
328,320,51907,1,8,0:0:0:0:
264,320,51992,1,0,0:0:0:0:
208,320,52077,1,8,0:0:0:0:
120,320,52248,5,8,0:0:0:0:
293,160,52418,1,8,0:0:0:0:
176,168,52588,2,0,L|112:168,1,37.5,8|0,0:0|0:0,0:0:0:0:
80,128,52759,2,0,L|184:128,1,75,8|0,0:0|0:0,0:0:0:0:
264,136,53100,6,2,L|352:136,1,75
392,136,53355,1,2,0:0:0:0:
456,136,53441,2,2,L|520:136,2,37.5
184,216,53782,6,0,L|304:216,1,112.5,8|0,0:0|0:0,0:0:0:0:
416,160,54123,2,0,L|304:160,1,112.5,8|0,0:0|0:0,0:0:0:0:
200,160,54463,2,0,L|120:160,2,75,0|0|8,0:0|0:0|0:0,0:0:0:0:
376,160,54975,1,0,0:0:0:0:
256,160,55145,5,8,0:0:0:0:
125,160,55316,2,0,L|61:160,2,37.5,0|0|8,0:0|0:0|0:0,0:0:0:0:
224,160,55657,2,0,L|288:160,1,37.5
312,160,55827,2,0,L|392:160,2,75,8|8|8,0:0|0:0|0:0,0:0:0:0:
128,176,56338,1,8,0:0:0:0:
208,176,56509,5,8,0:0:0:0:
88,176,56679,1,0,0:0:0:0:
208,176,56850,2,8,L|368:176,2,150
344,304,57873,6,2,P|352:232|424:168,1,150,10|2,0:0|0:0,0:0:0:0:
160,72,58384,2,2,P|160:160|96:208,1,150,10|2,0:0|0:0,0:0:0:0:
8,288,58895,1,8,0:0:0:0:
104,288,59236,6,0,L|200:288,1,75
216,288,59492,1,0,0:0:0:0:
256,288,59577,1,8,0:0:0:0:
56,192,59748,1,0,0:0:0:0:
24,160,59833,1,0,0:0:0:0:
168,192,59918,2,0,L|272:192,2,75,0|0|8,0:0|0:0|0:0,0:0:0:0:
80,240,60600,6,2,L|-16:240,1,75,10|2,0:0|0:0,0:0:0:0:
80,184,60855,1,2,0:0:0:0:
136,184,60941,1,10,0:0:0:0:
296,192,61111,1,2,0:0:0:0:
360,184,61196,1,2,0:0:0:0:
400,176,61282,2,2,L|472:176,2,37.5,10|2|2,0:0|0:0|0:0,0:0:0:0:
336,176,61537,2,2,L|299:176,1,37.5,2|10,0:0|0:0,0:0:0:0:
72,296,61963,6,2,L|176:296,1,75
304,272,62304,2,2,L|360:208,1,75
168,176,62645,2,2,L|96:136,1,75
304,176,62986,2,2,L|384:144,1,75
80,80,63327,5,8,0:0:0:0:
155,80,63441,1,8,0:0:0:0:
224,80,63554,1,8,0:0:0:0:
296,80,63668,1,8,0:0:0:0:
368,80,63782,1,0,0:0:0:0:
296,80,63895,1,8,0:0:0:0:
200,88,64009,2,0,B|120:136|120:136|184:136,1,150
320,144,64520,6,0,L|384:144,1,37.5
432,136,64691,2,0,P|376:136|256:112,1,150,4|0,0:0|0:0,0:0:0:0:
216,112,65202,2,0,P|184:136|160:136,1,37.5
112,160,65373,2,0,P|144:192|184:200,1,75,8|0,0:0|0:0,0:0:0:0:
440,200,65713,2,0,P|408:240|376:256,1,75,8|0,0:0|0:0,0:0:0:0:
208,272,66054,6,2,P|224:216|248:192,1,75
376,120,66395,2,2,L|296:120,1,75
38,94,66736,2,2,P|101:132|176:136,1,150,10|2,0:0|0:0,0:0:0:0:
112,136,67418,1,8,0:0:0:0:
328,192,67759,5,0,0:0:0:0:
456,304,68100,1,0,0:0:0:0:
304,312,68270,2,0,L|400:176,1,150
240,256,68782,6,0,L|144:256,1,75,8|0,0:0|0:0,0:0:0:0:
64,256,69123,1,0,0:0:0:0:
216,160,69293,2,0,L|40:160,1,150,8|0,0:0|0:0,0:0:0:0:
368,128,69804,2,0,L|272:128,1,75
368,272,70145,6,2,P|424:248|448:152,1,150,10|2,0:0|0:0,0:0:0:0:
280,272,70657,1,8,0:0:0:0:
192,272,70827,2,2,P|136:248|112:152,1,150,10|2,0:0|0:0,0:0:0:0:
256,192,71338,1,8,0:0:0:0:
128,192,71509,5,2,0:0:0:0:
105,162,71594,1,0,0:0:0:0:
83,132,71679,1,2,0:0:0:0:
144,128,71765,1,0,0:0:0:0:
256,112,71850,1,2,0:0:0:0:
280,83,71935,1,0,0:0:0:0:
305,55,72020,1,2,0:0:0:0:
240,48,72105,1,0,0:0:0:0:
72,56,72191,5,4,0:0:0:0:
256,88,72532,2,2,L|304:88,2,37.5
0,184,72868,5,10,0:0:0:0:
40,184,72985,1,2,0:0:0:0:
80,184,73102,1,2,0:0:0:0:
272,184,73219,1,10,0:0:0:0:
320,184,73337,1,2,0:0:0:0:
360,184,73454,1,2,0:0:0:0:
384,184,73571,2,0,L|232:184,1,150,8|8,0:0|0:0,0:0:0:0:
432,184,74275,5,8,0:0:0:0:
472,184,74392,1,0,0:0:0:0:
432,184,74510,1,0,0:0:0:0:
128,184,74627,1,8,0:0:0:0:
88,184,74744,1,0,0:0:0:0:
128,184,74862,1,0,0:0:0:0:
168,184,74979,2,8,L|318:184,1,150
512,184,75680,5,8,0:0:0:0:
472,184,75797,1,0,0:0:0:0:
432,184,75915,1,0,0:0:0:0:
240,192,76032,1,8,0:0:0:0:
192,192,76150,1,0,0:0:0:0:
240,192,76268,1,0,0:0:0:0:
288,192,76385,2,8,L|138:192,1,150,8|8,0:0|0:0,0:0:0:0:
504,128,76974,6,0,L|440:128,1,50,0|8,0:0|0:0,0:0:0:0:
240,152,77327,2,0,L|312:152,1,50,8|0,0:0|0:0,0:0:0:0:
488,112,77680,2,0,L|424:112,1,50,0|8,0:0|0:0,0:0:0:0:
24,120,78150,1,4,0:0:0:0:
