osu file format v14

[General]
AudioFilename: audio.mp3
AudioLeadIn: 0
PreviewTime: 98
Countdown: 1
SampleSet: Normal
StackLeniency: 0.7
Mode: 1
LetterboxInBreaks: 0
EpilepsyWarning: 1
WidescreenStoryboard: 1

[Editor]
DistanceSpacing: 0.5
BeatDivisor: 4
GridSize: 32
TimelineZoom: 1.900001

[Metadata]
Title:EvanZONE ReflectionWERsig 2 bass so Keyboard Highspeed ver
TitleUnicode:EvanZONE ReflectionWERsig 2 bass so Keyboard ハイスピードver
Artist:KinkyOats
ArtistUnicode:KinkyOats
Creator:nevqr
Version:peepee's Futsuu
Source:
Tags:zetera remyria magma crunexx peepee bento bentokage Red Zone Evans Sakura Reflection FLOWER sigsig bass 2 I'm so happy ryu* Tatsh & NAOKI DJ YOSHITAKA kors k novelty instrumental electronic YTPMV 音MAD OTOMAD 音MAD ytp oto-mad 鬼畜 Angry German Kid Leopold Slikk Norman Kochanowski Crasher Crusher PC Spielen
BeatmapID:4004192
BeatmapSetID:1937131

[Difficulty]
HPDrainRate:9.5
CircleSize:2
OverallDifficulty:4
ApproachRate:10
SliderMultiplier:1.4
SliderTickRate:1

[Events]
//Background and Video events
0,0,"leopold.png",0,140
Video,-50,"pcspielen.mp4"
//Break Periods
//Storyboard Layer 0 (Background)
//Storyboard Layer 1 (Fail)
//Storyboard Layer 2 (Pass)
//Storyboard Layer 3 (Foreground)
//Storyboard Layer 4 (Overlay)
//Storyboard Sound Samples

[TimingPoints]
160,247.218788627936,4,1,0,70,1,0
2137,-100,4,1,0,90,0,1
2199,-100,4,1,0,90,0,0
6093,-100,4,1,0,80,0,1
6155,-100,4,1,0,80,0,0
10048,-100,4,1,0,90,0,1
10110,-100,4,1,0,90,0,0
14251,-100,4,1,0,80,0,1
14313,-100,4,1,0,80,0,0
17959,-100,4,1,0,80,0,1
18021,-100,4,1,0,80,0,0
21173,-100,4,1,0,80,0,1
21235,-100,4,1,0,80,0,0
21297,-100,4,1,0,80,0,1
21359,-100,4,1,0,80,0,0
21544,-100,4,1,0,80,0,1
21606,-100,4,1,0,80,0,0
21791,-100,4,1,0,80,0,1
21853,-100,4,1,0,80,0,0
21915,-100,4,1,0,90,0,1
22656,-100,4,1,0,90,0,0
22904,-100,4,1,0,90,0,1
23645,-100,4,1,0,90,0,0
23893,-100,4,1,0,90,0,1
25870,-100,4,1,0,90,0,0
26365,-100,4,1,0,81,0,0
26859,-100,4,1,0,71,0,0
27354,-100,4,1,0,62,0,0
27848,-100,4,1,0,52,0,0
28342,-100,4,1,0,43,0,0
28837,-100,4,1,0,33,0,0
29331,-100,4,1,0,24,0,0
29826,-100,4,1,0,14,0,0
30197,-100,4,1,0,5,0,0

[HitObjects]
256,192,160,5,0,1:0:0:0:
256,192,407,1,8,1:0:0:0:
256,192,530,1,8,0:0:0:0:
256,192,654,1,0,1:0:0:0:
256,192,901,1,0,1:0:0:0:
256,192,1025,1,0,0:0:0:0:
256,192,1148,1,8,1:0:0:0:
256,192,2137,1,4,1:0:0:0:
256,192,2384,1,8,1:0:0:0:
256,192,2632,1,8,1:0:0:0:
256,192,2755,1,8,0:0:0:0:
256,192,2879,1,0,1:0:0:0:
256,192,3126,1,8,1:0:0:0:
256,192,3373,1,0,1:0:0:0:
256,192,3621,1,8,0:0:0:0:
256,192,3744,1,0,0:0:0:0:
256,192,3868,1,8,0:0:0:0:
256,192,4115,1,0,1:0:0:0:
256,192,4362,1,8,1:0:0:0:
256,192,4609,1,0,1:0:0:0:
256,192,4733,1,8,0:0:0:0:
256,192,4857,1,0,1:0:0:0:
256,192,5104,1,0,0:0:0:0:
256,192,5227,1,0,1:0:0:0:
256,192,5351,1,8,1:0:0:0:
256,192,5598,1,8,1:0:0:0:
256,192,6093,1,4,1:0:0:0:
256,192,6340,1,8,1:0:0:0:
256,192,6587,1,8,1:0:0:0:
256,192,6711,1,8,0:0:0:0:
256,192,6834,1,0,1:0:0:0:
256,192,7082,1,0,1:0:0:0:
256,192,7205,1,0,0:0:0:0:
256,192,7329,1,8,1:0:0:0:
256,192,7576,1,8,1:0:0:0:
256,192,8071,1,0,1:0:0:0:
256,192,8318,1,8,1:0:0:0:
256,192,8565,1,8,1:0:0:0:
256,192,8689,1,0,0:0:0:0:
256,192,8812,1,0,1:0:0:0:
256,192,9059,1,8,1:0:0:0:
256,192,9307,1,0,1:0:0:0:
256,192,9430,1,0,0:0:0:0:
256,192,9554,1,8,1:0:0:0:
256,192,10048,1,12,1:0:0:0:
256,192,10295,1,0,1:0:0:0:
256,192,10419,1,0,0:0:0:0:
256,192,10543,1,8,1:0:0:0:
256,192,10790,1,0,1:0:0:0:
256,192,11037,1,8,1:0:0:0:
256,192,11284,1,8,1:0:0:0:
256,192,11408,1,0,0:0:0:0:
256,192,11532,1,8,1:0:0:0:
256,192,11779,1,0,1:0:0:0:
256,192,12026,1,8,1:0:0:0:
256,192,12273,1,8,1:0:0:0:
256,192,12397,1,8,0:0:0:0:
256,192,12520,1,0,1:0:0:0:
256,192,12768,1,0,1:0:0:0:
256,192,13015,1,8,1:0:0:0:
256,192,13262,1,0,1:0:0:0:
256,192,13509,1,8,1:0:0:0:
256,192,13757,1,0,1:0:0:0:
256,192,14251,1,4,1:0:0:0:
256,192,14498,1,0,1:0:0:0:
256,192,14745,1,8,1:0:0:0:
256,192,14993,1,0,1:0:0:0:
256,192,15116,1,8,0:0:0:0:
256,192,15240,1,0,1:0:0:0:
256,192,15487,1,8,1:0:0:0:
256,192,15982,1,8,1:0:0:0:
256,192,16229,1,0,1:0:0:0:
256,192,16476,1,8,1:0:0:0:
256,192,16723,1,0,1:0:0:0:
256,192,16970,1,8,1:0:0:0:
256,192,17094,1,0,0:0:0:0:
256,192,17218,1,8,1:0:0:0:
256,192,17465,1,0,1:0:0:0:
256,192,17959,1,12,1:0:0:0:
256,192,18206,1,8,1:0:0:0:
256,192,18330,1,0,1:0:0:0:
256,192,18577,1,0,0:0:0:0:
256,192,18701,1,8,1:0:0:0:
256,192,18948,1,8,1:0:0:0:
256,192,19195,1,8,1:0:0:0:
256,192,19319,1,0,0:0:0:0:
256,192,19443,1,8,1:0:0:0:
256,192,19937,1,8,1:0:0:0:
256,192,20184,1,8,1:0:0:0:
256,192,20308,1,0,1:0:0:0:
256,192,20555,1,0,0:0:0:0:
256,192,20679,1,8,0:0:0:0:
256,192,20926,1,8,1:0:0:0:
256,192,21173,1,8,1:0:0:0:
256,192,21297,1,8,1:0:0:0:
256,192,21544,1,8,1:0:0:0:
256,192,21791,1,8,0:0:0:0:
256,192,21915,1,0,1:0:0:0:
256,192,22038,1,0,0:0:0:0:
256,192,22162,1,8,1:0:0:0:
256,192,22409,1,8,1:0:0:0:
256,192,22656,1,8,1:0:0:0:
256,192,22780,1,0,1:0:0:0:
256,192,23027,1,0,0:0:0:0:
256,192,23151,1,8,1:0:0:0:
256,192,23398,1,8,1:0:0:0:
256,192,23522,1,8,0:0:0:0:
256,192,23645,1,0,1:0:0:0:
256,192,23893,1,0,1:0:0:0:
256,192,24016,1,0,0:0:0:0:
256,192,24140,1,8,1:0:0:0:
256,192,24387,1,0,0:0:0:0:
256,192,24634,1,8,1:0:0:0:
256,192,24758,1,8,1:0:0:0:
256,192,25005,1,0,1:0:0:0:
256,192,25129,1,8,1:0:0:0:
256,192,25252,1,0,1:0:0:0:
256,192,25376,1,8,1:0:0:0:
256,192,25870,1,0,1:0:0:0:
256,192,25994,12,0,30197,1:0:0:0:
