osu file format v14

[General]
AudioFilename: audio.mp3
AudioLeadIn: 0
PreviewTime: 98
Countdown: 1
SampleSet: Normal
StackLeniency: 0.7
Mode: 1
LetterboxInBreaks: 0
EpilepsyWarning: 1
WidescreenStoryboard: 1

[Editor]
DistanceSpacing: 0.5
BeatDivisor: 2
GridSize: 32
TimelineZoom: 2.4

[Metadata]
Title:EvanZONE ReflectionWERsig 2 bass so Keyboard Highspeed ver
TitleUnicode:EvanZONE ReflectionWERsig 2 bass so Keyboard ハイスピードver
Artist:KinkyOats
ArtistUnicode:KinkyOats
Creator:nevqr
Version:Zetera's Hell Oni
Source:
Tags:zetera remyria magma crunexx peepee bento bentokage Red Zone Evans Sakura Reflection FLOWER sigsig bass 2 I'm so happy ryu* Tatsh & NAOKI DJ YOSHITAKA kors k novelty instrumental electronic YTPMV 音MAD OTOMAD 音MAD ytp oto-mad 鬼畜 Angry German Kid Leopold Slikk Norman Kochanowski Crasher Crusher PC Spielen
BeatmapID:4004194
BeatmapSetID:1937131

[Difficulty]
HPDrainRate:8.5
CircleSize:2
OverallDifficulty:7.2
ApproachRate:10
SliderMultiplier:1.4
SliderTickRate:1

[Events]
//Background and Video events
0,0,"leopold.png",0,140
Video,-50,"pcspielen.mp4"
//Break Periods
//Storyboard Layer 0 (Background)
//Storyboard Layer 1 (Fail)
//Storyboard Layer 2 (Pass)
//Storyboard Layer 3 (Foreground)
//Storyboard Layer 4 (Overlay)
//Storyboard Sound Samples

[TimingPoints]
160,247.218788627936,4,1,0,70,1,0
2137,-100,4,1,0,90,0,1
2199,-100,4,1,0,90,0,0
6093,-100,4,1,0,80,0,1
6155,-100,4,1,0,80,0,0
10048,-100,4,1,0,90,0,1
10110,-100,4,1,0,90,0,0
14251,-100,4,1,0,80,0,1
14313,-100,4,1,0,80,0,0
17959,-100,4,1,0,80,0,1
18021,-100,4,1,0,80,0,0
21173,-100,4,1,0,80,0,1
21235,-100,4,1,0,80,0,0
21297,-100,4,1,0,80,0,1
21359,-100,4,1,0,80,0,0
21544,-100,4,1,0,80,0,1
21606,-100,4,1,0,80,0,0
21791,-100,4,1,0,80,0,1
21853,-100,4,1,0,80,0,0
21915,-100,4,1,0,90,0,1
22656,-100,4,1,0,90,0,0
22904,-100,4,1,0,90,0,1
23645,-100,4,1,0,90,0,0
23893,-100,4,1,0,90,0,1
25870,-100,4,1,0,90,0,0
25932,-25,4,1,0,90,0,0
26365,-25,4,1,0,81,0,0
26859,-25,4,1,0,71,0,0
27354,-25,4,1,0,62,0,0
27848,-25,4,1,0,52,0,0
28342,-25,4,1,0,43,0,0
28837,-25,4,1,0,33,0,0
29331,-25,4,1,0,24,0,0
29826,-25,4,1,0,14,0,0
30197,-25,4,1,0,5,0,0

[HitObjects]
256,192,160,5,4,1:0:0:0:
256,192,283,1,8,1:0:0:0:
256,192,407,1,8,1:0:0:0:
256,192,530,1,8,1:0:0:0:
256,192,654,1,8,1:0:0:0:
256,192,778,1,8,1:0:0:0:
256,192,839,1,8,1:0:0:0:
256,192,901,1,8,1:0:0:0:
256,192,1025,1,8,1:0:0:0:
256,192,1148,1,0,1:0:0:0:
256,192,1272,1,8,1:0:0:0:
256,192,1396,1,8,1:0:0:0:
256,192,1519,1,0,1:0:0:0:
256,192,1581,1,8,1:0:0:0:
256,192,1705,1,8,1:0:0:0:
256,192,1766,1,0,1:0:0:0:
256,192,1890,1,8,1:0:0:0:
256,192,1952,1,0,1:0:0:0:
256,192,2014,1,8,1:0:0:0:
256,192,2137,1,4,1:0:0:0:
256,192,2261,1,8,1:0:0:0:
256,192,2384,1,0,1:0:0:0:
256,192,2508,1,8,1:0:0:0:
256,192,2632,1,0,1:0:0:0:
256,192,2755,1,8,1:0:0:0:
256,192,2817,1,0,1:0:0:0:
256,192,2941,1,0,1:0:0:0:
256,192,3003,1,8,1:0:0:0:
256,192,3064,1,0,1:0:0:0:
256,192,3126,1,8,1:0:0:0:
256,192,3250,1,0,1:0:0:0:
256,192,3373,1,8,1:0:0:0:
256,192,3497,1,0,1:0:0:0:
256,192,3621,1,8,1:0:0:0:
256,192,3744,1,0,1:0:0:0:
256,192,3806,1,8,1:0:0:0:
256,192,3930,1,8,1:0:0:0:
256,192,3991,1,8,1:0:0:0:
256,192,4053,1,0,1:0:0:0:
256,192,4115,1,8,1:0:0:0:
256,192,4239,1,0,1:0:0:0:
256,192,4362,1,8,1:0:0:0:
256,192,4486,1,0,1:0:0:0:
256,192,4609,1,8,1:0:0:0:
256,192,4733,1,0,1:0:0:0:
256,192,4795,1,8,1:0:0:0:
256,192,4918,1,0,1:0:0:0:
256,192,4980,1,8,1:0:0:0:
256,192,5104,1,0,1:0:0:0:
256,192,5166,1,8,1:0:0:0:
256,192,5227,1,0,1:0:0:0:
256,192,5289,1,0,0:0:0:0:
256,192,5351,1,8,1:0:0:0:
256,192,5475,1,0,1:0:0:0:
256,192,5598,1,8,1:0:0:0:
256,192,5660,1,0,1:0:0:0:
256,192,5722,1,0,1:0:0:0:
256,192,5784,1,8,1:0:0:0:
256,192,5907,1,0,1:0:0:0:
256,192,5969,1,8,1:0:0:0:
256,192,6093,1,4,1:0:0:0:
256,192,6216,1,8,1:0:0:0:
256,192,6278,1,8,1:0:0:0:
256,192,6340,1,0,1:0:0:0:
256,192,6464,1,8,1:0:0:0:
256,192,6587,1,0,1:0:0:0:
256,192,6649,1,0,1:0:0:0:
256,192,6711,1,8,1:0:0:0:
256,192,6773,1,8,1:0:0:0:
256,192,6834,1,0,1:0:0:0:
256,192,6958,1,8,1:0:0:0:
256,192,7082,1,0,1:0:0:0:
256,192,7143,1,8,1:0:0:0:
256,192,7205,1,0,1:0:0:0:
256,192,7329,1,0,1:0:0:0:
256,192,7391,1,0,1:0:0:0:
256,192,7452,1,8,1:0:0:0:
256,192,7576,1,0,1:0:0:0:
256,192,7638,1,0,1:0:0:0:
256,192,7700,1,0,1:0:0:0:
256,192,7761,1,0,1:0:0:0:
256,192,7823,1,8,1:0:0:0:
256,192,7947,1,8,1:0:0:0:
256,192,8009,1,8,1:0:0:0:
256,192,8071,1,0,1:0:0:0:
256,192,8194,1,0,1:0:0:0:
256,192,8256,1,0,1:0:0:0:
256,192,8318,1,8,1:0:0:0:
256,192,8380,1,0,1:0:0:0:
256,192,8441,1,8,1:0:0:0:
256,192,8565,1,0,1:0:0:0:
256,192,8627,1,0,1:0:0:0:
256,192,8689,1,8,1:0:0:0:
256,192,8750,1,8,1:0:0:0:
256,192,8812,1,0,1:0:0:0:
256,192,8936,1,8,1:0:0:0:
256,192,9059,1,0,1:0:0:0:
256,192,9121,1,0,1:0:0:0:
256,192,9183,1,0,1:0:0:0:
256,192,9245,1,0,1:0:0:0:
256,192,9307,1,8,1:0:0:0:
256,192,9368,1,8,1:0:0:0:
256,192,9430,1,0,1:0:0:0:
256,192,9492,1,0,1:0:0:0:
256,192,9554,1,8,1:0:0:0:
256,192,9616,1,8,1:0:0:0:
256,192,9677,1,0,1:0:0:0:
256,192,9801,1,8,1:0:0:0:
256,192,9925,1,0,1:0:0:0:
256,192,10048,1,8,1:0:0:0:
256,192,10110,1,0,1:0:0:0:
256,192,10172,1,8,1:0:0:0:
256,192,10234,1,8,1:0:0:0:
256,192,10295,1,0,1:0:0:0:
256,192,10357,1,8,1:0:0:0:
256,192,10419,1,8,1:0:0:0:
256,192,10481,1,0,1:0:0:0:
256,192,10543,1,0,1:0:0:0:
256,192,10604,1,8,1:0:0:0:
256,192,10666,1,0,1:0:0:0:
256,192,10728,1,8,1:0:0:0:
256,192,10790,1,8,1:0:0:0:
256,192,10852,1,0,1:0:0:0:
256,192,10914,1,8,1:0:0:0:
256,192,10975,1,8,1:0:0:0:
256,192,11037,1,8,1:0:0:0:
256,192,11099,1,0,1:0:0:0:
256,192,11161,1,8,1:0:0:0:
256,192,11223,1,8,1:0:0:0:
256,192,11284,1,0,1:0:0:0:
256,192,11346,1,8,1:0:0:0:
256,192,11408,1,8,1:0:0:0:
256,192,11470,1,0,1:0:0:0:
256,192,11532,1,8,1:0:0:0:
256,192,11593,1,8,1:0:0:0:
256,192,11655,1,0,1:0:0:0:
256,192,11717,1,8,1:0:0:0:
256,192,11779,1,0,1:0:0:0:
256,192,11841,1,0,1:0:0:0:
256,192,11902,1,8,1:0:0:0:
256,192,11964,1,0,1:0:0:0:
256,192,12026,1,8,1:0:0:0:
256,192,12088,1,0,1:0:0:0:
256,192,12150,1,8,1:0:0:0:
256,192,12211,1,8,1:0:0:0:
256,192,12273,1,0,1:0:0:0:
256,192,12335,1,8,1:0:0:0:
256,192,12397,1,8,1:0:0:0:
256,192,12459,1,0,1:0:0:0:
256,192,12520,1,0,1:0:0:0:
256,192,12582,1,8,1:0:0:0:
256,192,12644,1,0,1:0:0:0:
256,192,12706,1,8,1:0:0:0:
256,192,12768,1,8,1:0:0:0:
256,192,12829,1,0,1:0:0:0:
256,192,12891,1,8,1:0:0:0:
256,192,12953,1,0,1:0:0:0:
256,192,13015,1,8,1:0:0:0:
256,192,13077,1,8,1:0:0:0:
256,192,13138,1,0,1:0:0:0:
256,192,13200,1,8,1:0:0:0:
256,192,13262,1,8,1:0:0:0:
256,192,13324,1,0,1:0:0:0:
256,192,13386,1,8,1:0:0:0:
256,192,13448,1,0,1:0:0:0:
256,192,13509,1,8,1:0:0:0:
256,192,13571,1,0,1:0:0:0:
256,192,13633,1,0,1:0:0:0:
256,192,13695,1,8,1:0:0:0:
256,192,13757,1,0,1:0:0:0:
256,192,13818,1,0,1:0:0:0:
256,192,13880,1,8,1:0:0:0:
256,192,14004,1,0,1:0:0:0:
256,192,14251,1,4,1:0:0:0:
256,192,14375,1,0,1:0:0:0:
256,192,14436,1,8,1:0:0:0:
256,192,14498,1,0,1:0:0:0:
256,192,14622,1,8,1:0:0:0:
256,192,14745,1,0,1:0:0:0:
256,192,14807,1,0,1:0:0:0:
256,192,14869,1,8,1:0:0:0:
256,192,14993,1,0,1:0:0:0:
256,192,15054,1,0,1:0:0:0:
256,192,15116,1,0,1:0:0:0:
256,192,15240,1,8,1:0:0:0:
256,192,15302,1,8,1:0:0:0:
256,192,15363,1,0,1:0:0:0:
256,192,15487,1,8,1:0:0:0:
256,192,15549,1,8,1:0:0:0:
256,192,15611,1,0,1:0:0:0:
256,192,15672,1,0,1:0:0:0:
256,192,15734,1,8,1:0:0:0:
256,192,15796,1,8,1:0:0:0:
256,192,15858,1,0,1:0:0:0:
256,192,15982,1,8,1:0:0:0:
256,192,16105,1,0,1:0:0:0:
256,192,16167,1,8,1:0:0:0:
256,192,16229,1,0,1:0:0:0:
256,192,16352,1,8,1:0:0:0:
256,192,16476,1,0,1:0:0:0:
256,192,16538,1,0,1:0:0:0:
256,192,16600,1,8,1:0:0:0:
256,192,16723,1,8,1:0:0:0:
256,192,16785,1,8,1:0:0:0:
256,192,16847,1,0,1:0:0:0:
256,192,16970,1,8,1:0:0:0:
256,192,17032,1,8,1:0:0:0:
256,192,17094,1,8,1:0:0:0:
256,192,17156,1,0,1:0:0:0:
256,192,17218,1,8,1:0:0:0:
256,192,17279,1,8,1:0:0:0:
256,192,17341,1,0,1:0:0:0:
256,192,17403,1,0,1:0:0:0:
256,192,17465,1,8,1:0:0:0:
256,192,17588,1,8,1:0:0:0:
256,192,17650,1,0,1:0:0:0:
256,192,17712,1,8,1:0:0:0:
256,192,17836,1,8,1:0:0:0:
256,192,17959,1,4,1:0:0:0:
256,192,18083,1,0,1:0:0:0:
256,192,18206,1,8,1:0:0:0:
256,192,18330,1,0,1:0:0:0:
256,192,18392,1,0,1:0:0:0:
256,192,18454,1,0,1:0:0:0:
256,192,18577,1,0,1:0:0:0:
256,192,18701,1,8,1:0:0:0:
256,192,18825,1,8,1:0:0:0:
256,192,18948,1,0,1:0:0:0:
256,192,19072,1,0,1:0:0:0:
256,192,19134,1,0,1:0:0:0:
256,192,19195,1,8,1:0:0:0:
256,192,19319,1,8,1:0:0:0:
256,192,19443,1,0,1:0:0:0:
256,192,19504,1,8,1:0:0:0:
256,192,19628,1,0,1:0:0:0:
256,192,19690,1,8,1:0:0:0:
256,192,19752,1,0,1:0:0:0:
256,192,19813,1,8,1:0:0:0:
256,192,19875,1,8,1:0:0:0:
256,192,19937,1,0,1:0:0:0:
256,192,20061,1,0,1:0:0:0:
256,192,20122,1,0,1:0:0:0:
256,192,20184,1,8,1:0:0:0:
256,192,20308,1,0,1:0:0:0:
256,192,20370,1,0,1:0:0:0:
256,192,20431,1,0,1:0:0:0:
256,192,20555,1,0,1:0:0:0:
256,192,20679,1,8,1:0:0:0:
256,192,20740,1,0,1:0:0:0:
256,192,20802,1,8,1:0:0:0:
256,192,20926,1,0,1:0:0:0:
256,192,21049,1,8,1:0:0:0:
256,192,21111,1,8,1:0:0:0:
256,192,21173,1,0,1:0:0:0:
256,192,21297,1,12,1:0:0:0:
256,192,21544,1,12,1:0:0:0:
256,192,21791,1,12,1:0:0:0:
256,192,21915,1,0,1:0:0:0:
256,192,21977,1,0,1:0:0:0:
256,192,22038,1,0,1:0:0:0:
256,192,22100,1,0,1:0:0:0:
256,192,22162,1,0,1:0:0:0:
256,192,22224,1,0,1:0:0:0:
256,192,22286,1,0,1:0:0:0:
256,192,22347,1,0,1:0:0:0:
256,192,22409,1,0,1:0:0:0:
256,192,22471,1,0,1:0:0:0:
256,192,22533,1,0,1:0:0:0:
256,192,22595,1,0,1:0:0:0:
256,192,22656,1,8,1:0:0:0:
256,192,22904,1,0,1:0:0:0:
256,192,22965,1,0,1:0:0:0:
256,192,23027,1,0,1:0:0:0:
256,192,23089,1,0,1:0:0:0:
256,192,23151,1,0,1:0:0:0:
256,192,23213,1,0,1:0:0:0:
256,192,23274,1,0,1:0:0:0:
256,192,23336,1,0,1:0:0:0:
256,192,23398,1,0,1:0:0:0:
256,192,23460,1,0,1:0:0:0:
256,192,23522,1,0,1:0:0:0:
256,192,23583,1,0,1:0:0:0:
256,192,23645,1,8,1:0:0:0:
256,192,23893,1,0,1:0:0:0:
256,192,23954,1,0,1:0:0:0:
256,192,24016,1,0,1:0:0:0:
256,192,24078,1,0,1:0:0:0:
256,192,24140,1,8,1:0:0:0:
256,192,24202,1,0,1:0:0:0:
256,192,24263,1,8,1:0:0:0:
256,192,24325,1,0,1:0:0:0:
256,192,24387,1,8,1:0:0:0:
256,192,24449,1,0,1:0:0:0:
256,192,24511,1,8,1:0:0:0:
256,192,24572,1,0,1:0:0:0:
256,192,24634,1,8,1:0:0:0:
256,192,24696,1,0,1:0:0:0:
256,192,24758,1,8,1:0:0:0:
256,192,24820,1,8,1:0:0:0:
256,192,24881,1,4,1:0:0:0:
256,192,25005,1,8,1:0:0:0:
256,192,25067,1,8,1:0:0:0:
256,192,25129,1,4,1:0:0:0:
256,192,25252,1,8,1:0:0:0:
256,192,25376,1,4,1:0:0:0:
256,192,25499,1,8,1:0:0:0:
256,192,25623,1,4,1:0:0:0:
256,192,25870,1,4,1:0:0:0:
256,192,25994,12,0,30197,2:0:0:0:
