osu file format v14

[General]
AudioFilename: audio.mp3
AudioLeadIn: 0
PreviewTime: 25604
Countdown: 0
SampleSet: Soft
StackLeniency: 0.7
Mode: 3
LetterboxInBreaks: 0
SpecialStyle: 0
WidescreenStoryboard: 0

[Editor]
DistanceSpacing: 1
BeatDivisor: 4
GridSize: 32
TimelineZoom: 1.1

[Metadata]
Title:Crushing Dusk
TitleUnicode:Crushing Dusk
Artist:KinkyOats
ArtistUnicode:KinkyOats
Creator:Surono
Version:Normal
Source:東方緋想天 ~ Scarlet Weather Rhapsody.
Tags:Touhou Project 10.5 TH10.5 Hisouten Hakurei Jinja Reitaisai 博麗神社例大祭 ending theme 暮色蒼然 Darkening youtube AGK Angry German Kid Hikakin dubstep beatbox ZUN C72 Dellvangel
BeatmapID:1064495
BeatmapSetID:449315

[Difficulty]
HPDrainRate:7
CircleSize:4
OverallDifficulty:7
ApproachRate:10
SliderMultiplier:1.6
SliderTickRate:1

[Events]
//Background and Video events
0,0,"BG.jpg",0,0
//Break Periods
//Storyboard Layer 0 (Background)
//Storyboard Layer 1 (Fail)
//Storyboard Layer 2 (Pass)
//Storyboard Layer 3 (Foreground)
//Storyboard Sound Samples

[TimingPoints]
2544,750,4,2,1,25,1,0
26544,-100,4,2,1,25,0,1
50544,-100,4,2,1,25,0,0

[HitObjects]
64,192,1794,128,2,2169:0:0:0:0:
192,192,2169,128,2,2544:0:0:0:0:
448,192,2544,1,0,0:0:0:0:
64,192,2544,1,4,0:0:0:0:
320,192,2544,128,2,4419:0:0:0:0:
192,192,3294,1,8,0:0:0:0:
448,192,3294,1,8,0:0:0:0:
64,192,3856,1,0,0:0:0:0:
448,192,4044,1,0,0:0:0:0:
192,192,4419,1,0,0:0:0:0:
448,192,4794,1,8,0:0:0:0:
64,192,4794,1,10,0:0:0:0:
192,192,4981,1,2,0:0:0:0:
320,192,5169,128,2,5544:0:0:0:0:
64,192,5544,1,4,0:0:0:0:
192,192,5544,128,2,5919:0:0:0:0:
448,192,5544,1,0,0:0:0:0:
320,192,5919,128,2,6044:0:0:0:0:
448,192,6044,128,2,6169:0:0:0:0:
192,192,6169,128,2,6294:0:0:0:0:
64,192,6294,128,10,6669:0:0:0:0:
320,192,6294,1,8,0:0:0:0:
448,192,6669,128,2,7044:0:0:0:0:
320,192,7044,128,2,7419:0:0:0:0:
192,192,7419,1,0,0:0:0:0:
64,192,7794,128,10,8169:0:0:0:0:
448,192,7794,1,8,0:0:0:0:
320,192,7981,1,0,0:0:0:0:
192,192,8169,128,2,8544:0:0:0:0:
448,192,8544,1,0,0:0:0:0:
64,192,8544,1,4,0:0:0:0:
320,192,8544,128,2,10044:0:0:0:0:
192,192,9294,1,8,0:0:0:0:
448,192,9294,1,8,0:0:0:0:
64,192,9856,1,0,0:0:0:0:
448,192,10044,1,0,0:0:0:0:
192,192,10419,1,2,0:0:0:0:
320,192,10606,1,2,0:0:0:0:
64,192,10794,1,8,0:0:0:0:
448,192,10794,128,10,11169:0:0:0:0:
64,192,11169,128,2,11544:0:0:0:0:
320,192,11544,1,0,0:0:0:0:
448,192,11544,1,4,0:0:0:0:
192,192,11544,128,2,11919:0:0:0:0:
320,192,11919,128,2,12294:0:0:0:0:
448,192,12294,128,10,13419:0:0:0:0:
64,192,12294,1,8,0:0:0:0:
192,192,12669,1,0,0:0:0:0:
320,192,13044,1,0,0:0:0:0:
192,192,13419,1,0,0:0:0:0:
320,192,13544,1,0,0:0:0:0:
64,192,13669,1,0,0:0:0:0:
192,192,13794,1,8,0:0:0:0:
448,192,13794,128,10,14169:0:0:0:0:
320,192,14169,128,2,14544:0:0:0:0:
64,192,14544,1,0,0:0:0:0:
448,192,14544,1,4,0:0:0:0:
192,192,14544,128,2,16419:0:0:0:0:
320,192,15294,1,8,0:0:0:0:
64,192,15294,1,8,0:0:0:0:
448,192,15856,1,0,0:0:0:0:
64,192,16044,1,0,0:0:0:0:
320,192,16419,1,0,0:0:0:0:
448,192,16794,1,8,0:0:0:0:
64,192,16794,1,10,0:0:0:0:
320,192,16981,1,2,0:0:0:0:
192,192,17169,128,2,17544:0:0:0:0:
448,192,17544,1,4,0:0:0:0:
320,192,17544,128,2,17919:0:0:0:0:
64,192,17544,1,0,0:0:0:0:
192,192,17919,128,2,18044:0:0:0:0:
64,192,18044,128,2,18169:0:0:0:0:
320,192,18169,128,2,18294:0:0:0:0:
192,192,18294,1,8,0:0:0:0:
448,192,18294,128,10,18669:0:0:0:0:
64,192,18669,128,2,19044:0:0:0:0:
192,192,19044,128,2,19419:0:0:0:0:
320,192,19419,1,0,0:0:0:0:
448,192,19794,1,8,0:0:0:0:
192,192,19794,1,10,0:0:0:0:
64,192,19981,1,2,0:0:0:0:
320,192,20169,128,2,20544:0:0:0:0:
448,192,20544,128,2,20919:0:0:0:0:
192,192,20544,1,4,0:0:0:0:
64,192,20544,1,0,0:0:0:0:
448,192,21294,1,8,0:0:0:0:
192,192,21294,1,10,0:0:0:0:
64,192,21481,1,2,0:0:0:0:
448,192,21669,1,2,0:0:0:0:
320,192,21856,1,2,0:0:0:0:
448,192,22044,128,2,22419:0:0:0:0:
64,192,22044,1,4,0:0:0:0:
192,192,22044,1,0,0:0:0:0:
64,192,22419,1,0,0:0:0:0:
320,192,22794,128,10,23169:0:0:0:0:
192,192,22794,1,8,0:0:0:0:
448,192,23169,128,2,23544:0:0:0:0:
64,192,23544,1,0,0:0:0:0:
192,192,23544,128,6,25044:0:0:0:0:
320,192,23544,1,0,0:0:0:0:
64,192,24294,1,8,0:0:0:0:
448,192,24294,1,8,0:0:0:0:
320,192,24669,1,0,0:0:0:0:
320,192,25044,1,4,0:0:0:0:
64,192,25044,1,0,0:0:0:0:
448,192,25044,1,0,0:0:0:0:
192,192,25419,1,0,0:0:0:0:
448,192,25794,128,10,26169:0:0:0:0:
64,192,25794,1,8,0:0:0:0:
320,192,26169,128,2,26544:0:0:0:0:
64,192,26544,1,4,0:0:0:0:
448,192,26544,1,2,0:0:0:0:
192,192,26544,128,0,28044:0:0:0:0:
448,192,27294,1,8,0:0:0:0:
320,192,27294,1,8,0:0:0:0:
64,192,27856,1,0,0:0:0:0:
448,192,28044,128,2,29544:0:0:0:0:
192,192,28419,1,0,0:0:0:0:
320,192,28794,1,10,0:0:0:0:
64,192,28794,1,8,0:0:0:0:
192,192,28981,1,2,0:0:0:0:
64,192,29169,1,2,0:0:0:0:
320,192,29544,128,2,31419:0:0:0:0:
192,192,29544,1,4,0:0:0:0:
64,192,29544,1,0,0:0:0:0:
448,192,29919,1,2,0:0:0:0:
64,192,30044,1,2,0:0:0:0:
192,192,30169,1,2,0:0:0:0:
448,192,30294,1,10,0:0:0:0:
64,192,30294,1,10,0:0:0:0:
192,192,30669,1,2,0:0:0:0:
448,192,31044,1,2,0:0:0:0:
192,192,31419,1,0,0:0:0:0:
448,192,31794,128,10,32169:0:0:0:0:
64,192,31794,1,8,0:0:0:0:
192,192,31981,1,0,0:0:0:0:
320,192,32169,128,2,32544:0:0:0:0:
64,192,32544,1,4,0:0:0:0:
448,192,32544,1,2,0:0:0:0:
192,192,32544,128,0,34044:0:0:0:0:
448,192,33294,1,8,0:0:0:0:
320,192,33294,1,8,0:0:0:0:
64,192,33856,1,0,0:0:0:0:
448,192,34044,128,2,35544:0:0:0:0:
64,192,34419,1,2,0:0:0:0:
192,192,34606,1,2,0:0:0:0:
64,192,34794,1,10,0:0:0:0:
320,192,34794,1,8,0:0:0:0:
192,192,35169,1,2,0:0:0:0:
64,192,35544,1,0,0:0:0:0:
320,192,35544,128,2,37419:0:0:0:0:
192,192,35544,1,4,0:0:0:0:
448,192,35919,1,2,0:0:0:0:
64,192,36294,1,8,0:0:0:0:
448,192,36294,1,10,0:0:0:0:
192,192,36669,1,0,0:0:0:0:
448,192,37044,1,0,0:0:0:0:
64,192,37419,1,0,0:0:0:0:
192,192,37544,1,0,0:0:0:0:
448,192,37669,1,0,0:0:0:0:
64,192,37794,128,10,38169:0:0:0:0:
320,192,37794,1,8,0:0:0:0:
192,192,38169,128,2,38544:0:0:0:0:
448,192,38544,1,0,0:0:0:0:
64,192,38544,1,4,0:0:0:0:
320,192,38544,128,2,40044:0:0:0:0:
64,192,39294,1,8,0:0:0:0:
192,192,39294,1,8,0:0:0:0:
448,192,39856,1,0,0:0:0:0:
64,192,40044,128,2,41544:0:0:0:0:
320,192,40419,1,0,0:0:0:0:
192,192,40794,1,10,0:0:0:0:
448,192,40794,1,8,0:0:0:0:
320,192,40981,1,2,0:0:0:0:
448,192,41169,1,0,0:0:0:0:
448,192,41544,1,2,0:0:0:0:
320,192,41544,128,4,41919:0:0:0:0:
192,192,41544,1,0,0:0:0:0:
64,192,41919,1,2,0:0:0:0:
448,192,42106,1,2,0:0:0:0:
320,192,42294,128,8,42669:0:0:0:0:
192,192,42294,1,2,0:0:0:0:
64,192,42669,128,2,43044:0:0:0:0:
192,192,43044,128,2,43794:0:0:0:0:
448,192,43419,1,0,0:0:0:0:
64,192,43794,1,10,0:0:0:0:
320,192,43794,1,8,0:0:0:0:
448,192,43981,1,2,0:0:0:0:
192,192,44169,128,2,44544:0:0:0:0:
448,192,44544,1,4,0:0:0:0:
64,192,44544,1,0,0:0:0:0:
320,192,44544,128,2,44919:0:0:0:0:
448,192,45294,1,8,0:0:0:0:
192,192,45294,1,0,0:0:0:0:
320,192,45481,1,2,0:0:0:0:
64,192,45669,1,0,0:0:0:0:
320,192,45856,1,0,0:0:0:0:
64,192,46044,1,4,0:0:0:0:
192,192,46044,128,2,46794:0:0:0:0:
448,192,46044,1,0,0:0:0:0:
320,192,46231,1,2,0:0:0:0:
448,192,46419,1,2,0:0:0:0:
320,192,46794,128,10,47169:0:0:0:0:
64,192,46794,1,8,0:0:0:0:
192,192,47169,128,2,47544:0:0:0:0:
448,192,47544,128,2,47731:0:0:0:0:
64,192,47544,1,0,0:0:0:0:
320,192,47544,1,4,0:0:0:0:
192,192,47731,128,2,47919:0:0:0:0:
320,192,47919,128,2,49794:0:0:0:0:
448,192,48294,1,8,0:0:0:0:
192,192,48294,1,8,0:0:0:0:
64,192,48669,1,0,0:0:0:0:
448,192,49044,1,2,0:0:0:0:
64,192,49044,1,0,0:0:0:0:
192,192,49044,1,4,0:0:0:0:
448,192,49419,1,0,0:0:0:0:
192,192,49794,1,8,0:0:0:0:
64,192,49794,128,10,50169:0:0:0:0:
448,192,50169,128,2,50544:0:0:0:0:
192,192,50544,1,2,0:0:0:0:
320,192,50544,128,2,52044:0:0:0:0:
64,192,51294,1,8,0:0:0:0:
192,192,51294,1,8,0:0:0:0:
448,192,51856,1,0,0:0:0:0:
64,192,52044,1,0,0:0:0:0:
192,192,52419,128,2,52794:0:0:0:0:
448,192,52794,128,10,53169:0:0:0:0:
64,192,52794,1,8,0:0:0:0:
320,192,53169,128,2,53544:0:0:0:0:
64,192,53544,128,2,53919:0:0:0:0:
192,192,53544,1,2,0:0:0:0:
448,192,53919,128,2,54669:0:0:0:0:
320,192,53919,1,2,0:0:0:0:
192,192,54294,1,8,0:0:0:0:
64,192,54294,1,8,0:0:0:0:
320,192,54669,128,2,55044:0:0:0:0:
64,192,54669,1,2,0:0:0:0:
192,192,55044,128,2,55419:0:0:0:0:
64,192,55419,128,2,55794:0:0:0:0:
448,192,55794,128,8,56169:0:0:0:0:
192,192,55794,1,10,0:0:0:0:
320,192,56169,128,2,56544:0:0:0:0:
192,192,56544,128,2,58044:0:0:0:0:
64,192,56544,1,2,0:0:0:0:
320,192,57294,1,8,0:0:0:0:
448,192,57294,1,8,0:0:0:0:
64,192,57856,1,0,0:0:0:0:
320,192,58044,1,0,0:0:0:0:
448,192,58419,1,2,0:0:0:0:
320,192,58606,1,2,0:0:0:0:
64,192,58794,1,10,0:0:0:0:
192,192,58794,128,8,59169:0:0:0:0:
448,192,59169,1,2,0:0:0:0:
320,192,59356,1,2,0:0:0:0:
192,192,59544,128,2,59919:0:0:0:0:
64,192,59544,1,2,0:0:0:0:
320,192,59919,1,2,0:0:0:0:
448,192,60106,1,2,0:0:0:0:
64,192,60294,128,8,60669:0:0:0:0:
192,192,60294,1,10,0:0:0:0:
320,192,60669,128,2,61044:0:0:0:0:
192,192,61044,128,2,61419:0:0:0:0:
64,192,61419,128,2,61794:0:0:0:0:
192,192,61794,1,10,0:0:0:0:
448,192,61794,1,8,0:0:0:0:
320,192,61981,1,2,0:0:0:0:
448,192,62169,128,2,62544:0:0:0:0:
192,192,62544,128,2,63669:0:0:0:0:
64,192,62544,1,2,0:0:0:0:
320,192,63294,1,8,0:0:0:0:
448,192,63294,1,8,0:0:0:0:
64,192,63669,1,2,0:0:0:0:
448,192,63856,1,2,0:0:0:0:
320,192,64044,128,2,64419:0:0:0:0:
192,192,64044,1,2,0:0:0:0:
64,192,64419,1,2,0:0:0:0:
448,192,64606,1,2,0:0:0:0:
320,192,64794,128,10,65169:0:0:0:0:
192,192,64794,1,10,0:0:0:0:
448,192,65169,128,2,65544:0:0:0:0:
192,192,65544,128,2,65919:0:0:0:0:
320,192,65544,1,2,0:0:0:0:
64,192,65919,128,10,66294:0:0:0:0:
448,192,65919,1,8,0:0:0:0:
320,192,66294,128,10,66669:0:0:0:0:
192,192,66294,1,8,0:0:0:0:
448,192,66669,128,2,67044:0:0:0:0:
192,192,66856,1,8,0:0:0:0:
320,192,66856,1,8,0:0:0:0:
64,192,67044,128,2,67794:0:0:0:0:
320,192,67794,1,2,0:0:0:0:
192,192,67981,1,2,0:0:0:0:
64,192,68169,1,0,0:0:0:0:
448,192,68169,128,0,68544:0:0:0:0:
320,192,68544,128,2,69294:0:0:0:0:
192,192,68544,1,2,0:0:0:0:
64,192,69294,1,8,0:0:0:0:
448,192,69294,1,8,0:0:0:0:
192,192,69669,1,2,0:0:0:0:
320,192,69856,1,2,0:0:0:0:
448,192,70044,1,2,0:0:0:0:
64,192,70044,128,2,70419:0:0:0:0:
320,192,70419,128,2,70794:0:0:0:0:
64,192,70794,1,8,0:0:0:0:
448,192,70794,128,10,71169:0:0:0:0:
192,192,71169,128,2,71544:0:0:0:0:
64,192,71544,128,2,72294:0:0:0:0:
320,192,71544,1,2,0:0:0:0:
192,192,72294,1,10,0:0:0:0:
448,192,72294,128,8,73044:0:0:0:0:
320,192,72669,1,0,0:0:0:0:
64,192,73044,128,2,74919:0:0:0:0:
192,192,73044,128,2,74544:0:0:0:0:
