osu file format v14

[General]
AudioFilename: audio.mp3
AudioLeadIn: 0
PreviewTime: 25604
Countdown: 0
SampleSet: Normal
StackLeniency: 0.7
Mode: 1
LetterboxInBreaks: 0
WidescreenStoryboard: 0

[Editor]
DistanceSpacing: 1
BeatDivisor: 4
GridSize: 32
TimelineZoom: 1.8

[Metadata]
Title:Crushing Dusk
TitleUnicode:Crushing Dusk
Artist:KinkyOats
ArtistUnicode:KinkyOats
Creator:Surono
Version:Futsuu
Source:東方緋想天 ~ Scarlet Weather Rhapsody.
Tags:Touhou Project 10.5 TH10.5 Hisouten Hakurei Jinja Reitaisai 博麗神社例大祭 ending theme 暮色蒼然 Darkening youtube AGK Angry German Kid Hikakin dubstep beatbox ZUN C72 Dellvangel
BeatmapID:964184
BeatmapSetID:449315

[Difficulty]
HPDrainRate:8
CircleSize:5
OverallDifficulty:4
ApproachRate:10
SliderMultiplier:1.6
SliderTickRate:1

[Events]
//Background and Video events
0,0,"BG.jpg",0,0
//Break Periods
//Storyboard Layer 0 (Background)
//Storyboard Layer 1 (Fail)
//Storyboard Layer 2 (Pass)
//Storyboard Layer 3 (Foreground)
//Storyboard Sound Samples

[TimingPoints]
2544,750,4,1,0,75,1,0
26544,-100,4,1,0,75,0,1
50544,-100,4,1,0,75,0,0

[HitObjects]
256,192,2544,5,12,0:0:0:0:
256,192,4044,1,0,0:0:0:0:
256,192,4794,1,8,0:0:0:0:
256,192,5169,1,0,0:0:0:0:
256,192,5544,1,12,0:0:0:0:
256,192,6294,1,8,0:0:0:0:
256,192,6669,1,8,0:0:0:0:
256,192,7044,1,0,0:0:0:0:
256,192,7794,1,8,0:0:0:0:
256,192,8544,1,12,0:0:0:0:
256,192,10044,1,0,0:0:0:0:
256,192,10794,1,8,0:0:0:0:
256,192,11169,1,0,0:0:0:0:
256,192,11544,1,12,0:0:0:0:
256,192,12294,1,8,0:0:0:0:
256,192,13419,1,0,0:0:0:0:
256,192,13794,1,8,0:0:0:0:
256,192,14169,1,0,0:0:0:0:
256,192,14544,1,12,0:0:0:0:
256,192,16044,1,0,0:0:0:0:
256,192,16794,1,8,0:0:0:0:
256,192,17169,1,0,0:0:0:0:
256,192,17544,1,12,0:0:0:0:
256,192,18294,1,8,0:0:0:0:
256,192,18669,1,8,0:0:0:0:
256,192,19044,1,0,0:0:0:0:
256,192,19794,1,8,0:0:0:0:
256,192,20544,1,12,0:0:0:0:
256,192,21294,1,8,0:0:0:0:
256,192,21669,1,8,0:0:0:0:
256,192,22044,1,4,0:0:0:0:
256,192,22794,1,8,0:0:0:0:
256,192,23169,1,0,0:0:0:0:
256,192,23544,1,12,0:0:0:0:
256,192,24294,1,8,0:0:0:0:
256,192,24669,1,8,0:0:0:0:
256,192,25044,1,12,0:0:0:0:
256,192,26544,1,12,0:0:0:0:
256,192,28044,1,0,0:0:0:0:
256,192,28794,1,8,0:0:0:0:
256,192,29169,1,0,0:0:0:0:
256,192,29544,1,12,0:0:0:0:
256,192,29919,1,0,0:0:0:0:
256,192,30294,1,8,0:0:0:0:
256,192,30669,1,8,0:0:0:0:
256,192,31044,1,0,0:0:0:0:
256,192,31794,1,8,0:0:0:0:
256,192,32169,1,0,0:0:0:0:
256,192,32544,1,12,0:0:0:0:
256,192,34044,1,0,0:0:0:0:
256,192,34419,1,0,0:0:0:0:
256,192,34794,1,8,0:0:0:0:
256,192,35169,1,0,0:0:0:0:
256,192,35544,1,12,0:0:0:0:
256,192,36294,1,8,0:0:0:0:
256,192,37419,1,0,0:0:0:0:
256,192,37794,1,8,0:0:0:0:
256,192,38169,1,0,0:0:0:0:
256,192,38544,1,12,0:0:0:0:
256,192,40044,1,0,0:0:0:0:
256,192,40794,1,8,0:0:0:0:
256,192,41169,1,0,0:0:0:0:
256,192,41544,1,12,0:0:0:0:
256,192,41919,1,0,0:0:0:0:
256,192,42294,1,8,0:0:0:0:
256,192,42669,1,8,0:0:0:0:
256,192,43044,1,0,0:0:0:0:
256,192,43794,1,8,0:0:0:0:
256,192,44169,1,8,0:0:0:0:
256,192,44544,1,12,0:0:0:0:
256,192,45294,1,8,0:0:0:0:
256,192,45669,1,0,0:0:0:0:
256,192,46044,1,12,0:0:0:0:
256,192,46794,1,8,0:0:0:0:
256,192,47169,1,8,0:0:0:0:
256,192,47544,1,4,0:0:0:0:
256,192,48294,1,8,0:0:0:0:
256,192,48669,1,0,0:0:0:0:
256,192,49044,1,12,0:0:0:0:
256,192,49794,1,8,0:0:0:0:
256,192,50544,1,4,0:0:0:0:
256,192,51294,1,8,0:0:0:0:
256,192,52419,1,0,0:0:0:0:
256,192,52794,1,8,0:0:0:0:
256,192,53169,1,8,0:0:0:0:
256,192,53544,1,4,0:0:0:0:
256,192,54294,1,8,0:0:0:0:
256,192,54669,1,0,0:0:0:0:
256,192,55419,1,0,0:0:0:0:
256,192,55794,1,8,0:0:0:0:
256,192,56169,1,0,0:0:0:0:
256,192,56544,1,4,0:0:0:0:
256,192,57294,1,8,0:0:0:0:
256,192,58419,1,8,0:0:0:0:
256,192,58794,1,8,0:0:0:0:
256,192,59169,1,8,0:0:0:0:
256,192,59544,1,4,0:0:0:0:
256,192,60294,1,8,0:0:0:0:
256,192,61419,1,0,0:0:0:0:
256,192,61794,1,8,0:0:0:0:
256,192,62169,1,8,0:0:0:0:
256,192,62544,1,4,0:0:0:0:
256,192,63669,1,8,0:0:0:0:
256,192,64044,1,0,0:0:0:0:
256,192,64419,1,8,0:0:0:0:
256,192,64794,1,8,0:0:0:0:
256,192,65544,1,4,0:0:0:0:
256,192,66294,1,12,0:0:0:0:
256,192,67044,1,4,0:0:0:0:
256,192,68169,1,8,0:0:0:0:
256,192,68544,1,4,0:0:0:0:
256,192,69669,1,8,0:0:0:0:
256,192,70044,1,4,0:0:0:0:
256,192,70794,1,8,0:0:0:0:
256,192,71169,1,8,0:0:0:0:
256,192,71544,1,12,0:0:0:0:
256,192,72294,1,8,0:0:0:0:
256,192,73044,1,4,0:0:0:0:
